osu file format v12

[General]
AudioFilename: hope - Masked bitcH.mp3
AudioLeadIn: 0
PreviewTime: 40367
Countdown: 0
SampleSet: Normal
StackLeniency: 0.7
Mode: 0
LetterboxInBreaks: 0

[Editor]
Bookmarks: 9647,39888,71087,86448,90287,105647,120528,151728,167087,176687,207168
DistanceSpacing: 1
BeatDivisor: 4
GridSize: 8

[Metadata]
Title:Masked bitcH
TitleUnicode:Masked bitcH
Artist:hope
ArtistUnicode:hope
Creator:blackabyss
Version:Hard
Source:
Tags:utaite megpoid gumi vocaloid Tsusuko _HydeSama_ Giga-P
BeatmapID:189966
BeatmapSetID:64110

[Difficulty]
HPDrainRate:6
CircleSize:4
OverallDifficulty:6
ApproachRate:7
SliderMultiplier:1.6
SliderTickRate:2

[Events]
//Background and Video events
0,0,"GUMI.full.13186451e.jpg",0,0
//Break Periods
2,71288,85548
2,151928,166188
//Storyboard Layer 0 (Background)
//Storyboard Layer 1 (Fail)
//Storyboard Layer 2 (Pass)
//Storyboard Layer 3 (Foreground)
//Storyboard Sound Samples
//Background Colour Transformations
3,100,163,162,255

[TimingPoints]
9648,480,4,1,1,65,1,0
40368,-100,4,1,1,85,0,1
71088,-100,4,1,1,65,0,0
105168,-100,4,2,1,65,0,0
106128,-100,4,1,1,65,0,0
121008,-100,4,1,1,85,0,1
151728,-100,4,3,1,65,0,0
176688,-100,4,1,1,40,0,0
177168,-100,4,1,1,85,0,1
207168,-100,4,1,1,65,0,0

[Colours]
Combo1 : 255,128,0
Combo2 : 98,196,0
Combo3 : 255,128,128
Combo4 : 196,108,210

[HitObjects]
232,107,9648,1,4,0:0:0:0:
378,172,10128,2,0,P|372:230|328:247,1,80,8|0,0:2|0:0,0:0:0:0:
274,287,10608,1,0,0:0:0:0:
82,287,11088,1,8,0:2:0:0:
177,286,11328,1,0,0:0:0:0:
274,287,11568,5,0,0:0:0:0:
459,236,12048,1,8,0:2:0:0:
418,148,12288,1,0,0:0:0:0:
384,76,12528,1,0,0:0:0:0:
306,56,12768,1,0,0:0:0:0:
231,87,13008,2,0,L|229:167,2,80,8|0|4,0:0|0:0|0:0,0:0:0:0:
151,75,13728,6,0,L|78:110,1,80,0|8,0:0|0:2,0:0:0:0:
78,190,14208,2,0,L|158:235,1,80
290,301,14928,1,0,0:0:0:0:
364,271,15168,1,0,0:0:0:0:
438,240,15408,6,0,P|424:163|350:184,1,160,0|8,0:0|0:2,0:0:0:0:
280,155,16128,2,0,L|201:166,1,80
129,130,16608,2,0,L|39:146,1,80,0|8,0:0|0:0,0:0:0:0:
147,271,17328,5,0,0:0:0:0:
327,88,18048,2,0,L|384:148,1,80
231,200,18768,5,8,0:0:0:0:
77,245,19248,1,0,0:0:0:0:
110,88,19728,1,8,0:2:0:0:
268,68,20208,2,0,L|351:18,2,80,0|0|8,0:0|0:0|0:0,0:0:0:0:
304,139,20928,1,0,0:0:0:0:
375,177,21168,6,0,P|443:206|479:285,1,160,0|8,0:0|0:2,0:0:0:0:
399,295,21888,1,0,0:0:0:0:
318,290,22128,2,0,P|236:260|209:171,1,160,0|8,0:0|0:0,0:0:0:0:
236,40,23088,2,0,P|155:51|98:110,1,160,0|8,0:0|0:2,0:0:0:0:
58,258,24048,2,0,P|88:296|134:306,1,80
197,300,24528,1,8,0:0:0:0:
337,223,25008,5,4,0:0:0:0:
371,150,25248,1,0,0:0:0:0:
291,157,25488,2,0,P|237:149|194:104,1,80,8|0,0:2|0:0,0:0:0:0:
146,97,25968,1,0,0:0:0:0:
66,108,26208,2,0,P|37:153|44:200,1,80,0|8,0:0|0:0,0:0:0:0:
191,138,26928,6,0,L|263:85,2,80
156,210,27648,1,0,0:0:0:0:
76,218,27888,2,0,L|77:305,1,80
154,318,28368,2,0,B|232:278|185:247|261:203,1,160,8|0,0:0|0:0,0:0:0:0:
326,158,29088,6,0,P|379:151|415:176,1,80
448,227,29568,1,0,0:0:0:0:
451,308,29808,2,0,L|373:359,2,80,0|0|8,0:0|0:0|0:0,0:0:0:0:
292,287,30768,1,0,0:0:0:0:
233,138,31248,1,0,0:0:0:0:
157,163,31488,1,0,0:0:0:0:
84,198,31728,2,0,P|77:276|141:338,1,160,0|8,0:0|0:0,0:0:0:0:
288,312,32688,5,0,0:0:0:0:
358,274,32928,1,0,0:0:0:0:
320,204,33168,1,0,0:0:0:0:
250,242,33408,2,0,P|216:184|196:92,1,160
125,129,34128,6,0,L|50:168,2,80,8|0|0,0:0|0:0|0:0,0:0:0:0:
197,93,34848,1,0,0:0:0:0:
276,90,35088,2,0,L|360:90,1,80
415,143,35568,1,0,0:0:0:0:
426,222,35808,2,0,P|391:271|349:268,1,80,0|8,0:0|0:0,0:0:0:0:
216,254,36528,5,0,0:0:0:0:
139,277,36768,1,0,0:0:0:0:
93,211,37008,1,0,0:0:0:0:
170,191,37248,1,0,0:0:0:0:
216,254,37488,1,0,0:0:0:0:
248,180,37728,2,0,P|297:168|351:178,1,80,0|8,0:0|0:0,0:0:0:0:
256,192,38448,12,0,39888,0:0:0:0:
78,246,40368,5,4,0:0:0:0:
120,91,40848,1,8,0:0:0:0:
198,105,41088,1,0,0:0:0:0:
199,185,41328,2,0,P|257:235|304:184,2,160,0|8|0,0:0|0:0|0:0,0:0:0:0:
118,189,42528,1,0,0:0:0:0:
38,193,42768,1,8,0:0:0:0:
81,260,43008,1,0,0:0:0:0:
160,254,43248,2,0,P|178:304|229:318,1,80,0|0,0:0|0:0,0:0:0:0:
277,333,43728,6,0,L|358:297,1,80,8|0,0:0|0:0,0:0:0:0:
309,230,44208,1,0,0:0:0:0:
237,194,44448,1,0,0:0:0:0:
159,210,44688,2,0,P|101:181|94:142,1,80,8|0,0:0|0:0,0:0:0:0:
166,131,45168,2,0,B|250:93|250:93|287:115|314:116,1,160,0|8,0:0|0:0,0:0:0:0:
340,191,45888,1,0,0:0:0:0:
279,244,46128,2,0,B|221:273|180:242|157:183|157:183|101:194|48:155|60:86,1,320
207,24,47568,1,8,0:0:0:0:
365,52,48048,6,0,L|446:52,1,80,4|0,0:0|0:0,0:0:0:0:
490,118,48528,1,8,0:0:0:0:
452,188,48768,1,0,0:0:0:0:
384,145,49008,2,0,L|303:146,1,80
223,146,49488,1,8,0:0:0:0:
228,225,49728,1,0,0:0:0:0:
291,276,49968,2,0,L|232:340,2,80,0|0|8,0:0|0:0|0:0,0:0:0:0:
228,225,50688,2,0,L|149:240,2,80,0|0|0,0:0|0:0|0:0,0:0:0:0:
223,146,51408,6,0,L|306:122,1,80,8|0,0:0|0:0,0:0:0:0:
358,179,51888,1,4,0:0:0:0:
437,188,52128,2,0,L|465:274,2,80,0|8|0,0:0|0:0|0:0,0:0:0:0:
464,112,52848,1,0,0:0:0:0:
396,69,53088,1,0,0:0:0:0:
320,96,53328,2,0,P|275:96|245:122,1,80,8|0,0:0|0:0,0:0:0:0:
261,196,53808,2,0,B|211:244|150:220|142:157|142:157|95:192|23:150|34:86,1,320
174,18,55248,1,8,0:0:0:0:
321,81,55728,6,0,L|224:47,1,80,4|0,0:0|0:0,0:0:0:0:
211,127,56208,2,0,L|115:140,1,80,8|0,0:0|0:0,0:0:0:0:
84,202,56688,1,0,0:0:0:0:
151,245,56928,1,0,0:0:0:0:
185,266,57048,1,0,0:0:0:0:
223,278,57168,2,0,P|297:306|378:273,1,160,8|0,0:0|0:0,0:0:0:0:
435,234,57888,1,0,0:0:0:0:
424,154,58128,2,0,P|394:102|357:90,1,80,8|0,0:0|0:0,0:0:0:0:
342,74,58488,1,0,0:0:0:0:
303,65,58608,1,0,0:0:0:0:
147,94,59088,6,0,L|72:148,2,80,8|0|4,0:0|0:0|0:0,0:0:0:0:
214,137,59808,2,0,L|194:221,1,80,0|8,0:0|0:0,0:0:0:0:
207,294,60288,1,0,0:0:0:0:
287,294,60528,2,0,L|375:342,1,80
425,289,61008,1,8,0:0:0:0:
480,233,61248,2,0,L|466:155,1,80
395,117,61728,1,0,0:0:0:0:
317,135,61968,2,0,P|278:124|251:96,1,80,8|0,0:0|0:0,0:0:0:0:
224,20,62448,2,0,B|181:45|134:32|134:32|95:54|97:98,1,160,0|8,0:0|0:0,0:0:0:0:
166,128,63168,1,0,0:0:0:0:
235,167,63408,6,0,P|209:203|168:209,1,80,4|0,0:0|0:0,0:0:0:0:
96,203,63888,1,8,0:0:0:0:
123,278,64128,2,0,P|152:309|193:320,1,80
235,167,64848,1,8,0:0:0:0:
283,232,65088,1,0,0:0:0:0:
318,160,65328,2,0,L|399:111,2,80,0|0|8,0:0|0:0|0:0,0:0:0:0:
363,226,66048,2,0,L|417:287,1,80
260,323,66768,5,8,0:0:0:0:
194,276,67008,1,0,0:0:0:0:
200,196,67248,1,0,0:0:0:0:
272,162,67488,1,0,0:0:0:0:
340,202,67728,2,0,L|409:162,2,80,8|0|0,0:0|0:0|0:0,0:0:0:0:
332,281,68448,1,0,0:0:0:0:
256,192,68928,12,4,71088,0:0:0:0:
105,246,86448,5,4,0:0:0:0:
258,291,86928,2,0,P|302:283|336:242,1,80,8|0,0:0|0:0,0:0:0:0:
320,99,87648,1,0,0:0:0:0:
240,99,87888,1,8,0:0:0:0:
327,259,88368,1,4,0:0:0:0:
256,192,88608,12,8,89808,0:0:0:0:
65,192,90288,5,4,0:0:0:0:
185,86,90768,1,0,0:0:0:0:
305,191,91248,2,0,P|346:179|377:154,2,80,0|0|8,0:0|0:0|0:0,0:0:0:0:
197,310,92208,1,0,0:0:0:0:
272,336,92448,1,0,0:0:0:0:
344,299,92688,2,0,P|425:282|404:204,1,160
473,157,93408,2,0,L|409:102,1,80,0|8,0:0|0:0,0:0:0:0:
338,73,93888,1,0,0:0:0:0:
257,69,94128,6,0,L|167:69,1,80
101,95,94608,1,0,0:0:0:0:
100,174,94848,1,0,0:0:0:0:
153,233,95088,2,0,L|219:287,1,80
294,291,95568,2,0,L|365:246,2,80,8|0|0,0:0|0:0|0:0,0:0:0:0:
253,213,96288,1,0,0:0:0:0:
253,213,96528,2,0,P|276:137|204:82,1,160
102,188,97488,1,8,0:0:0:0:
166,140,97728,5,0,0:0:0:0:
196,114,97848,1,0,0:0:0:0:
225,86,97968,2,0,P|294:58|384:95,1,160
417,150,98688,1,0,0:0:0:0:
386,223,98928,2,0,L|331:294,3,80,0|0|8|0,0:0|0:0|0:0|0:0,0:0:0:0:
284,346,99888,1,0,0:0:0:0:
230,286,100128,2,0,P|204:251|153:233,1,80
92,223,100608,1,0,0:0:0:0:
139,158,100848,2,0,L|221:119,3,80,0|0|8|0,0:0|0:0|0:0|0:0,0:0:0:0:
281,85,101808,6,0,P|364:101|413:173,1,160
414,238,102528,1,0,0:0:0:0:
412,317,102768,2,0,P|340:301|286:237,1,160,0|8,0:0|0:0,0:0:0:0:
281,157,103488,1,0,0:0:0:0:
361,157,103728,2,0,P|330:86|230:53,1,160
45,163,104928,1,0,0:0:0:0:
67,240,105168,1,4,0:0:0:0:
129,290,105408,2,2,L|131:330,2,40
195,243,105888,5,0,0:0:0:0:
232,258,106008,1,0,0:0:0:0:
269,273,106128,2,0,L|363:263,1,80,0|0,0:0|0:0,0:0:0:0:
369,187,106608,2,0,L|440:139,1,80
436,62,107088,2,0,L|347:31,1,80,8|0,0:0|0:0,0:0:0:0:
291,77,107568,2,0,L|206:101,1,80,0|0,0:0|0:0,0:0:0:0:
225,178,108048,2,0,L|156:236,1,80
96,185,108528,1,0,0:0:0:0:
95,105,108768,1,0,0:0:0:0:
166,68,109008,2,0,L|261:48,1,80,8|0,0:0|0:0,0:0:0:0:
313,91,109488,5,0,0:0:0:0:
390,70,109728,2,0,L|462:125,1,80
404,182,110208,2,0,L|441:261,1,80
358,265,110688,2,0,L|309:338,1,80,0|8,0:0|0:0,0:0:0:0:
236,308,111168,2,0,L|152:352,2,80,0|0|0,0:0|0:0|0:0,0:0:0:0:
203,234,111888,1,0,0:0:0:0:
126,257,112128,2,0,L|63:189,1,80
85,119,112608,1,0,0:0:0:0:
161,95,112848,1,8,0:0:0:0:
240,82,113088,2,0,L|240:34,2,40
317,103,113568,5,0,0:0:0:0:
391,134,113808,1,0,0:0:0:0:
369,210,114048,2,0,P|365:259|314:278,1,80
262,272,114528,2,0,L|164:251,3,80,0|8|0|0,0:0|0:0|0:0|0:0,0:0:0:0:
132,193,115488,1,0,0:0:0:0:
193,142,115728,2,0,P|267:115|357:157,1,160
403,191,116448,1,0,0:0:0:0:
370,264,116688,2,0,L|293:308,2,80,8|0|0,0:0|0:0|0:0,0:0:0:0:
439,304,117408,5,0,0:0:0:0:
478,234,117648,2,0,P|480:148|401:98,1,160
380,167,118368,2,0,P|342:197|292:193,1,80,0|8,0:0|0:0,0:0:0:0:
256,192,119088,12,0,120528,0:0:0:0:
67,131,121008,5,4,0:0:0:0:
78,51,121248,1,0,0:0:0:0:
156,34,121488,2,0,P|225:66|265:139,1,160,8|0,0:0|0:0,0:0:0:0:
344,148,122208,1,0,0:0:0:0:
361,226,122448,2,0,P|350:266|307:282,1,80,8|0,0:0|0:0,0:0:0:0:
237,287,122928,2,0,L|136:287,2,80,0|0|8,0:0|0:0|0:0,0:0:0:0:
208,212,123648,1,0,0:0:0:0:
136,175,123888,2,0,P|125:130|144:98,1,80
216,76,124368,5,8,0:0:0:0:
295,76,124608,1,0,0:0:0:0:
371,100,124848,2,0,L|457:158,1,80,4|0,0:0|0:0,0:0:0:0:
450,223,125328,2,0,L|368:263,1,80,8|0,0:0|0:0,0:0:0:0:
323,316,125808,1,0,0:0:0:0:
243,328,126048,1,0,0:0:0:0:
211,254,126288,1,8,0:0:0:0:
286,226,126528,6,0,B|336:182|406:172|406:172|445:117|409:74,1,240,0|8,0:0|0:0,0:0:0:0:
332,49,127488,1,0,0:0:0:0:
252,52,127728,1,0,0:0:0:0:
241,131,127968,2,0,P|207:170|161:178,1,80,0|8,0:0|0:0,0:0:0:0:
101,177,128448,5,0,0:0:0:0:
64,161,128568,1,0,0:0:0:0:
28,143,128688,2,0,P|38:105|84:82,2,80,0|0|8,0:0|0:0|0:0,0:0:0:0:
3,219,129408,1,0,0:0:0:0:
46,286,129648,1,0,0:0:0:0:
116,324,129888,1,0,0:0:0:0:
184,282,130128,1,8,0:0:0:0:
263,290,130368,2,0,P|311:269|330:247,1,80
291,177,130848,2,0,P|325:139|333:102,2,80,0|8|0,0:0|0:0|0:0,0:0:0:0:
250,107,131568,1,0,0:0:0:0:
201,43,131808,6,0,P|167:81|159:118,2,80,0|8|0,0:0|0:0|0:0,0:0:0:0:
279,28,132528,2,0,P|304:39|336:79,1,80,4|0,0:0|0:0,0:0:0:0:
344,159,133008,2,0,L|444:168,2,80,8|0|0,0:0|0:0|0:0,0:0:0:0:
315,234,133728,2,0,P|293:276|264:292,1,80,0|8,0:0|0:0,0:0:0:0:
186,288,134208,2,0,B|163:245|140:235|86:250|86:250|94:195|75:164|39:152,1,240,0|8,0:0|0:0,0:0:0:0:
84,86,135168,1,0,0:0:0:0:
162,71,135408,2,0,L|190:15,4,40,0|0|0|0|8,0:0|0:0|0:0|0:0|0:0,0:0:0:0:
239,92,136128,1,0,0:0:0:0:
313,121,136368,6,0,L|422:95,2,80,4|0|8,0:0|0:0|0:0,0:0:0:0:
250,71,137088,1,0,0:0:0:0:
170,72,137328,1,0,0:0:0:0:
93,94,137568,1,0,0:0:0:0:
63,121,137688,1,0,0:0:0:0:
48,158,137808,2,0,L|130:184,1,80,8|0,0:0|0:0,0:0:0:0:
141,261,138288,2,0,L|221:247,1,80
288,289,138768,2,0,P|366:320|451:272,1,160,8|0,0:0|0:0,0:0:0:0:
356,152,139728,6,0,L|425:99,2,80,8|0|4,0:0|0:0|0:0,0:0:0:0:
321,79,140448,2,0,L|249:134,1,80,0|8,0:0|0:0,0:0:0:0:
259,207,140928,1,0,0:0:0:0:
185,174,141168,1,0,0:0:0:0:
114,210,141408,2,0,L|44:169,1,80,0|8,0:0|0:0,0:0:0:0:
96,108,141888,6,0,P|177:98|254:51,1,160
317,92,142608,1,8,0:0:0:0:
386,131,142848,2,0,L|454:191,1,80
372,217,143328,2,0,L|398:296,1,80,0|8,0:0|0:0,0:0:0:0:
329,336,143808,5,0,0:0:0:0:
289,336,143928,1,0,0:0:0:0:
249,336,144048,2,0,L|152:336,2,80,4|0|8,0:0|0:0|0:0,0:0:0:0:
215,263,144768,1,0,0:0:0:0:
246,189,145008,2,0,L|330:136,1,80
370,205,145488,2,0,L|455:186,1,80,8|0,0:0|0:0,0:0:0:0:
467,110,145968,1,0,0:0:0:0:
428,40,146208,2,0,L|320:31,1,80,0|8,0:0|0:0,0:0:0:0:
268,38,146688,2,0,P|241:72|186:78,1,80
230,240,147408,5,8,0:0:0:0:
182,167,147648,1,0,0:0:0:0:
137,100,147888,2,0,P|85:99|61:124,1,80
74,196,148368,1,8,0:0:0:0:
140,240,148608,2,0,L|191:303,2,80
141,160,149328,1,8,0:0:0:0:
208,203,149568,2,0,P|250:194|293:149,1,80,0|4,0:0|0:0,0:0:0:0:
256,192,150048,12,4,151728,0:0:0:0:
449,73,167088,6,0,L|366:73,1,80,4|0,0:0|0:0,0:0:0:0:
297,108,167568,1,2,0:0:0:0:
217,120,167808,2,0,P|181:159|143:171,1,80
115,237,168288,1,0,0:0:0:0:
194,232,168528,2,0,P|254:237|283:253,1,80,2|0,0:0|0:0,0:0:0:0:
283,325,169008,6,0,P|370:325|389:260,1,160,4|2,0:0|0:0,0:0:0:0:
312,246,169728,2,0,P|285:211|279:173,1,80
328,112,170208,1,0,0:0:0:0:
259,71,170448,1,2,0:0:0:0:
179,65,170688,2,0,L|104:105,3,80,0|4|0|2,0:0|0:0|0:0|0:0,0:0:0:0:
71,173,171648,1,0,0:0:0:0:
69,252,171888,6,0,P|103:318|182:311,1,160,0|2,0:0|0:0,0:0:0:0:
259,312,172608,1,0,0:0:0:0:
338,307,172848,2,0,P|421:311|453:220,1,160,4|2,0:0|0:0,0:0:0:0:
461,171,173568,6,0,L|496:120,2,40
411,107,174048,2,0,L|419:43,2,40,0|0|2,0:0|0:0|0:0,0:0:0:0:
345,153,174528,2,0,L|317:104,2,40,0|0|4,0:0|0:0|0:0,0:0:0:0:
276,195,175008,1,0,0:0:0:0:
235,264,175248,2,0,P|201:238|197:198,1,80,2|0,0:0|0:0,0:0:0:0:
159,131,175728,2,0,L|188:95,4,40,0|0|0|0|2,0:0|0:0|0:0|0:0|0:0,0:0:0:0:
80,148,176448,1,0,0:0:0:0:
56,225,176688,6,0,P|106:298|175:317,1,160,4|8,0:0|0:0,0:0:0:0:
326,262,177648,1,0,0:0:0:0:
371,103,178128,1,8,0:0:0:0:
450,98,178368,1,0,0:0:0:0:
486,169,178608,1,0,0:0:0:0:
456,243,178848,2,0,L|391:305,1,80,0|8,0:0|0:0,0:0:0:0:
326,262,179328,2,0,L|229:285,1,80
189,225,179808,1,0,0:0:0:0:
154,205,179928,1,0,0:0:0:0:
121,182,180048,6,0,L|53:134,2,80,8|0|4,0:0|0:0|0:0,0:0:0:0:
182,130,180768,1,0,0:0:0:0:
253,94,181008,2,0,L|319:41,2,80,8|0|0,0:0|0:0|0:0,0:0:0:0:
310,149,181728,2,0,P|337:184|343:247,1,80,0|8,0:0|0:0,0:0:0:0:
320,294,182208,1,0,0:0:0:0:
256,192,182448,12,8,183888,0:0:0:0:
69,69,184368,6,0,L|159:67,1,80,4|0,0:0|0:0,0:0:0:0:
167,145,184848,2,0,L|254:175,1,80,8|0,0:0|0:0,0:0:0:0:
314,205,185328,1,0,0:0:0:0:
385,240,185568,1,0,0:0:0:0:
414,314,185808,2,0,L|329:338,1,80,8|0,0:0|0:0,0:0:0:0:
263,304,186288,1,4,0:0:0:0:
209,244,186528,2,0,L|123:220,2,80,0|8|0,0:0|0:0|0:0,0:0:0:0:
181,319,187248,1,0,0:0:0:0:
288,200,187728,6,0,L|370:157,1,80,8|0,0:0|0:0,0:0:0:0:
355,82,188208,2,0,L|254:39,1,80,4|0,0:0|0:0,0:0:0:0:
210,88,188688,2,0,L|121:100,1,80,8|0,0:0|0:0,0:0:0:0:
119,177,189168,2,0,L|52:228,1,80
90,297,189648,1,8,0:0:0:0:
167,316,189888,2,0,L|254:298,3,80,0|4|0|8,0:0|0:0|0:0|0:0,0:0:0:0:
265,222,190848,2,0,L|347:189,1,80
414,164,191328,1,0,0:0:0:0:
449,145,191448,1,0,0:0:0:0:
486,130,191568,1,8,0:0:0:0:
340,66,192048,6,0,P|265:47|190:85,1,160,4|8,0:0|0:0,0:0:0:0:
116,103,192768,1,0,0:0:0:0:
131,182,193008,2,0,P|92:226|63:235,1,80
59,312,193488,2,0,L|143:327,1,80,8|0,0:0|0:0,0:0:0:0:
211,294,193968,2,0,L|294:284,1,80,4|0,0:0|0:0,0:0:0:0:
326,212,194448,2,0,L|389:158,2,80,8|0|0,0:0|0:0|0:0,0:0:0:0:
182,140,195408,5,8,0:0:0:0:
104,161,195648,2,0,P|76:196|40:214,1,80,0|4,0:0|0:0,0:0:0:0:
47,292,196128,2,0,P|82:320|100:356,1,80,0|8,0:0|0:0,0:0:0:0:
169,313,196608,1,0,0:0:0:0:
247,328,196848,1,0,0:0:0:0:
312,281,197088,1,0,0:0:0:0:
388,257,197328,2,0,P|368:176|279:159,1,160,8|4,0:0|0:0,0:0:0:0:
271,79,198048,1,0,0:0:0:0:
191,85,198288,2,0,L|90:103,1,80,8|0,0:0|0:0,0:0:0:0:
121,178,198768,2,0,L|55:225,2,80,0|0|8,0:0|0:0|0:0,0:0:0:0:
196,319,199728,5,4,0:0:0:0:
274,302,199968,1,0,0:0:0:0:
353,311,200208,2,0,P|421:288|426:204,1,160,8|0,0:0|0:0,0:0:0:0:
407,131,200928,1,0,0:0:0:0:
393,93,201048,1,0,0:0:0:0:
373,58,201168,2,0,L|273:61,1,80,8|0,0:0|0:0,0:0:0:0:
251,128,201648,2,0,L|163:148,1,80,4|0,0:0|0:0,0:0:0:0:
116,201,202128,2,0,P|110:271|184:304,1,160,8|0,0:0|0:0,0:0:0:0:
342,309,203088,6,0,L|449:287,1,80,8|0,0:0|0:0,0:0:0:0:
376,225,203568,2,0,L|448:175,1,80,4|0,0:0|0:0,0:0:0:0:
378,129,204048,2,0,L|433:51,2,80,8|0|0,0:0|0:0|0:0,0:0:0:0:
306,92,204768,1,0,0:0:0:0:
309,171,205008,1,8,0:0:0:0:
256,192,205248,12,4,207168,0:0:0:0:
