osu file format v12

[General]
AudioFilename: hope - Masked bitcH.mp3
AudioLeadIn: 0
PreviewTime: 40367
Countdown: 0
SampleSet: Normal
StackLeniency: 0.7
Mode: 0
LetterboxInBreaks: 0

[Editor]
Bookmarks: 9647,39888,71087,86448,90287,105647,120528,151728,167087,176687,207168
DistanceSpacing: 0.9
BeatDivisor: 2
GridSize: 8

[Metadata]
Title:Masked bitcH
TitleUnicode:Masked bitcH
Artist:hope
ArtistUnicode:hope
Creator:blackabyss
Version:Easy
Source:
Tags:utaite megpoid gumi vocaloid Tsusuko _HydeSama_ Giga-P
BeatmapID:188935
BeatmapSetID:64110

[Difficulty]
HPDrainRate:2
CircleSize:3
OverallDifficulty:2
ApproachRate:3
SliderMultiplier:1.4
SliderTickRate:2

[Events]
//Background and Video events
0,0,"GUMI.full.13186451e.jpg",0,0
//Break Periods
2,71288,85008
2,151928,165648
//Storyboard Layer 0 (Background)
//Storyboard Layer 1 (Fail)
//Storyboard Layer 2 (Pass)
//Storyboard Layer 3 (Foreground)
//Storyboard Sound Samples
//Background Colour Transformations
3,100,163,162,255

[TimingPoints]
9648,480,4,1,1,65,1,0
40368,-100,4,1,1,85,0,1
71088,-100,4,1,1,65,0,0
105168,-100,4,2,1,65,0,0
106128,-100,4,1,1,65,0,0
121008,-100,4,1,1,85,0,1
151728,-100,4,3,1,65,0,0
176688,-100,4,1,1,40,0,0
177168,-100,4,1,1,85,0,1
207168,-100,4,1,1,65,0,0

[Colours]
Combo1 : 255,128,0
Combo2 : 98,196,0
Combo3 : 255,128,128
Combo4 : 196,108,210

[HitObjects]
52,291,9648,1,4,0:0:0:0:
79,167,10128,1,0,0:0:0:0:
180,92,10608,1,0,0:0:0:0:
305,92,11088,1,8,0:0:0:0:
387,187,11568,5,0,0:0:0:0:
296,274,12048,2,0,B|246:330|169:342,1,140,8|0,0:2|0:0,0:0:0:0:
86,253,13008,2,0,B|96:183|153:133,1,140,8|0,0:0|0:0,0:0:0:0:
246,49,13968,5,8,0:2:0:0:
276,172,14448,1,0,0:0:0:0:
392,93,14928,1,8,0:0:0:0:
412,217,15408,2,0,P|444:290|497:326,2,140,0|8|0,0:0|0:2|0:0,0:0:0:0:
300,276,16848,1,8,0:0:0:0:
176,301,17328,1,0,0:0:0:0:
71,230,17808,5,8,0:2:0:0:
74,104,18288,1,0,0:0:0:0:
191,148,18768,1,8,0:0:0:0:
295,219,19248,2,0,B|291:296|189:314,2,140,0|0|0,0:0|0:0|0:0,0:0:0:0:
291,93,20688,6,0,B|371:103|388:183,1,140,8|0,0:0|0:0,0:0:0:0:
305,275,21648,2,0,B|215:268|193:178,1,140,8|0,0:0|0:0,0:0:0:0:
116,292,22608,2,0,B|91:223|9:213,2,140,8|0|0,0:0|0:0|0:0,0:0:0:0:
230,347,24048,1,8,0:2:0:0:
352,318,24528,1,8,0:0:0:0:
256,235,25008,5,4,0:0:0:0:
137,191,25488,1,8,0:2:0:0:
106,68,25968,1,0,0:0:0:0:
232,68,26448,2,0,B|310:47|365:115,1,140,8|0,0:0|0:0,0:0:0:0:
421,216,27408,2,0,B|349:243|291:186,1,140,8|0,0:0|0:0,0:0:0:0:
181,128,28368,1,8,0:0:0:0:
113,21,28848,5,0,0:0:0:0:
12,97,29328,1,8,0:0:0:0:
79,203,29808,2,0,B|124:269|207:239,1,140,0|8,0:0|0:0,0:0:0:0:
325,214,30768,2,0,B|404:248,2,70,0|0|8,0:0|0:0|0:0,0:0:0:0:
284,94,31728,1,0,0:0:0:0:
161,123,32208,1,8,0:0:0:0:
105,236,32688,6,0,B|182:236|226:296|226:296|284:342|364:320,1,280,0|0,0:0|0:0,0:0:0:0:
375,195,34128,1,8,0:0:0:0:
349,71,34608,1,0,0:0:0:0:
243,139,35088,1,8,0:0:0:0:
138,69,35568,2,0,P|70:73|71:152,1,140,0|8,0:0|0:0,0:0:0:0:
142,227,36528,5,0,0:0:0:0:
173,348,37008,1,8,0:0:0:0:
265,262,37488,2,0,B|335:261,2,70,0|0|8,0:0|0:0|0:0,0:0:0:0:
256,192,38448,12,4,40368,0:0:0:0:
358,119,41328,5,0,0:0:0:0:
309,235,41808,2,0,B|261:312|172:283,2,140,8|0|8,0:0|0:0|0:0,0:0:0:0:
415,303,43248,1,0,0:0:0:0:
448,181,43728,6,0,B|519:149,2,70,8|0|0,0:0|0:0|0:0,0:0:0:0:
335,123,44688,1,8,0:0:0:0:
305,246,45168,1,0,0:0:0:0:
216,154,45648,1,8,0:0:0:0:
176,273,46128,2,0,B|134:241|95:251|105:311|33:303|35:228|3:272,1,140,0|8,0:0|0:0,0:0:0:0:
89,153,47088,2,0,B|137:186|155:148|155:110|218:131|208:170|253:159,1,140,0|8,0:0|0:0,0:0:0:0:
161,38,48048,6,0,B|91:38,2,70,0|0|8,0:0|0:0|0:0,0:0:0:0:
251,126,49008,1,0,0:0:0:0:
365,73,49488,1,8,0:0:0:0:
465,149,49968,2,0,B|480:241|391:266,1,140,0|8,0:0|0:0,0:0:0:0:
280,256,50928,1,0,0:0:0:0:
165,309,51408,6,0,B|77:284|72:192,2,140,8|0|8,0:0|0:0|0:0,0:0:0:0:
198,187,52848,1,0,0:0:0:0:
242,69,53328,1,8,0:0:0:0:
367,79,53808,2,0,B|400:120|376:176|328:192|271:211|248:272|293:320,2,280,0|0|0,0:0|0:0|0:0,0:0:0:0:
244,106,56208,5,8,0:0:0:0:
130,51,56688,1,0,0:0:0:0:
25,121,57168,2,0,P|23:189|78:245,1,140,8|0,0:0|0:0,0:0:0:0:
155,150,58128,1,8,0:0:0:0:
260,219,58608,1,0,0:0:0:0:
148,276,59088,5,8,0:0:0:0:
155,150,59568,1,0,0:0:0:0:
258,77,60048,1,8,0:0:0:0:
379,43,60528,2,0,B|403:117|345:169,1,140,0|8,0:0|0:0,0:0:0:0:
337,295,61488,2,0,B|294:229|215:242,1,140,0|8,0:0|0:0,0:0:0:0:
103,186,62448,1,0,0:0:0:0:
345,115,63408,6,0,P|369:56|405:48,2,70,4|0|8,0:0|0:0|0:0,0:0:0:0:
471,127,64368,1,0,0:0:0:0:
401,231,64848,1,8,0:0:0:0:
309,318,65328,2,0,B|232:332|196:253,1,140,0|8,0:0|0:0,0:0:0:0:
285,163,66288,1,0,0:0:0:0:
160,140,66768,6,0,P|117:148|98:203,2,70,8|0|0,0:0|0:0|0:0,0:0:0:0:
171,267,67728,1,8,0:0:0:0:
289,309,68208,2,0,P|342:305|382:223,1,140,0|8,0:0|0:0,0:0:0:0:
256,192,68928,12,4,71088,0:0:0:0:
56,199,86448,5,0,0:0:0:0:
165,137,86928,2,0,P|228:173|226:246,1,140,8|0,0:0|0:0,0:0:0:0:
124,300,87888,1,8,0:0:0:0:
256,192,88368,12,4,90288,0:0:0:0:
407,99,91248,5,0,0:0:0:0:
281,99,91728,1,8,0:0:0:0:
342,209,92208,2,0,B|335:290|245:285,1,140,0|0,0:0|0:0,0:0:0:0:
119,287,93168,1,0,0:0:0:0:
32,198,93648,1,8,0:0:0:0:
247,68,94608,6,0,B|328:48|372:120,1,140
367,240,95568,2,0,B|461:263,2,70,8|0|0,0:0|0:0|0:0,0:0:0:0:
252,292,96528,1,0,0:0:0:0:
134,246,97008,1,0,0:0:0:0:
33,322,97488,1,8,0:0:0:0:
22,196,97968,5,0,0:0:0:0:
98,95,98448,2,0,B|162:47|228:99,1,140
245,222,99408,2,0,B|305:277|375:228,1,140,8|0,0:0|0:0,0:0:0:0:
333,109,100368,1,0,0:0:0:0:
223,47,100848,1,0,0:0:0:0:
99,74,101328,6,0,B|37:124|69:201,1,140,8|0,0:0|0:0,0:0:0:0:
161,286,102288,2,0,B|221:338|292:293,1,140
384,210,103248,2,0,B|430:144|379:78,2,140,8|0|0,0:0|0:0|0:0,0:0:0:0:
131,221,105168,2,2,B|81:278,2,70,2|2|4,0:0|0:0|0:0,0:0:0:0:
57,119,106128,6,0,B|105:49|200:49,1,140,0|0,0:0|0:0,0:0:0:0:
299,58,107088,1,8,0:0:0:0:
416,104,107568,1,0,0:0:0:0:
388,226,108048,1,8,0:0:0:0:
268,266,108528,2,0,B|185:307,2,70,0|0|8,0:0|0:0|0:0,0:0:0:0:
289,141,109488,5,0,0:0:0:0:
166,169,109968,1,0,0:0:0:0:
73,254,110448,1,0,0:0:0:0:
186,309,110928,2,0,B|272:330|325:272,1,140,8|0,0:0|0:0,0:0:0:0:
414,201,111888,2,0,P|456:216|471:264,2,70
397,326,112848,1,8,0:0:0:0:
307,237,113328,6,0,B|227:256|210:220|190:176|108:187,2,210,0|0|8,0:0|0:0|0:0,0:0:0:0:
429,208,115248,2,0,B|451:274|451:274|504:286|502:332,2,140,0|0|8,0:0|0:0|0:0,0:0:0:0:
381,91,116688,2,0,P|316:70|246:91,1,140,8|0,0:0|0:0,0:0:0:0:
145,160,117648,5,0,0:0:0:0:
78,266,118128,1,0,0:0:0:0:
204,266,118608,1,8,0:0:0:0:
256,192,119088,12,4,121008,0:0:0:0:
367,171,121968,5,0,0:0:0:0:
271,90,122448,2,0,B|213:41,1,70,8|0,0:0|0:0,0:0:0:0:
161,157,123168,2,0,B|236:216,1,70,0|8,0:0|0:0,0:0:0:0:
328,259,123888,1,0,0:0:0:0:
426,180,124368,5,8,0:0:0:0:
307,136,124848,1,4,0:0:0:0:
181,134,125328,2,0,B|116:82,2,70,8|0|0,0:0|0:0|0:0,0:0:0:0:
87,218,126288,2,8,B|166:208|206:276|206:276|266:336|335:293,1,280
273,183,127728,1,0,0:0:0:0:
61,318,128688,6,0,B|3:359,2,70,0|0|8,0:0|0:0|0:0,0:0:0:0:
167,251,129648,1,0,0:0:0:0:
58,189,130128,2,0,B|130:139,1,70,8|0,0:0|0:0,0:0:0:0:
234,192,130848,2,0,B|301:143,1,70,0|8,0:0|0:0,0:0:0:0:
214,49,131568,1,0,0:0:0:0:
339,61,132048,6,0,B|426:78|415:168,1,140,8|4,0:0|0:0,0:0:0:0:
358,271,133008,2,0,B|433:322,2,70,8|0|0,0:0|0:0|0:0,0:0:0:0:
232,260,133968,1,8,0:0:0:0:
105,274,134448,6,0,B|30:346,2,70,0|0|8,0:0|0:0|0:0,0:0:0:0:
103,148,135408,1,0,0:0:0:0:
172,43,135888,1,8,0:0:0:0:
284,100,136368,6,0,B|365:47,2,70,4|0|8,0:0|0:0|0:0,0:0:0:0:
361,200,137328,1,0,0:0:0:0:
266,283,137808,2,0,B|193:334,1,70,8|0,0:0|0:0,0:0:0:0:
155,208,138528,2,0,B|224:164,1,70,0|8,0:0|0:0,0:0:0:0:
218,44,139248,1,0,0:0:0:0:
325,111,139728,6,0,B|420:104|438:214,2,140,8|4|8,0:0|0:0|0:0,0:0:0:0:
313,236,141168,1,0,0:0:0:0:
214,314,141648,2,0,B|136:368|64:283,1,140,8|0,0:0|0:0,0:0:0:0:
97,181,142608,2,0,B|82:85|159:74|159:74|196:11|280:38,1,280,8|8,0:0|0:0,0:0:0:0:
385,106,144048,6,0,B|460:39,2,70,4|0|8,0:0|0:0|0:0,0:0:0:0:
420,227,145008,1,0,0:0:0:0:
314,295,145488,2,0,P|236:314|169:281,1,140,8|0,0:0|0:0,0:0:0:0:
72,232,146448,1,8,0:0:0:0:
52,107,146928,1,0,0:0:0:0:
160,43,147408,6,0,P|205:36|244:79,2,70,8|0|0,0:0|0:0|0:0,0:0:0:0:
181,167,148368,1,8,0:0:0:0:
286,236,148848,2,0,B|352:276,2,70,0|0|8,0:0|0:0|0:0,0:0:0:0:
256,192,149808,12,4,151728,0:0:0:0:
50,299,167088,6,0,B|128:314|168:245,1,140,4|2,0:0|0:0,0:0:0:0:
66,169,168048,1,0,0:0:0:0:
188,138,168528,1,2,0:0:0:0:
246,26,169008,6,0,B|328:40|335:127,1,140,4|2,0:0|0:0,0:0:0:0:
260,222,169968,1,0,0:0:0:0:
384,201,170448,2,0,B|458:255,2,70,2|0|4,0:0|0:0|0:0,0:0:0:0:
416,78,171408,6,0,B|344:128|261:42,2,140,2|0|2,0:0|0:0|0:0,0:0:0:0:
472,191,172848,1,4,0:0:0:0:
373,269,173328,2,0,B|425:331,2,70,2|0|0,0:0|0:0|0:0,0:0:0:0:
247,269,174288,2,0,B|208:326,2,70,2|0|4,0:0|0:0|0:0,0:0:0:0:
132,217,175248,5,2,0:0:0:0:
21,277,175728,1,0,0:0:0:0:
32,152,176208,1,2,0:0:0:0:
148,102,176688,1,4,0:0:0:0:
267,62,177168,6,0,B|360:61|360:153,1,140,12|0,0:0|0:0,0:0:0:0:
348,269,178128,1,8,0:0:0:0:
233,321,178608,1,4,0:0:0:0:
127,254,179088,2,0,B|55:225,2,70,8|0|0,0:0|0:0|0:0,0:0:0:0:
115,128,180048,6,0,B|196:150|273:101,1,140,8|4,0:0|0:0,0:0:0:0:
350,36,181008,2,0,B|433:52|481:129,1,140,8|0,0:0|0:0,0:0:0:0:
485,233,181968,2,0,B|464:299|390:330,1,140,8|4,0:0|0:0,0:0:0:0:
277,275,182928,2,0,B|265:187|183:191|183:191|175:104|62:122,1,280,8|8,0:0|0:0,0:0:0:0:
107,244,184368,6,0,B|31:298,2,70,4|0|8,0:0|0:0|0:0,0:0:0:0:
57,127,185328,1,0,0:0:0:0:
171,74,185808,2,0,B|252:119,1,70,8|0,0:0|0:0,0:0:0:0:
353,73,186528,2,0,B|419:111,1,70,0|8,0:0|0:0,0:0:0:0:
442,230,187248,1,0,0:0:0:0:
318,203,187728,5,8,0:0:0:0:
384,312,188208,2,0,B|320:360|240:312,2,140,4|8|0,0:0|0:0|0:0,0:0:0:0:
256,192,189888,12,4,192048,0:0:0:0:
279,56,193008,5,0,0:0:0:0:
153,59,193488,2,0,B|83:98,1,70,8|0,0:0|0:0,0:0:0:0:
108,218,194208,2,0,B|174:179,1,70,0|8,0:0|0:0,0:0:0:0:
293,190,194928,1,0,0:0:0:0:
370,90,195408,6,0,B|446:128|428:236,2,140,8|4|8,0:0|0:0|0:0,0:0:0:0:
292,189,196848,1,0,0:0:0:0:
177,239,197328,2,0,B|84:277,2,70,8|0|4,0:0|0:0|0:0,0:0:0:0:
292,187,198288,1,8,0:0:0:0:
185,119,198768,1,0,0:0:0:0:
433,76,199728,6,0,B|495:108,2,70,4|0|8,0:0|0:0|0:0,0:0:0:0:
360,179,200688,1,0,0:0:0:0:
355,304,201168,2,0,B|287:264,1,70,8|0,0:0|0:0,0:0:0:0:
168,275,201888,2,0,B|113:204,1,70,0|8,0:0|0:0,0:0:0:0:
237,160,202608,1,0,0:0:0:0:
361,138,203088,6,0,P|400:198|382:227,2,70,8|0|0,0:0|0:0|0:0,0:0:0:0:
293,244,204048,1,8,0:0:0:0:
410,289,204528,2,0,P|382:347|312:359,1,140,0|8,0:0|0:0,0:0:0:0:
256,192,205248,12,4,207168,0:0:0:0:
