osu file format v8

[General]
AudioFilename: 44.mp3
AudioLeadIn: 0
PreviewTime: 27673
Countdown: 0
SampleSet: Soft
StackLeniency: 0.6
Mode: 0
LetterboxInBreaks: 0

[Editor]
Bookmarks: 17022,27675,49008,59675,70341,81008,91675,102341,113006,123673
DistanceSpacing: 0.800000011920929
BeatDivisor: 4
GridSize: 8

[Metadata]
Title:Shihunomi *Higanbana* Daini ~ Kuukyogishin ~ Akabeni
Artist:holic
Creator:AngelHoney
Version:Insane
Source:
Tags:f0012979 44teru-k

[Difficulty]
HPDrainRate:7
CircleSize:5
OverallDifficulty:9
ApproachRate:9
SliderMultiplier:1.9
SliderTickRate:1

[Events]
//Background and Video events
0,0,"bg.jpg"
//Break Periods
2,51873,56406
//Storyboard Layer 0 (Background)
//Storyboard Layer 1 (Fail)
//Storyboard Layer 2 (Pass)
//Storyboard Layer 3 (Foreground)
//Storyboard Sound Samples
Sample,19339,0,"soft-hitclap2.wav",50
Sample,32006,0,"soft-hitclap2.wav",50
Sample,37006,0,"soft-hitfinish2.wav",50
Sample,42006,0,"soft-hitclap2.wav",50
//Background Colour Transformations
3,100,0,0,0

[TimingPoints]
3673,333.333333333333,4,2,1,30,1,0
16923,-100,4,2,2,40,0,0
27089,-100,4,1,1,20,0,0
27256,-100,4,1,1,30,0,0
27423,-100,4,1,1,40,0,0
27839,-100,4,2,2,50,0,0
37756,-100,4,1,1,20,0,0
37923,-100,4,1,1,30,0,0
38089,-100,4,1,1,40,0,0
38506,-100,4,2,2,50,0,0
42256,-100,4,1,1,30,0,0
42506,-100,4,1,1,40,0,0
42756,-100,4,2,2,50,0,0
47589,-100,4,1,1,35,0,0
48089,-100,4,2,1,40,0,0
48256,-100,4,1,1,30,0,0
48756,-100,4,2,1,40,0,0
51339,-100,4,2,1,0,0,0
59506,-100,4,2,2,50,0,0
80589,-100,4,1,1,30,0,0
80839,-100,4,1,1,40,0,0
81089,-100,4,2,2,40,0,0
102339,-100,4,2,2,60,0,1
102381,-100,4,2,2,60,0,0

[HitObjects]
88,112,6339,1,6
96,208,6506,1,2
184,232,6672,1,0
240,144,6839,1,2
176,72,7006,1,2
272,40,7172,2,0,B|344:56|352:128,1,95,2|0
432,136,7506,2,0,B|472:184|432:248,1,95,2|2
432,248,7756,1,2
416,264,7839,1,2
320,304,8006,2,0,B|336:256|304:208,1,95,0|2
240,144,8339,1,2
208,232,8506,1,0
176,320,8672,2,0,B|128:352|64:320,1,95,2|0
16,216,9006,6,0,B|72:240|128:192,1,95,2|0
240,88,9339,2,0,B|176:88|144:136,1,95,2|2
296,248,9672,2,0,B|336:216|328:136,1,95
408,256,10006,2,0,B|392:312|424:360,1,95,2|0
480,192,10339,2,0,B|496:144|464:88,1,95,2|0
400,40,10672,1,0
328,104,10839,1,2
280,192,11006,1,0
280,192,11089,1,0
280,192,11173,2,0,B|328:224|408:208,1,95,2|0
232,104,11506,1,0
232,104,11589,1,0
232,104,11673,6,0,B|200:128|120:128,1,95,2|0
80,200,12006,1,2
168,232,12173,2,0,B|232:256|296:232,1,95,2|0
360,216,12506,2,0,B|368:280|312:328,1,95,2|0
240,344,12839,2,0,B|176:360|128:304,1,95,2|2
128,304,13089,1,2
112,280,13173,1,2
80,160,13339,2,0,B|128:192|176:192,1,95,0|2
224,120,13673,1,0
312,168,13839,2,0,B|304:216|240:248,2,95,2|0|2
312,72,14339,6,0,B|360:48|416:72,1,95,2|0
464,160,14673,2,0,B|416:184|368:160,1,95,2|2
296,248,15006,2,0,B|344:272|400:256,1,95
224,176,15339,2,0,B|176:216|192:288,1,95,2|0
120,144,15673,2,0,B|104:88|144:48,1,95,2|0
56,224,16006,2,0,B|72:272|48:320,1,95,2|0
160,288,16339,2,0,B|208:312|272:296,1,95,2|0
312,216,16673,2,0,B|360:192|416:208,1,95
200,136,17006,5,4
144,256,17173,1,0
144,256,17256,1,0
144,256,17339,2,0,B|192:280|240:248,1,95,8|0
416,104,17673,2,0,B|360:96|320:136,1,95
408,224,18006,1,8
488,312,18173,1,0
376,336,18339,2,0,B|360:384,2,47.5,4|0|0
264,296,18673,2,0,B|184:208|64:264,1,190,8|0
168,344,19172,2,0,B|224:240|168:144,1,190
112,64,19672,5,4
224,40,19839,1,0
304,112,20006,2,0,B|376:112|408:48,1,95,8|0
360,224,20339,1,0
264,264,20506,1,0
160,240,20672,2,0,B|112:248|56:208,1,95,8|0
32,320,21006,1,4
136,368,21172,1,0
136,368,21256,1,0
136,368,21339,2,0,B|200:392|240:360,1,95,8|0
328,304,21672,1,0
328,304,21756,1,0
328,304,21839,1,0
488,192,22006,2,0,B|432:184|392:216,1,95,8|0
320,128,22339,6,0,B|272:152|216:112,1,95,4|0
128,56,22672,1,8
104,72,22756,1,0
136,176,22922,1,0
112,200,23006,1,0
208,272,23172,2,0,B|208:328|160:360,1,95,0|8
80,288,23506,1,0
24,192,23672,1,4
24,192,23756,1,0
24,192,23839,1,0
104,104,24006,2,0,B|232:112|248:240,1,190,8|0
264,312,24506,1,0
352,256,24672,2,0,B|384:296|368:352,1,95,8|0
424,200,25006,5,4
320,176,25172,1,0
216,152,25339,1,8
112,128,25506,1,0
24,192,25672,2,0,B|64:240|120:240,1,95
72,336,26006,2,0,B|184:368|256:280,1,190,8|4
304,208,26506,1,0
248,120,26672,1,8
336,56,26839,1,0
424,120,27006,2,0,B|464:168|448:224,1,95
448,224,27256,1,0
440,240,27339,1,0
432,256,27422,1,0
424,272,27506,1,0
416,288,27589,1,0
408,304,27672,6,0,L|368:304|288:336|224:336,1,190,4|8
128,264,28172,1,0
40,104,28339,2,0,L|40:136|56:168|56:200,1,95
160,56,28672,1,8
288,112,28839,2,0,L|328:144|384:144,2,95
256,248,29339,2,0,L|344:248|432:352,1,190,8|0
296,352,29839,1,0
176,352,30006,2,0,L|144:352|112:328|56:328,1,95,8|0
24,64,30339,6,0,L|72:112|56:160|128:216,1,190,4|8
208,120,30839,1,0
320,72,31006,2,0,L|368:72|400:112,1,95
336,216,31339,2,0,L|304:256|368:256,1,95,8|0
488,200,31672,1,0
488,200,31756,1,0
488,200,31839,2,0,L|488:304|392:336,1,190,0|8
272,344,32339,2,0,L|208:344|176:312|88:312,1,190,0|8
32,184,32839,6,0,L|72:216|136:216,2,95,0|4|0
128,104,33339,1,8
208,216,33506,1,0
328,264,33672,2,0,L|368:240|400:280|488:216,1,190,0|8
432,104,34172,2,0,L|384:88|320:96,1,95,0|4
216,112,34506,1,0
96,72,34672,2,0,L|96:96|72:136|72:168,1,95,8|0
168,264,35006,2,0,L|192:264|232:240|264:240,2,95,0|0|8
288,344,35506,1,0
320,144,35672,6,0,L|368:184|424:176,1,95,4|0
448,72,36006,1,8
336,24,36172,2,0,L|280:16|224:56,1,95
168,112,36506,1,0
208,224,36672,1,8
160,328,36839,2,0,L|112:248|80:264|96:184,1,190
176,48,37339,2,0,L|200:88|176:152,1,95,0|8
328,312,37672,2,0,L|304:272|328:208,1,95,8|0
328,208,37922,1,0
336,192,38006,1,0
344,176,38089,1,0
352,160,38172,1,0
360,144,38256,1,0
368,128,38339,6,0,L|416:152|432:208|512:256,1,190,4|8
408,312,38839,1,0
288,312,39006,2,0,L|184:312|112:336|96:360,1,190,0|8
120,216,39506,2,0,L|40:248|8:288,1,95,0|4
32,136,39839,2,0,L|48:88|96:56,2,95,0|8|0
152,136,40339,1,0
176,120,40423,1,8
200,104,40506,2,0,L|248:72|296:88,1,95,0|8
424,128,40839,6,0,L|408:192|456:240,1,95,0|4
312,248,41173,1,0
216,152,41339,1,8
128,248,41506,2,0,L|168:312|224:312,1,95
40,184,41839,2,0,L|64:96|152:40,1,190
216,152,42339,1,0
216,152,42423,1,0
216,152,42506,1,0
216,152,42589,1,0
216,152,42673,2,0,L|184:216|200:256,1,95,0|8
336,120,43006,2,0,L|368:56|352:8,1,95,8|4
424,240,43339,2,0,L|392:304|416:352,1,95,8|0
72,328,43673,6,0,L|120:328|200:288|256:288,2,190,4|8|0
88,176,44506,1,0
200,80,44673,2,0,L|264:64|280:8,1,95,8|0
360,152,45006,1,4
232,216,45173,1,0
384,264,45339,1,8
224,320,45506,1,0
208,328,45589,1,0
192,336,45673,1,0
176,344,45756,1,0
160,352,45839,2,0,L|112:368|64:368,2,95,0|8|0
96,200,46339,6,0,L|112:136|160:112|192:40,1,190,4|8
224,216,46839,2,0,L|224:280|280:302|312:368,1,190
368,224,47339,2,0,L|352:176|376:104,1,95,8|0
256,48,47673,1,0
256,48,47756,1,0
256,48,47839,1,0
256,48,47923,1,0
256,48,48006,2,0,L|248:96|200:144,1,95
104,312,48339,1,0
104,312,48423,1,0
104,312,48506,1,0
104,312,48589,1,0
104,312,48673,2,0,L|112:264|160:216,1,95
256,192,49006,12,0,51673
256,192,57006,12,0,59339
128,288,59673,5,4
56,208,59839,1,0
40,176,59923,1,0
40,136,60006,1,0
112,56,60173,1,0
240,64,60339,2,0,B|304:88|312:168,1,95,8|0
336,352,60673,1,0
432,304,60839,1,0
432,304,60923,1,0
432,304,61006,2,0,B|520:216|456:96,1,190,0|4
352,72,61506,2,0,B|344:128|296:160,1,95,0|8
208,104,61839,1,0
96,96,62006,2,0,B|96:168|152:200,1,95
232,296,62339,5,4
200,192,62506,1,0
208,144,62589,1,0
240,112,62673,1,0
344,72,62839,1,0
456,64,63006,2,0,B|488:168|400:248,1,190,8|0
128,128,63506,1,0
48,192,63673,2,0,B|48:256|96:280,1,95,0|8
200,264,64006,2,0,B|200:320|152:360,1,95,4|0
128,200,64339,1,8
176,88,64506,1,0
272,152,64673,2,0,B|258:208|306:248,1,95
376,152,65006,5,4
480,72,65173,1,0
488,200,65339,2,0,B|512:256|464:320,1,95
368,304,65673,2,0,B|320:280|264:288,1,95,8|0
160,72,66006,2,0,B|176:200|72:232,1,190
64,320,66506,2,0,B|8:296|0:240,1,95,0|4
16,144,66839,1,0
96,48,67006,2,0,B|216:16|272:112,1,190,8|0
320,200,67506,1,0
416,96,67673,5,4
480,184,67839,1,8
456,216,67923,1,0
424,312,68089,1,0
384,320,68173,1,0
296,224,68339,2,0,B|248:264|256:344,1,95
96,344,68673,2,0,B|176:256|136:152,1,190,8|8
104,72,69173,1,0
216,8,69339,2,0,L|208:64,1,47.5
272,64,69506,2,0,L|264:120,1,47.5
328,120,69673,2,0,L|320:184,1,47.5
384,168,69839,2,0,L|376:240,1,47.5
440,216,70006,2,0,L|440:288,1,47.5
504,264,70173,2,0,L|512:336,1,47.5
512,352,70339,5,4
368,296,70506,1,0
328,288,70589,1,0
288,280,70673,2,0,B|232:280|200:312,1,95
176,336,70923,1,0
152,368,71006,2,0,B|152:264|40:208,1,190,8|0
120,80,71506,2,0,B|104:144|152:192,1,95
248,112,71839,1,0
352,176,72006,2,0,B|352:240|312:280,1,95,4|0
240,352,72339,1,8
152,264,72506,1,0
48,144,72673,2,0,B|112:136|168:168,1,95
256,216,73006,5,4
184,120,73173,1,0
200,72,73256,1,0
240,48,73339,1,0
320,128,73506,1,0
416,80,73673,2,0,B|416:24|480:0,1,95,8|0
512,144,74006,2,0,B|504:216|432:232,1,95
344,184,74339,1,0
336,296,74506,2,0,B|248:232|144:272,1,190,8|0
40,288,75006,1,8
96,184,75173,2,0,B|152:168|176:120,1,95
72,56,75506,6,0,L|136:24|168:48,1,95,0|4
256,104,75839,1,0
192,208,76006,1,0
216,320,76173,2,0,L|272:336|320:296,2,95,0|8|0
96,280,76673,1,0
48,176,76839,1,8
120,96,77006,2,0,L|184:80|224:56,1,95
232,192,77339,2,0,L|288:160|312:104,1,95,4|0
288,320,77673,2,0,L|328:296|376:232,1,95,8|0
464,320,78006,2,0,L|480:280|472:200,1,95
424,120,78339,5,4
312,160,78506,1,0
200,64,78672,2,0,L|208:152|152:264,1,190
64,176,79172,2,0,L|40:232|48:280,1,95
104,368,79506,1,0
184,288,79672,2,0,L|232:248|288:256,1,95,8|4
320,360,80006,2,0,L|336:312,1,47.5,4|0
400,336,80172,2,0,L|408:288,1,47.5,4|0
472,320,80339,2,0,L|496:272|472:208,1,95,4|4
328,56,80672,1,0
312,72,80756,1,0
296,88,80839,1,0
280,104,80922,1,0
264,120,81006,6,0,L|288:184|280:232,1,95,4|0
200,280,81339,1,8
320,312,81506,1,0
344,296,81589,1,0
416,192,81756,1,0
440,168,81839,1,0
360,48,82006,1,8
336,72,82089,2,0,L|280:32|240:40|216:16,1,142.5,0|4
176,136,82506,1,0
64,200,82672,2,0,L|72:256|104:296,1,95,8|0
208,248,83006,1,0
304,320,83172,1,0
376,224,83339,2,0,L|432:256|472:240,1,95,8|0
424,112,83672,6,0,L|368:80|328:96,1,95,4|0
240,48,84006,1,8
176,136,84172,1,0
208,152,84256,1,0
304,232,84422,1,0
272,248,84506,1,0
200,328,84672,1,8
160,336,84756,1,0
120,328,84839,1,0
88,296,84922,1,0
72,256,85006,2,0,L|128:176|104:56,1,190,4|0
192,16,85506,1,8
296,64,85672,2,0,L|280:112|304:168,1,95,0|4
424,256,86006,6,0,L|448:312|416:368,2,95,8|8|4
368,168,86506,1,0
472,144,86672,2,0,L|456:88|416:64,1,95,8|0
392,56,86922,1,0
248,72,87089,1,0
264,104,87172,2,0,L|280:160|232:208,1,95,0|8
128,152,87506,1,0
104,176,87589,1,0
80,200,87672,2,0,L|48:240|48:296,1,95,4|0
184,248,88006,5,8
304,304,88172,1,0
288,336,88256,1,0
440,288,88422,1,0
424,320,88506,1,0
368,200,88672,1,8
384,176,88756,1,0
400,152,88839,2,0,L|368:104|384:56,1,95,0|4
272,32,89172,1,0
256,56,89256,1,0
240,80,89339,1,8
176,176,89506,1,0
192,208,89589,1,0
208,240,89672,2,0,L|232:296|216:352,1,95,0|0
112,304,90006,2,0,L|104:360|144:392,1,95,8|0
256,192,90339,12,0,91339
144,112,91672,5,4
160,104,91756,1,0
176,96,91839,1,0
192,88,91922,1,0
208,80,92006,1,8
272,144,92172,1,0
288,136,92256,1,0
304,128,92339,1,0
320,120,92422,1,0
336,112,92506,1,0
352,104,92589,1,0
368,96,92672,1,8
456,136,92839,5,0
456,152,92922,1,0
456,168,93006,1,4
456,184,93089,1,0
456,200,93172,1,0
456,216,93256,1,0
456,232,93339,1,8
384,288,93506,1,0
368,288,93589,1,0
352,288,93672,1,0
336,288,93756,2,8,L|288:336|208:304,1,142.5
128,272,94172,5,0
112,264,94256,1,0
96,256,94339,1,4
80,248,94422,1,0
64,240,94506,1,0
48,232,94589,1,0
32,224,94672,1,8
88,160,94839,1,0
104,144,94922,1,0
120,128,95006,1,0
136,112,95089,1,0
152,96,95172,1,0
240,120,95339,5,8
256,128,95422,1,0
272,136,95506,1,0
288,144,95589,1,0
304,152,95672,1,4
320,160,95756,1,4
336,168,95839,1,0
352,176,95922,1,0
368,184,96006,1,0
368,272,96172,1,8
352,264,96256,1,0
336,256,96339,1,0
320,248,96422,1,0
304,240,96506,1,4
280,320,96672,1,8
264,312,96756,1,0
248,304,96839,1,8
168,280,97006,5,4
152,280,97089,1,0
136,280,97172,1,0
120,280,97256,1,0
104,280,97339,1,8
120,192,97506,1,0
104,192,97589,1,0
88,192,97672,1,0
72,192,97756,1,0
56,192,97839,1,0
40,192,97922,1,0
24,192,98006,1,8
72,104,98172,5,0
83,92,98256,1,0
94,81,98339,1,4
184,88,98506,1,0
195,76,98589,1,0
206,65,98672,1,8
304,72,98839,1,0
304,88,98922,1,0
304,104,99006,1,0
304,120,99089,1,0
304,136,99172,1,0
304,152,99256,1,0
304,168,99339,1,8
312,264,99506,5,0
328,256,99589,1,0
344,248,99672,1,4
368,160,99839,1,0
384,152,99922,1,0
400,144,100006,1,8
488,120,100172,1,0
488,136,100256,1,0
488,152,100339,1,0
488,168,100422,1,0
488,184,100506,1,0
488,200,100589,1,0
488,216,100672,1,8
256,192,101006,12,4,102339
