osu file format v5

[General]
AudioFilename: Japanese girl.mp3
AudioLeadIn: 0
PreviewTime: -1
Countdown: 1
SampleSet: None
StackLeniency: 0.7
Mode: 0
LetterboxInBreaks: 1
EditorBookmarks: 0,23000

[Metadata]
Title:Japanese Gril
Artist:hitomi
Creator:kkkp538
Version:Hard
Source:
Tags:

[Difficulty]
HPDrainRate:5
CircleSize:5
OverallDifficulty:8
SliderMultiplier:2.6
SliderTickRate:4

[Events]
//Background and Video events
1,0,"3489274.wmv"
//Break Periods
2,93825,107175
//Storyboard Layer 0 (Background)
//Storyboard Layer 1 (Failing)
//Storyboard Layer 2 (Passing)
//Storyboard Layer 3 (Foreground)
//Storyboard Sound Samples
//Background Colour Transformations
3,100,163,162,255

[TimingPoints]
0,1000,4,0,0,100,1

[HitObjects]
256,192,19250,12,0,23875
64,128,24750,1,0
160,96,25250,1,0
224,160,25625,1,0
288,96,26125,1,0
322,159,26375,1,0
256,256,27000,1,0
224,192,27375,1,0
224,192,27875,1,0
224,192,28250,1,0
128,160,28750,1,0
192,160,29125,1,0
288,160,29625,1,0
160,128,31750,5,0
266,147,32000,1,0
316,141,32250,1,0
376,181,32375,2,0,B|381:247,1,65
142,216,33106,5,0
247,117,33250,1,0
323,214,33625,1,0
271,247,33875,1,0
350,143,34125,1,0
262,176,34375,1,0
189,107,34750,1,0
140,174,35250,2,0,B|126:189|109:207|105:254|108:287|119:232,1,97.5
341,124,38750,5,0
306,134,38875,1,0
210,103,39125,2,0,B|161:149,1,65
192,192,39500,1,0
433,103,40000,1,0
379,199,40250,1,0
326,288,40625,2,0,B|291:321|257:321|252:309,1,65
268,316,41000,1,0
160,160,41250,1,0
160,160,41375,1,0
160,256,41750,1,0
224,192,42125,1,0
320,192,42625,1,0
224,192,43000,1,0
134,114,44875,5,0
121,149,45250,1,0
156,157,45500,1,0
106,201,45750,1,0
114,243,45875,1,0
137,281,46125,1,0
183,292,46375,1,0
248,290,46625,1,0
341,136,47125,1,0
341,136,47250,5,0
241,111,47625,1,0
241,111,47750,1,0
249,166,47875,1,0
353,201,48250,1,0
238,246,48750,1,0
395,72,49125,1,0
76,176,50250,2,0,B|59:197|22:236|52:271|108:252,2,130
286,149,51750,5,0
207,149,52125,1,0
25,214,52625,2,0,B|44:252|72:286|116:287|193:287|237:282|303:276|336:267|376:240|399:208|410:166|412:139|448:124|486:151|490:203|488:249|482:287|454:315|429:331|414:336|400:324|426:293|421:293,1,650
416,96,55750,5,0
256,109,56185,1,0
209,114,56377,1,0
180,127,56584,1,0
134,146,56776,1,0
320,192,57750,5,0
416,192,58125,1,0
288,160,58750,5,0
302,245,59189,1,0
128,64,59500,5,0
266,79,59777,1,0
384,80,60000,1,0
458,80,60250,1,0
397,168,60625,2,0,B|347:214,1,65
192,256,61125,1,0
288,224,61625,1,0
160,192,62250,1,0
224,128,62625,1,0
320,128,63000,1,0
387,229,63500,2,0,B|318:254,4,65
387,229,64625,1,0
87,102,65125,5,2
87,102,65265,2,2,B|33:146|144:254,1,162.5
288,128,66625,1,0
224,160,67000,1,0
96,384,68250,5,0
247,276,68522,1,0
339,243,68789,1,0
163,234,69038,1,0
249,180,69230,1,0
201,312,69571,1,0
145,199,70000,6,0,B|257:199,1,97.5
242,199,70500,1,0
242,199,70625,1,0
110,136,70875,1,0
216,135,71250,1,0
264,126,71750,6,0,B|263:206,1,65
263,190,72125,1,0
263,190,72250,1,0
249,269,72625,5,0
311,191,73000,1,0
128,192,74375,5,0
224,160,74750,1,0
480,160,76000,5,0
401,149,76375,2,2,B|385:114|339:89|261:69|232:96|239:149|276:182|234:231|139:212|59:106|39:25|9:23|-2:195|19:246|50:321|99:331|189:334|254:318|139:242|62:348|75:345,1,682.5
250,166,79625,2,0,B|254:212,7,32.5
263,42,81500,6,2,B|217:71|217:104|303:143|249:220|194:246|179:219|250:266|249:266,1,227.5
194,151,83125,5,2
194,151,83250,1,2
181,214,83500,2,2,B|161:232|129:272|158:294|208:296|177:346|100:328|93:313,2,162.5
131,107,85875,6,2,B|267:107|281:106,1,130
335,118,86500,1,0
335,118,86625,2,2,B|376:124|393:142|392:157|379:172|360:176|341:182|327:193|306:197|276:199|247:201|209:201|184:212|169:226|169:249|185:266|211:283|244:298|274:302|333:302|372:296|341:267,1,455
163,109,89291,5,0
295,144,89606,5,0
214,184,89831,1,0
169,221,90040,1,0
104,244,90231,1,0
52,286,90430,1,0
52,286,90625,2,0,B|55:342|74:357|116:357|135:341|151:303|174:328|211:350|217:350,1,195
256,192,91750,12,0,93625
96,192,108375,5,0
96,192,108500,1,2
160,192,108750,1,0
256,192,109125,1,0
320,128,109625,1,0
251,130,109750,1,0
162,149,110250,1,0
192,192,110375,1,0
214,229,110500,1,0
288,224,110875,1,0
384,224,111250,1,0
416,128,111750,1,0
320,160,112125,1,0
224,128,112625,1,0
160,160,113000,1,0
256,192,113375,12,0,114000
288,192,115250,5,0
320,128,115625,1,0
224,128,116125,1,0
320,128,116500,1,0
320,128,116625,1,0
320,128,116750,1,0
288,224,116875,1,0
186,233,117125,1,0
186,233,117250,1,0
128,160,117625,1,0
128,160,117750,1,0
96,256,118250,1,0
192,224,118750,1,0
288,224,119125,1,0
384,224,119625,1,0
416,160,120000,1,0
320,160,120375,1,0
151,117,121434,5,0
249,96,122000,1,0
249,96,122076,1,0
230,173,122283,1,0
154,215,122459,1,0
297,182,122667,1,0
337,75,122883,1,0
398,104,123066,1,0
383,220,123500,1,2
306,271,123750,1,2
369,290,124000,1,2
369,290,124125,1,2
369,290,124250,1,2
286,132,124705,5,0
161,236,124897,1,0
314,159,125180,1,0
314,219,125422,1,0
222,217,125714,1,0
257,85,126129,1,0
188,83,126354,1,0
219,141,126603,1,0
154,167,126953,1,0
441,279,128250,6,0,B|486:218|418:189|431:195,1,97.5
320,96,129125,1,0
257,139,129500,1,0
224,224,130000,1,0
128,192,130375,1,0
142,104,130625,1,0
288,160,131750,1,0
384,192,132250,1,0
352,256,132625,1,0
184,126,133625,1,0
187,164,133750,2,2,B|162:172|129:195|139:218|154:232|179:243|212:244|211:239,1,130
384,224,135250,1,0
320,192,135750,1,0
264,181,136000,2,0,B|301:118|301:126,5,65
224,160,137750,5,0
320,160,138250,1,0
272,226,138625,1,2
164,119,139125,1,2
67,107,139500,6,0,B|57:119|45:141|50:184|112:187|118:171|116:171,1,97.5
92,222,140000,2,0,B|69:235|54:271|75:294|113:294,1,97.5
276,260,140750,1,0
276,260,141000,1,0
334,279,141125,2,0,B|349:294|383:300|423:290|439:242|433:206|446:174|490:182|496:212|496:246|495:254,1,227.5
354,160,143125,5,0
259,162,143250,1,0
163,164,143375,1,0
67,163,143750,1,0
71,74,144250,1,0
69,74,144375,1,0
128,192,144750,1,0
224,224,145250,1,0
320,160,145750,1,0
256,192,146125,1,0
192,160,146500,1,0
224,192,146750,1,0
224,192,146875,1,0
282,104,147482,5,0
245,136,147625,1,0
276,149,147875,1,0
239,172,148000,1,0
255,232,148136,2,0,B|253:251|261:255|274:257|299:254|311:251|318:269|296:291|272:293|246:299,1,130
181,291,148875,2,0,B|157:304|121:256|122:260,5,65
32,288,151625,5,0
121,207,151899,1,0
213,180,152223,1,0
161,272,152440,1,0
238,278,152672,1,0
303,211,153001,2,0,B|339:205|356:169|362:123|358:102|350:75|348:64,1,162.5
160,192,154375,5,0
224,160,154750,1,0
221,262,155234,6,0,B|211:284|209:308|242:331|297:333|274:281,1,130
448,224,156000,5,0
352,224,156375,1,0
64,96,157875,5,0
128,160,158250,1,0
224,160,158625,5,0
184,235,158875,1,0
290,225,159125,1,0
270,279,159375,1,0
352,300,159500,2,0,B|431:271,3,65
320,162,160625,1,0
320,162,160875,1,0
408,143,161250,1,0
314,76,161500,1,0
179,74,161750,1,0
257,76,162000,1,0
222,324,162394,6,0,B|209:316|190:331,5,32.5
160,224,163125,5,0
160,160,163500,1,0
224,160,163875,1,0
352,160,164375,1,0
288,160,164625,1,0
288,192,164875,1,0
288,192,165000,1,0
459,71,165750,1,0
383,98,165875,2,0,B|369:86|346:98|329:149|383:176|387:164|386:162,1,97.5
358,229,166375,1,0
334,218,166500,2,0,B|299:216|282:168|257:144|274:206,1,97.5
226,229,167375,1,0
226,229,167875,1,0
311,111,169250,5,0
402,164,169625,1,0
402,164,169750,1,0
402,164,169875,1,0
363,226,170000,1,0
363,226,170125,1,0
322,277,170375,1,0
322,277,170500,1,0
261,307,171000,2,0,B|257:290|249:276|230:269|211:265|190:279|177:291|169:328|181:363|215:369|223:373|251:378|284:378|307:378|248:350,1,260
95,107,172875,1,0
189,116,173125,2,0,B|249:80,1,65
293,118,173500,1,0
318,137,173625,1,0
355,189,173875,2,0,B|388:172|414:191|424:206|435:235|435:233,1,97.5
351,284,174375,2,0,B|333:252|292:298|378:330|391:307|277:367,1,162.5
256,192,175375,12,0,177500
158,145,178000,5,0
292,116,178875,1,0
251,265,179625,1,0
414,189,180500,1,0
286,233,181375,2,0,B|288:180|248:158|217:168|208:211|208:266|254:323|309:317|424:276,1,357.5
97,206,183250,1,0
97,206,183375,1,0
97,206,183500,1,0
160,192,184125,5,0
224,160,184500,1,0
288,192,184875,1,0
448,128,185750,1,0
258,167,186375,1,0
258,167,186625,1,0
171,157,187375,1,0
68,168,188375,2,0,B|43:206|39:229|67:275|149:265|168:219|237:193|279:229|238:306|286:325|433:254,1,455
424,157,190500,1,0
352,158,190875,1,0
287,156,191250,1,0
128,160,191750,5,0
224,160,192250,1,0
288,160,192625,1,0
352,192,193000,1,0
288,256,193500,1,0
192,256,193875,1,0
256,192,194375,1,0
320,128,194750,1,0
384,192,195250,1,0
352,256,195625,1,0
288,224,196000,1,0
224,128,196500,1,0
160,160,196875,1,0
69,80,197750,6,0,B|64:243|65:252,1,162.5
181,156,198750,2,0,B|291:155|252:155|221:178,3,97.5
176,243,200250,1,0
176,243,200500,1,0
176,243,201125,2,0,B|193:285|231:294|300:271|338:237|324:236,1,162.5
381,97,202250,1,0
278,191,203000,1,0
437,171,203875,1,0
149,135,204625,6,0,B|135:224,2,65
183,256,205625,5,0
183,256,205875,1,0
183,256,206000,1,0
258,244,206500,1,0
298,237,206750,1,0
334,231,206875,1,0
378,113,207375,1,0
326,89,207625,1,0
286,82,207750,1,0
224,160,208250,5,0
260,227,208500,1,0
288,160,208625,1,0
171,252,209125,6,0,B|246:252|238:254,1,65
32,192,210000,5,0
81,196,210250,1,0
128,192,210375,1,0
229,189,210750,2,0,B|176:189,5,32.5
384,128,211750,5,0
355,150,212000,1,0
320,160,212125,1,0
186,131,212625,5,0
355,131,213125,1,0
79,301,214250,1,0
163,306,214500,1,0
240,308,214750,1,0
240,308,214875,1,0
320,310,215125,1,0
414,286,215625,1,0
414,286,215750,2,0,B|461:218|349:195|511:128|499:134,1,162.5
473,146,216500,2,0,B|475:121|463:118|432:103|432:113|428:119,6,65
406,105,218625,6,0,B|381:106|380:159|380:161|380:161|368:157,2,65
288,160,219500,1,0
128,192,220375,1,0
256,192,220679,12,0,221125
456,189,221500,6,0,B|327:189,1,97.5
278,200,222250,1,0
278,200,222375,1,0
278,200,222625,1,0
278,200,222875,2,0,B|275:237|279:268|232:290|206:229|160:287|212:314|122:331|250:334|202:364,1,195
370,208,225000,5,0
319,156,225250,1,0
319,156,225375,5,0
294,234,225625,1,0
294,234,225750,1,0
198,127,226000,2,0,B|185:105|169:97|139:90|101:127|128:153|141:155|130:172,1,130
131,168,226625,2,0,B|105:183|87:184|85:224|143:226|149:247|210:206|114:294|126:288,1,162.5
480,96,228500,5,0
362,142,228718,1,0
266,134,228934,1,0
334,217,229192,1,0
251,244,229367,1,0
203,199,229485,2,0,B|184:180|165:178|127:187|121:223|106:184|104:161|110:161,1,97.5
39,100,229933,2,0,B|39:306,1,195
277,59,232375,6,0,B|242:60|205:79|167:117|183:146|221:157|284:157|318:134|372:105|402:77|394:81,1,292.5
293,239,233750,2,0,B|334:229|385:208|427:274|406:314|358:327|316:331|267:331,1,260
416,192,235250,5,0
295,138,235469,1,0
211,177,235710,1,0
274,219,235886,1,0
360,255,236111,1,0
269,309,236459,2,0,B|249:333|217:343|197:336|186:313|163:274|140:291|111:320|64:304|82:302,1,195
244,193,237839,6,0,B|319:193,1,65
217,194,238223,2,0,B|150:194,1,65
255,86,238643,6,0,B|239:94|216:115|216:141|240:151|255:181|243:210|220:222|203:233|177:243|161:247|179:266|182:265,1,195
135,296,239530,6,0,B|179:348,1,65
108,271,239886,2,0,B|37:194,1,97.5
384,160,240875,5,0
288,160,241250,1,0
224,64,241750,1,0
152,128,242109,5,0
204,138,242392,1,0
134,182,242650,1,0
194,193,242841,1,0
96,288,243000,5,0
160,256,243375,1,0
301,92,243911,2,0,B|282:105|276:128|276:176|266:141,1,65
274,149,244250,1,0
274,149,244375,1,0
416,128,244750,5,0
320,128,245125,1,0
232,182,245625,2,0,B|146:239,1,97.5
150,235,246000,1,0
150,235,246125,1,0
64,224,246500,5,0
160,224,247000,1,0
384,64,248250,5,0
288,128,248750,1,0
64,256,250000,5,0
128,192,250500,1,0
192,192,250875,1,0
192,192,251000,1,0
256,160,251250,1,0
256,160,251375,1,0
352,128,251750,1,0
288,160,252125,1,0
108,325,252500,2,0,B|107:228,1,65
107,260,252875,1,0
107,260,253000,1,0
32,128,253375,5,0
128,128,253875,1,0
384,288,255250,5,0
320,224,255750,1,0
96,96,256875,5,0
192,128,257375,1,0
219,183,257456,2,0,B|191:199|180:231|190:269|232:277|282:259|293:225|255:313,1,195
416,256,258750,5,0
352,224,259125,1,0
264,196,259483,2,0,B|251:231|211:241|194:200|219:143|152:124|209:151,1,130
189,147,260000,1,0
189,147,260125,1,0
160,32,260375,5,0
192,96,260875,1,0
404,195,261422,5,0
126,194,261587,5,0
258,99,261753,5,0
252,273,261975,5,0
322,156,262204,5,0
216,229,262570,1,0
269,211,262990,5,0
378,135,263188,5,0
195,143,263418,5,0
138,271,263651,5,0
247,189,263886,5,0
247,189,264298,1,0
