osu file format v4

[General]
AudioFilename: hitomi - Go My Way.mp3
AudioLeadIn: 0
AudioHash: adb5f2b6a4555b38a57900567b60c0a7
PreviewTime: -1
SampleSet: Normal
EditorBookmarks: 17353,17524,17696,17868,18039,18211,18383,18554,18726,18898,19241,19584,20099,20786,22159,22846,23189,23532,24905,25249,25935,26107,26450,27995,28339,28682,29025,29883,30227,30742,31085,31428,31772,31857,32802,33488,33831,34175,34518,35376,35720,36063,36235,36578,36921,37265,37608,38123,38466,38981,39324,40526,40869,41213,41728,42071,43959,44474,44817,45847,46019,46362,46706,47049,49967,50310,51169,51512,51855,52370,52713,53228,53743,54087,54602,55460,55803,56661,57005,57691,58206,58721,59065,59408,59580,60095,60610,60953,61296,62154,62498,62841,63356,63699,64214,64729,65073,65244,65587,65759,65931,66102,66446,66789,66961,67304,67476,67819,68162,68334,68677,68849,69192,69879,70565,71252,73655,86014,86186,86358,86701,86873,87044,87216,87388,87559,87903,88761,88932,89104,89447,89619,89791,89962,90306,90649,91507,91679,91851,92022,92194,92366,92537,92709,92881,93052,93395,93910,94254,94597,94769,94940,95112,95284,95455,95627,95799,96142,96314,97000,97172,97344,97515,97687,97858,98030,98202,98373,98545,98888,99747,99918,100090,100262,100433,100605,100777,100948,101120,101292,102493,102665,102836,103008,103180,103351,103523,103695,103866,104038,104381,104896,105240,105583,105926,106098,106270,106441,106613,106785,107128,107986,108158,108329,108501,108673,108844,109016,109188,109359,109531,109874,110733,110904,111076,111248,111419,111591,111762,111934,112106,112277,112621,113136,113479,113651,113822,113994,114166,114337,114509,114681,115024,115367,115882,116225,116569,116912,117084,117255,117599,117942,118285,165662,165834,166005,166177,166348,166692,166863,167035,167207,168408,168580,168923,169095,169267,169438,169610,169782,169953,171155,171498,171841,172185,172528,172871,173215,173558,174245,174931,175618,175961,176304,176819,176991,177506,177678,178021,178364,178708,178879,179051,179394,179566,179738,179909,180081,180252,180596,180767,180939,181454,181797,182312,182827,183171,183857,184544,184887,185059,185230,185402,185574,185745,186089,186260,186432,186775,186947,187290,187805,188149,188320,188664,189179,189693,190037,190380,190552,190723,190895,191067,191238,191582,191753,191925,192440,192783,193298,194328,194843,195186,195873,196045,196388,196560,196903,197246,197418,197933,198276,198963,199649,200336,201023,202396,202739,202911,203254,203426

[Metadata]
Title:Go My Way
Artist:hitomi
Creator:Mifune24
Version:Insane

[Difficulty]
HPDrainRate:5
CircleSize:5
OverallDifficulty:6
SliderMultiplier: 1.7
SliderTickRate: 1

[Events]
0,0,"BlueSkyLarge.jpg"
2,74542,84964
2,143204,164612
3,0,163,162,255

[TimingPoints]
6000,343.308348114665,4,1,0

[HitObjects]
64,288,17329,5,0,
128,256,17500,1,0,
192,224,17672,2,0,B|192:224|288:192|384:224,1,170
416,192,18187,1,0,
480,160,18359,1,0,
416,128,18530,1,0,
352,96,18702,1,0,
288,64,18874,2,0,B|288:64|192:32|96:64,1,170
320,320,20075,5,0,
256,288,20247,1,0,
224,224,20418,2,0,B|224:224|192:160|192:96|256:64,1,170
320,64,20933,1,0,
384,96,21105,1,0,
416,160,21277,1,0,
384,224,21448,1,0,
320,256,21620,2,0,B|320:256|224:256|192:160|192:96|288:64,1,255
32,224,22822,5,0,
32,160,22993,1,0,
32,96,23165,2,0,B|32:96|224:96,1,170
192,160,23680,1,0,
192,224,23852,1,0,
256,224,24023,1,0,
320,224,24195,1,0,
384,224,24366,2,0,B|384:224|480:160|480:64|352:0,1,255
256,32,25225,5,0,
256,160,25568,1,0,
256,288,25911,1,0,
256,288,26083,1,0,
128,288,26426,5,0,
96,224,26598,1,0,
64,288,26770,1,0,
32,224,26941,1,0,
0,160,27113,1,0,
128,160,27456,2,0,B|128:160|224:224|384:160,1,255
448,64,28315,5,0,
384,32,28486,1,0,
384,96,28658,2,0,B|384:96|384:288,1,170
320,256,29173,1,0,
288,192,29344,1,0,
256,128,29516,1,0,
224,64,29688,1,0,
160,64,29859,2,0,B|160:64|96:128|160:224|192:224,1,170
224,256,30374,5,2,
224,256,30546,1,2,
224,256,30718,1,2,
352,256,31061,5,0,
416,224,31233,1,0,
480,192,31404,2,0,B|480:192|416:96|320:96,1,170
320,160,31919,1,0,
256,192,32091,1,0,
256,128,32263,1,0,
192,160,32434,1,0,
128,160,32606,2,0,B|128:160|32:160|32:320|128:352|224:352|320:320|320:256,1,425
352,128,33807,5,0,
320,64,33979,1,0,
288,128,34151,2,0,B|288:128|256:160|320:224|384:192|416:160,1,170
448,224,34666,5,0,
384,256,34837,1,0,
320,256,35009,1,0,
256,224,35181,1,0,
224,160,35352,2,0,B|224:160|192:96|224:32|288:0,1,170
64,64,36211,5,2,
192,128,36554,1,2,
64,192,36897,1,0,
128,224,37069,1,0,
192,256,37241,2,0,B|192:256|288:288|320:128,1,170
352,128,37756,1,0,
416,96,37927,1,0,
480,96,38099,2,0,B|480:96|512:192|448:256,1,170
384,288,38614,5,2,
384,288,38785,1,2,
384,288,38957,1,2,
256,288,39300,5,0,
192,256,39472,1,0,
256,224,39644,1,0,
192,192,39815,1,0,
256,160,39987,1,0,
192,128,40159,1,0,
256,96,40330,1,0,
192,64,40502,2,0,B|192:64|96:32|0:64,1,170
32,192,41189,2,0,B|32:192|0:288|64:384|192:352,1,255
288,320,42047,6,0,B|288:320|384:320,3,85
384,256,42733,2,0,B|384:256|384:160,3,85
320,160,43420,1,0,
256,160,43592,1,0,
256,32,43935,2,0,B|256:32|416:32|480:160,1,255
384,64,44793,5,0,
448,96,44965,1,0,
416,160,45137,1,0,
352,128,45308,1,0,
288,96,45480,1,0,
320,32,45652,1,0,
256,0,45823,1,0,
224,64,45995,2,0,B|224:64|128:224,1,170
0,192,46682,2,0,B|0:192|96:32,1,170
160,32,47197,5,0,
96,160,47540,1,0,
64,288,47883,1,0,
128,320,48055,1,0,
192,288,48226,1,0,
256,320,48398,1,4,
320,288,48570,5,2,
416,192,48913,1,2,
320,96,49256,1,2,
224,192,49600,1,2,
128,96,49943,6,0,B|128:96|64:32|0:128|64:192,1,170
96,224,50458,1,0,
160,192,50630,1,0,
224,224,50801,1,0,
288,192,50973,1,0,
352,224,51145,2,0,B|352:224|416:224|448:160|384:128|352:128,1,170
288,128,51660,5,0,
224,128,51831,2,0,B|224:128|192:128|128:64|192:32|224:0|256:32,1,170
288,64,52346,1,0,
416,64,52689,2,0,B|416:64|512:192|416:320,1,255
256,192,53719,5,0,
352,288,54063,2,0,B|352:288|256:352|96:288,1,255
64,128,55436,6,0,B|64:128|160:96|256:128,1,170
288,96,55951,1,0,
352,64,56123,1,0,
352,128,56294,1,0,
288,160,56466,1,0,
224,192,56637,2,0,B|224:192|160:224|32:192,1,170
64,128,57152,5,0,
64,64,57324,2,0,B|64:64|160:32|256:64,1,170
224,128,57839,1,0,
160,128,58011,1,0,
96,128,58182,2,0,B|96:128|96:224|320:192,1,255
448,192,59041,5,0,
448,128,59212,2,0,B|448:128|320:128,1,85
288,128,59556,2,0,B|288:128|288:64|320:32|512:64,1,255
448,256,60586,5,0,
448,128,60929,2,0,B|448:128|416:64|352:64|320:96|320:128,1,170
288,192,61444,1,2,
256,128,61615,1,2,
192,96,61787,1,2,
128,128,61959,1,2,
96,192,62130,2,0,B|96:192|96:256|32:288|0:256|0:160,1,170
0,128,62645,1,0,
0,64,62817,2,0,B|0:64|0:0|64:0|128:0|96:96,1,170
160,64,63332,5,2,
160,64,63675,5,0,
352,64,64190,2,0,B|352:64|480:128|448:288|288:352|160:320|128:128|256:64,1,595
256,224,65735,5,0,
352,128,66078,1,0,
256,32,66422,1,0,
160,128,66765,2,2,C|160:128|96:192,1,85
192,256,67280,5,0,
256,288,67452,1,0,
320,160,67795,1,0,
192,96,68138,2,2,C|192:96|96:32,1,85
96,192,68653,5,0,
64,256,68825,1,0,
192,320,69168,2,0,B|192:320|480:320,1,255
448,256,69855,2,0,B|448:256|448:-32,1,255
384,0,70541,2,0,B|384:0|96:0,1,255
64,0,71228,2,0,B|64:0|64:192,1,170
256,192,71915,12,0,73288
256,320,73631,1,2,
256,192,73975,1,2,
256,64,74318,1,4,
416,320,85990,5,0,
352,288,86162,1,0,
288,256,86334,2,0,B|288:256|192:224|96:256,1,170
64,288,86849,1,0,
0,320,87020,1,0,
64,352,87192,1,0,
128,320,87364,1,0,
192,320,87535,2,0,B|192:320|256:320|384:384,1,170
256,32,88737,5,0,
192,64,88908,1,0,
160,128,89080,2,0,B|160:128|96:192|160:288,1,170
224,288,89595,5,0,
224,288,89767,1,0,
224,288,89938,2,0,B|224:288|320:288|384:192,1,170
288,96,90625,2,0,B|288:96|352:32|448:32|544:128,1,255
448,224,91483,5,0,
480,160,91655,1,0,
416,160,91827,1,0,
384,224,91998,1,0,
320,224,92170,1,0,
352,160,92342,1,0,
384,96,92513,1,0,
320,96,92685,1,0,
288,160,92857,1,0,
256,224,93028,2,0,B|256:224|192:384,1,170
32,224,93886,5,2,
128,128,94230,1,2,
224,64,94573,1,2,
288,32,94745,1,2,
352,64,94916,2,0,B|352:64|256:128,1,85
320,160,95260,2,0,B|320:160|416:96,1,85
448,96,95603,1,0,
480,160,95775,2,0,B|480:160|320:256,1,170
288,288,96290,1,4,
32,192,96976,5,0,
32,128,97148,1,0,
32,64,97320,1,0,
96,64,97491,1,0,
160,64,97663,1,0,
160,128,97834,5,0,
160,192,98006,1,0,
160,256,98178,1,0,
160,320,98349,1,0,
96,320,98521,2,0,B|96:320|96:128,1,170
448,192,99723,5,0,
384,160,99894,1,0,
320,128,100066,1,0,
320,128,100238,1,0,
256,128,100409,1,0,
192,128,100581,1,0,
192,128,100753,1,0,
128,128,100924,1,0,
64,160,101096,1,0,
0,192,101268,2,0,B|0:192|32:256|224:320,1,255
416,128,102469,5,2,
384,64,102641,1,2,
320,64,102812,1,2,
288,128,102984,1,2,
320,192,103156,1,2,
384,192,103327,1,2,
416,256,103499,1,2,
384,320,103671,1,2,
320,320,103842,1,2,
288,256,104014,2,4,C|288:256|96:256,1,170
96,64,104872,6,0,B|96:64|96:256,3,170
128,288,106074,5,0,
192,256,106246,1,0,
224,192,106417,1,0,
192,128,106589,1,0,
128,96,106761,2,0,B|128:96|64:96|0:192|32:224,1,170
352,128,107962,5,0,
288,160,108134,1,0,
256,224,108305,1,0,
224,160,108477,1,0,
160,128,108649,1,0,
224,96,108820,1,0,
288,96,108992,1,0,
320,32,109164,1,0,
256,32,109335,1,0,
192,32,109507,2,0,B|192:32|0:32,1,170
256,256,110709,5,0,
256,256,110880,1,0,
256,256,111052,1,0,
256,256,111224,1,0,
256,256,111395,1,0,
256,256,111567,1,0,
256,256,111738,5,0,
256,256,111910,1,0,
256,256,112082,1,0,
256,256,112253,1,0,
384,256,112597,2,0,B|384:256|384:128|224:64,1,255
96,96,113455,5,0,
64,160,113627,1,0,
64,224,113798,1,0,
96,288,113970,1,0,
160,288,114142,1,0,
192,224,114313,1,0,
256,192,114485,1,0,
256,192,114657,1,4,
384,192,115000,6,0,B|384:192|480:256|384:352,1,170
384,128,115858,5,0,
256,128,116201,1,0,
128,128,116545,1,0,
128,256,116888,2,2,C|128:256|224:256,2,85
256,320,117575,1,2,
384,256,117918,1,2,
256,192,118261,1,2,
384,288,118605,6,0,B|384:288|448:352|512:256|448:192,1,170
416,160,119120,1,0,
352,192,119291,1,0,
288,160,119463,1,0,
224,192,119635,1,0,
160,160,119806,2,0,B|160:160|96:160|64:224|128:256|160:256,1,170
224,256,120321,5,0,
288,256,120493,2,0,B|288:256|320:256|384:320|320:352|288:384|256:352,1,170
224,320,121008,1,0,
96,320,121351,2,0,B|96:320|0:192|96:64,1,255
256,192,122381,5,0,
160,96,122724,2,0,B|160:96|256:32|416:96,1,255
448,256,124098,6,0,B|448:256|352:288|256:256,1,170
224,288,124613,1,0,
160,320,124784,1,0,
160,256,124956,1,0,
224,224,125127,1,0,
288,192,125299,2,0,B|288:192|352:160|480:192,1,170
448,256,125814,5,0,
448,320,125986,2,0,B|448:320|352:352|256:320,1,170
288,256,126501,1,0,
352,256,126672,1,0,
416,256,126844,2,0,B|416:256|416:160|192:192,1,255
64,192,127702,5,0,
64,256,127874,2,0,B|64:256|192:256,1,85
224,256,128217,2,0,B|224:256|224:320|192:352|0:320,1,255
64,128,129247,5,0,
64,256,129591,2,0,B|64:256|96:320|160:320|192:288|192:256,1,170
224,192,130105,1,2,
256,256,130277,1,2,
320,288,130449,1,2,
384,256,130620,1,2,
416,192,130792,2,0,B|416:192|416:128|480:96|512:128|512:224,1,170
512,256,131307,1,0,
512,320,131479,2,0,B|512:320|512:384|448:384|384:384|416:288,1,170
352,320,131994,5,2,
352,320,132337,5,0,
160,320,132852,2,0,B|160:320|32:256|64:96|224:32|352:64|384:256|256:320,1,595
256,160,134397,5,0,
160,256,134740,2,0,B|160:256|352:256,1,170
448,224,135427,2,2,B|448:224|448:128,1,85
320,128,135942,5,0,
256,96,136113,1,0,
192,224,136457,1,0,
320,288,136800,2,2,C|320:288|384:352,1,85
416,192,137315,5,0,
448,128,137487,1,0,
320,64,137830,2,0,B|320:64|32:64,1,255
64,128,138517,2,0,B|64:128|64:416,1,255
128,384,139203,2,0,B|128:384|416:384,1,255
448,384,139890,2,0,B|448:384|448:192,1,170
256,192,140576,12,0,141950
384,192,142293,1,2,
256,192,142636,1,2,
128,192,142980,1,4,
160,96,165638,5,0,
128,160,165810,1,0,
64,128,165981,1,0,
96,64,166153,1,0,
160,32,166324,2,0,B|160:32|256:32|320:96,1,170
288,160,166839,1,0,
224,160,167011,1,0,
256,224,167183,2,0,B|256:224|384:224|512:96,1,255
320,352,168384,5,0,
256,352,168556,2,0,B|256:352|128:224,1,170
192,192,169071,1,0,
224,128,169243,1,0,
256,192,169414,1,0,
288,128,169586,1,0,
320,192,169758,1,0,
352,128,169929,2,0,B|352:128|448:128|512:256|384:352|288:352|224:256,1,425
352,320,171131,5,0,
256,224,171474,1,0,
352,128,171817,1,0,
256,32,172161,1,0,
160,128,172504,1,0,
256,224,172847,1,0,
160,320,173191,1,0,
64,224,173534,1,0,
256,32,174221,5,0,
256,288,174907,5,0,
512,192,175594,5,0,
416,96,175937,1,0,
320,192,176280,1,2,
128,96,176795,1,2,
192,96,176967,1,2,
192,288,177482,1,2,
128,288,177654,1,2,
192,160,177997,1,2,
320,160,178340,1,2,
320,288,178684,1,2,
320,224,178855,1,2,
384,224,179027,6,0,B|384:224|480:160|352:64,1,170
320,64,179542,1,0,
256,96,179714,1,0,
192,64,179885,1,0,
128,96,180057,1,0,
64,64,180228,2,0,B|64:64|0:64|0:128|32:160|96:160,1,170
160,160,180743,5,0,
224,160,180915,2,0,B|224:160|320:160|352:256|288:352|192:288,1,255
96,320,181773,2,0,B|96:320|0:320|0:192|64:160|128:224,1,255
320,320,182803,5,0,
416,224,183147,2,0,B|416:224|320:192|160:224,1,255
448,64,184520,6,0,B|448:64|448:128|352:128|320:64,1,170
320,0,185035,1,2,
256,32,185206,1,2,
224,96,185378,1,2,
256,160,185550,1,2,
320,192,185721,2,0,B|320:192|384:192|384:256|384:320|288:288,1,170
256,288,186236,1,0,
192,288,186408,2,0,B|192:288|96:288|96:192|192:192,1,170
192,128,186923,1,0,
320,128,187266,2,0,B|320:128|416:128|480:224|384:288|288:224,1,255
192,192,188125,5,0,
128,224,188296,1,0,
256,224,188640,2,0,B|256:224|192:288|320:384|384:320|384:224,1,255
352,64,189669,5,0,
352,192,190013,2,0,B|352:192|352:256|256:256|192:224,1,170
160,224,190528,1,0,
160,160,190699,1,0,
224,160,190871,1,0,
288,160,191043,1,0,
288,96,191214,2,0,B|288:96|288:32|128:32,1,170
160,96,191729,1,0,
96,96,191901,2,0,B|96:96|96:384,1,255
224,352,192759,5,0,
224,160,193274,2,0,B|224:160|96:96|224:0|288:0|384:128|288:256|128:288,1,510
320,192,194819,5,0,
192,192,195162,2,0,B|192:192|64:160|64:96,1,170
192,96,195849,1,0,
256,96,196021,2,0,B|256:96|352:96|416:160,1,170
416,224,196536,1,0,
288,224,196879,2,0,B|288:224|160:224|96:288,1,170
96,320,197394,2,0,B|96:320|192:384|352:320,1,255
448,224,198252,6,0,B|448:224|256:32,1,255
224,96,198939,2,0,B|224:96|32:288,1,255
96,320,199625,2,0,B|96:320|384:320,1,255
320,256,200312,2,0,B|320:256|224:96,1,170
256,192,200999,12,0,202372
128,192,202715,1,2,
192,192,202887,1,2,
320,192,203230,1,2,
384,192,203402,1,2,
288,288,203745,6,0,B|288:288|288:352|224:352|192:320|192:256,1,170
192,192,204260,1,0,
224,128,204432,1,0,
192,64,204603,1,0,
224,0,204775,1,0,
160,0,204947,2,0,B|160:0|64:0|96:128,1,170
96,192,205462,5,0,
96,256,205633,2,0,B|96:256|96:352|320:320,1,255
448,320,206492,2,0,B|448:320|448:160|256:192,1,255
160,352,207522,5,0,
96,224,207865,2,0,B|96:224|192:192|352:224,1,255
64,64,209238,6,0,B|64:64|64:0|160:0|160:96,1,170
160,160,209753,1,0,
192,224,209925,1,0,
256,192,210096,1,0,
224,128,210268,1,0,
288,96,210440,2,0,B|288:96|352:64|416:160|352:192,1,170
352,256,210955,1,0,
352,320,211126,2,0,B|352:320|352:384|256:352|192:320,1,170
160,288,211641,1,0,
96,320,211813,1,0,
64,256,211985,2,0,B|64:256|0:192|64:64|192:160|192:224,1,255
320,192,212843,5,2,
384,224,213014,1,2,
256,224,213358,2,0,B|256:224|320:288|192:384|128:320|128:224,1,255
160,64,214388,5,0,
160,192,214731,2,0,B|160:192|160:256|256:256|320:224,1,170
320,160,215246,1,0,
320,160,215418,1,0,
320,160,215589,1,0,
320,160,215761,1,0,
288,96,215933,2,0,B|288:96|192:32|128:96,1,170
128,160,216448,1,0,
96,224,216619,2,0,B|96:224|64:320|224:352|256:256|224:192,1,255
288,352,217477,5,0,
448,256,217992,2,0,B|448:256|288:160|320:64|96:64|32:192|32:256,1,510
192,192,219537,5,0,
320,192,219881,2,0,B|320:192|384:288|320:352,1,170
192,352,220567,1,0,
128,352,220739,2,0,B|128:352|64:256|128:160,1,170
128,128,221254,1,0,
224,32,221597,2,0,B|224:32|320:0|416:64,1,170
448,96,222112,2,0,B|448:96|512:224|448:352,1,255
352,256,222970,6,0,B|352:256|96:352,1,255
96,288,223657,2,0,B|96:288|352:192,1,255
416,192,224344,2,0,C|416:192|416:96|256:32,1,255
224,96,225030,2,0,C|224:96|192:160|288:192,1,170
256,192,225717,12,0,227090
160,288,227433,1,2,
256,192,227777,1,2,
352,96,228120,1,4,
