osu file format v4

[General]
AudioFilename: hitomi - Go My Way.mp3
AudioLeadIn: 0
AudioHash: adb5f2b6a4555b38a57900567b60c0a7
PreviewTime: -1
SampleSet: Normal
EditorBookmarks: 17353,17524,17696,17868,18039,18211,18383,18554,18726,18898,19241,19584,20099,20786,22159,22846,23189,23532,24905,25249,25935,26107,26450,27995,28339,28682,29025,29883,30227,30742,31085,31428,31772,31857,32802,33488,33831,34175,34518,35376,35720,36063,36235,36578,36921,37265,37608,38123,38466,38981,39324,40526,40869,41213,41728,42071,43959,44474,44817,45847,46019,46362,46706,47049,49967,50310,51169,51512,51855,52370,52713,53228,53743,54087,54602,55460,55803,56661,57005,57691,58206,58721,59065,59408,59580,60095,60610,60953,61296,62154,62498,62841,63356,63699,64214,64729,65073,65244,65587,65759,65931,66102,66446,66789,66961,67304,67476,67819,68162,68334,68677,68849,69192,69879,70565,71252,73655,86014,86186,86358,86701,86873,87044,87216,87388,87559,87903,88761,88932,89104,89447,89619,89791,89962,90306,90649,91507,91679,91851,92022,92194,92366,92537,92709,92881,93052,93395,93910,94254,94597,94769,94940,95112,95284,95455,95627,95799,96142,96314,97000,97172,97344,97515,97687,97858,98030,98202,98373,98545,98888,99747,99918,100090,100262,100433,100605,100777,100948,101120,101292,102493,102665,102836,103008,103180,103351,103523,103695,103866,104038,104381,104896,105240,105583,105926,106098,106270,106441,106613,106785,107128,107986,108158,108329,108501,108673,108844,109016,109188,109359,109531,109874,110733,110904,111076,111248,111419,111591,111762,111934,112106,112277,112621,113136,113479,113651,113822,113994,114166,114337,114509,114681,115024,115367,115882,116225,116569,116912,117084,117255,117599,117942,118285,165662,165834,166005,166177,166348,166692,166863,167035,167207,168408,168580,168923,169095,169267,169438,169610,169782,169953,171155,171498,171841,172185,172528,172871,173215,173558,174245,174931,175618,175961,176304,176819,176991,177506,177678,178021,178364,178708,178879,179051,179394,179566,179738,179909,180081,180252,180596,180767,180939,181454,181797,182312,182827,183171,183857,184544,184887,185059,185230,185402,185574,185745,186089,186260,186432,186775,186947,187290,187805,188149,188320,188664,189179,189693,190037,190380,190552,190723,190895,191067,191238,191582,191753,191925,192440,192783,193298,194328,194843,195186,195873,196045,196388,196560,196903,197246,197418,197933,198276,198963,199649,200336,201023,202396,202739,202911,203254,203426

[Metadata]
Title:Go My Way
Artist:hitomi
Creator:Mifune24
Version:Hard

[Difficulty]
HPDrainRate:5
CircleSize:5
OverallDifficulty:6
SliderMultiplier: 1.7
SliderTickRate: 1

[Events]
0,0,"BlueSkyLarge.jpg"
2,74518,84940
2,143180,164588
3,0,163,162,255

[TimingPoints]
6000,343.308348114665,4,1,0

[HitObjects]
160,96,17329,1,0,
288,96,17672,1,0,
384,192,18015,1,0,
352,320,18359,2,0,B|352:320|96:320|0:96,1,425
288,320,20075,5,0,
224,320,20247,1,0,
160,320,20418,2,0,B|160:320|64:160,1,170
192,192,21105,1,0,
256,160,21277,1,0,
320,128,21448,1,0,
384,96,21620,1,0,
96,96,22822,6,0,B|96:96|96:288,6,170
224,96,25225,5,2,
96,160,25568,1,2,
96,288,25911,1,2,
96,288,26083,1,2,
224,288,26426,1,2,
224,288,26598,1,2,
320,192,26941,1,2,
320,192,27113,1,2,
416,96,27456,1,2,
416,96,27628,1,2,
128,96,28315,5,0,
128,160,28486,1,0,
128,224,28658,2,0,B|128:224|320:224,1,170
416,320,29344,1,0,
288,320,29688,1,0,
160,320,30031,1,0,
32,320,30374,2,0,B|32:320|32:128,1,170
160,64,31061,5,0,
160,64,31233,1,0,
224,64,31404,2,0,B|224:64|288:128|224:224,3,170
288,256,32606,2,0,B|288:256|192:352|32:320|32:160|160:96,1,425
32,128,33807,5,2,
32,128,33979,1,2,
96,128,34151,1,2,
224,128,34494,2,0,B|224:128|224:320,1,170
416,320,35352,2,0,B|416:320|480:160|352:0,1,340
320,64,36211,5,0,
320,64,36554,1,0,
320,64,36897,1,0,
320,64,37241,1,0,
320,64,37584,1,0,
128,64,38099,2,0,B|128:64|32:160|128:352|320:288|320:160,1,425
256,288,39300,6,0,B|256:288|384:128,7,170
224,192,42047,6,0,B|224:192|64:64,3,170
32,96,43248,1,0,
64,160,43420,1,0,
32,224,43592,1,0,
64,352,43935,2,0,B|64:352|160:288|352:352,1,255
384,224,44793,6,0,B|384:224|96:32,1,340
96,160,45823,1,0,
64,224,45995,1,0,
192,256,46338,1,0,
256,128,46682,2,0,B|256:128|352:-32,1,170
256,192,48570,5,2,
256,192,48913,1,2,
256,192,49256,1,2,
256,192,49600,1,2,
256,64,49943,6,0,B|256:64|128:128|32:192|128:352|288:352|416:288|384:160,1,595
256,128,51488,1,0,
224,192,51660,1,0,
288,192,51831,1,0,
96,192,52346,5,0,
160,320,52689,1,0,
352,320,53204,2,0,B|352:320|224:64,1,255
352,96,55436,5,0,
224,160,55779,1,0,
96,96,56123,1,0,
96,160,56294,2,0,B|96:160|96:352,1,170
224,320,56981,1,0,
288,320,57152,1,0,
256,256,57324,1,0,
0,32,58182,6,0,B|0:32|288:32,1,255
288,384,59556,2,0,B|288:384|0:384,1,255
256,128,60929,6,0,B|256:128|256:320,1,170
384,224,61615,1,2,
384,224,61787,1,2,
384,224,61959,1,2,
384,224,62130,1,2,
384,352,62474,1,2,
384,352,62645,1,2,
384,352,62817,1,2,
192,352,63332,5,0,
96,256,63675,2,0,B|96:256|192:160|352:192,1,255
192,64,66422,6,0,B|192:64|128:128|96:192|192:320,1,255
288,352,67280,1,0,
224,352,67452,1,0,
352,288,67795,6,0,B|352:288|448:160|320:64,1,255
192,32,68653,1,0,
256,32,68825,1,0,
128,96,69168,5,0,
384,96,69855,1,0,
384,352,70541,1,0,
128,352,71228,1,0,
256,192,71915,12,0,74318
128,96,85990,5,0,
128,224,86334,1,0,
128,352,86677,1,0,
256,352,87020,1,0,
256,224,87364,1,0,
256,160,87535,2,0,B|256:160|544:160,1,255
256,320,88737,5,0,
192,288,88908,1,0,
128,256,89080,2,0,B|128:256|128:64,1,170
480,64,90282,2,0,B|480:64|480:352,1,255
224,192,91483,6,0,B|224:192|320:192,9,85
352,320,93371,2,0,B|352:320|256:288|64:320,1,255
96,192,94230,5,0,
160,64,94573,1,0,
288,64,94916,1,0,
352,192,95260,1,0,
288,320,95603,1,0,
224,320,95775,2,0,B|224:320|96:256|64:160|128:64|256:64|320:160,1,425
448,128,96976,5,2,
480,192,97148,1,2,
448,256,97320,1,2,
320,256,97663,1,2,
288,192,97834,1,2,
320,128,98006,1,2,
416,32,98349,1,0,
352,32,98521,2,0,B|352:32|192:32|0:320,1,425
128,192,99723,5,0,
256,192,100066,1,0,
384,192,100409,1,0,
320,320,100753,1,0,
192,320,101096,1,0,
128,320,101268,1,0,
416,128,102469,6,0,B|416:128|352:224,2,85
288,192,103156,2,0,B|288:192|224:288,2,85
160,192,103842,1,0,
160,128,104014,1,0,
32,160,104357,1,0,
224,64,104872,5,2,
224,192,105216,1,2,
224,320,105559,1,2,
480,256,106246,1,2,
480,192,106417,1,2,
480,128,106589,1,2,
480,64,106761,1,2,
352,64,107104,1,2,
32,192,107962,6,0,B|32:192|192:96,7,170
288,192,110709,6,0,B|288:192|416:320,4,170
224,224,112253,1,0,
96,224,112597,2,0,B|96:224|288:32,1,255
416,64,113455,6,0,B|416:64|224:352,1,340
160,224,114485,1,0,
192,160,114657,1,0,
64,160,115000,2,0,B|64:160|192:0,1,170
320,160,115858,6,0,B|320:160|512:160,1,170
480,288,116545,1,0,
352,288,116888,1,0,
288,288,117060,1,0,
320,224,117231,5,2,
192,224,117575,1,2,
64,224,117918,1,2,
128,352,118261,1,2,
256,320,118605,6,0,B|256:320|384:256|480:192|384:32|224:32|96:96|128:224,1,595
256,256,120150,1,0,
288,192,120322,1,0,
224,192,120493,1,0,
416,192,121008,5,0,
352,64,121351,1,0,
160,64,121866,2,0,B|160:64|288:320,1,255
160,288,124098,5,0,
288,224,124441,1,0,
416,288,124785,1,0,
416,224,124956,2,0,B|416:224|416:32,1,170
288,64,125643,1,0,
224,64,125814,1,0,
256,128,125986,1,0,
512,352,126844,6,0,B|512:352|224:352,1,255
224,0,128218,2,0,B|224:0|512:0,1,255
256,256,129591,6,0,B|256:256|256:64,1,170
128,160,130277,1,2,
128,160,130449,1,2,
128,160,130620,1,2,
128,160,130792,1,2,
128,32,131135,1,2,
128,32,131307,1,2,
128,32,131479,1,2,
320,32,131994,5,0,
416,128,132337,2,0,B|416:128|320:224|160:192,1,255
128,256,134397,5,0,
256,256,134740,2,0,B|256:256|448:256,1,170
320,160,135427,6,0,B|320:160|352:96|288:64,1,85
192,32,135942,1,0,
256,32,136113,1,0,
160,96,136457,6,0,B|160:96|64:224|192:320,1,255
320,352,137315,1,0,
256,352,137487,1,0,
384,288,137830,5,0,
128,288,138517,1,0,
128,32,139203,1,0,
384,32,139890,1,0,
256,192,140576,12,0,142980
416,256,165638,1,0,
288,320,165981,1,0,
160,256,166324,1,0,
288,192,166668,2,0,B|288:192|288:96,3,85
384,96,168384,5,0,
384,160,168556,1,0,
256,160,168899,1,0,
192,160,169071,1,0,
64,160,169414,1,0,
64,224,169586,1,0,
128,224,169758,1,0,
128,160,169929,1,0,
448,192,171131,5,0,
352,96,171474,1,0,
320,224,171817,1,0,
224,128,172161,1,0,
128,32,172504,1,0,
32,128,172847,1,0,
128,224,173191,1,0,
224,320,173534,1,0,
448,192,174221,5,0,
160,192,174907,5,0,
384,320,175594,5,0,
256,320,175937,1,0,
128,320,176280,1,2,
288,192,176795,1,2,
320,128,176967,1,2,
128,128,177482,1,2,
96,192,177654,1,2,
224,128,177997,1,2,
160,256,178340,1,2,
288,256,178684,1,2,
256,320,178855,1,2,
320,320,179027,6,0,B|320:320|512:320,3,170
480,256,180228,1,0,
352,256,180572,1,0,
352,256,180743,1,0,
352,256,180915,1,0,
352,64,181430,5,0,
448,160,181773,2,0,B|448:160|288:192|160:128,1,255
128,96,184520,6,0,B|128:96|64:160|128:256,1,170
384,288,185550,1,0,
320,320,185721,1,0,
224,224,186065,1,0,
288,192,186236,1,0,
352,224,186408,1,0,
32,288,187266,6,0,B|32:288|32:0,1,255
384,32,188640,2,0,B|384:32|384:320,1,255
96,128,190013,6,0,B|96:128|192:96|288:128,1,170
384,128,190699,1,2,
320,160,190871,1,2,
256,192,191043,1,2,
192,224,191214,1,2,
256,352,191558,1,2,
320,320,191729,1,2,
384,288,191901,1,2,
416,96,192416,5,0,
288,96,192759,2,0,B|288:96|160:128|32:96,1,255
384,128,195849,5,0,
320,160,196021,1,0,
192,160,196364,1,0,
128,128,196536,1,0,
128,320,197222,1,0,
192,288,197394,2,0,B|192:288|288:256|448:288,1,255
480,160,198252,5,0,
192,160,198939,1,0,
384,352,199625,5,0,
96,352,200312,1,0,
256,192,200999,12,0,203402
192,64,203745,6,0,B|192:64|0:64,3,170
32,128,204946,1,0,
160,128,205290,1,2,
224,128,205462,1,2,
288,128,205633,1,2,
160,320,206148,5,0,
64,224,206491,2,0,B|64:224|224:192|352:256,1,255
384,288,209238,6,0,B|384:288|448:224|384:128,1,170
128,96,210268,1,0,
128,160,210440,1,0,
256,96,210783,1,0,
256,160,210955,1,0,
256,224,211126,1,0,
480,96,211984,6,0,B|480:96|480:384,1,255
128,352,213358,2,0,B|128:352|128:64,1,255
416,256,214731,6,0,B|416:256|320:288|224:256,1,170
128,256,215418,1,2,
192,224,215589,1,2,
128,192,215761,1,2,
64,224,215933,1,2,
32,96,216276,1,2,
96,96,216448,1,2,
64,160,216619,1,2,
96,288,217134,5,0,
224,288,217477,2,0,B|224:288|352:256|480:288,1,255
64,320,220224,5,0,
192,320,220567,1,0,
192,320,220739,1,0,
256,192,221082,1,0,
256,192,221254,1,0,
352,96,221597,1,0,
480,64,221940,1,0,
480,64,222112,1,0,
416,192,222455,1,0,
416,192,222627,1,0,
288,192,222970,5,2,
0,192,223657,1,2,
224,352,224344,1,2,
96,96,225030,1,2,
256,192,225717,12,0,228120
