osu file format v9

[General]
AudioFilename: Bengoshi no Kuzu.mp3
AudioLeadIn: 0
PreviewTime: -1
Countdown: 0
SampleSet: Soft
StackLeniency: 0.7
Mode: 0
LetterboxInBreaks: 1

[Editor]
DistanceSpacing: 0.8
BeatDivisor: 8
GridSize: 16

[Metadata]
Title:GO MY WAY
Artist:hitomi
Creator:Rmt
Version:Kuzu
Source:Bengoshi no kuzu
Tags:Rmt C R E A M Avengersepia kouteieki

[Difficulty]
HPDrainRate:8
CircleSize:5
OverallDifficulty:8
ApproachRate:8
SliderMultiplier:1.4
SliderTickRate:2

[Events]
//Background and Video events
0,0,"bg.png"
//Break Periods
2,71473,76180
//Storyboard Layer 0 (Background)
//Storyboard Layer 1 (Fail)
//Storyboard Layer 2 (Pass)
//Storyboard Layer 3 (Foreground)
//Storyboard Sound Samples
//Background Colour Transformations
3,100,255,0,128

[TimingPoints]
298,342.876735813475,4,2,0,100,1,0
2955,-100,4,1,0,100,0,0
8441,-76.9230769230769,4,1,0,100,0,0
14270,-76.9230769230769,4,2,0,100,0,0
46843,-76.9230769230769,4,1,0,100,0,1
50100,-76.9230769230769,4,2,0,100,0,1
50958,-76.9230769230769,4,1,0,100,0,1
61072,-76.9230769230769,4,2,0,100,0,1
61930,-76.9230769230769,4,1,0,100,0,1
63301,-76.9230769230769,4,1,0,100,0,0
79845,-76.9230769230769,4,1,0,100,0,1
82502,-76.9230769230769,4,2,0,100,0,1
83874,-76.9230769230769,4,1,0,100,0,1
93989,-76.9230769230769,4,2,0,100,0,1
94846,-76.9230769230769,4,1,0,100,0,1
95532,-76.9230769230769,4,2,0,100,0,1
96217,-76.9230769230769,4,1,0,100,0,0

[Colours]
Combo1 : 255,150,0
Combo2 : 255,128,255
Combo3 : 5,5,240
Combo4 : 0,255,64
Combo5 : 240,5,5

[HitObjects]
256,208,2698,2,0,B|256:192,4,17.5
192,80,3041,6,0,B|256:32|320:80,1,140,2|0
400,144,3555,1,0
352,224,3726,1,0
256,304,3898,1,0
160,224,4069,1,0
256,176,4241,2,0,B|192:144,1,70,2|0
256,176,4583,2,0,B|320:144,1,70,2|0
256,176,4926,1,0
224,304,5098,2,0,B|256:336|288:304,3,70
432,272,5784,6,0,B|480:208|432:144,1,140,2|0
336,96,6298,1,0
256,192,6469,1,0
176,96,6641,1,0
256,192,6812,1,0
176,288,6984,2,0,B|144:256|144:224,1,70,2|0
256,192,7326,1,0
336,288,7497,2,0,B|432:288|432:192,1,140,2|0
256,192,8184,5,2
256,176,8269,1,0
256,160,8355,1,0
256,48,8527,6,2,B|192:32|160:80,1,90.9999983727932,2|2
112,144,8869,1,8
256,144,9041,6,2,B|320:128|352:176,1,90.9999983727932,2|2
400,240,9384,1,8
256,240,9555,6,2,B|192:224|160:272,1,90.9999983727932
112,336,9898,1,8
256,336,10069,6,2,B|320:352|352:304,1,90.9999983727932
400,240,10412,1,8
256,240,10584,2,2,B|256:144,3,90.9999983727932,2|2|2|0
256,149,11270,1,0
256,149,11355,1,0
256,149,11441,1,0
128,192,11612,1,0
208,256,11784,2,2,B|256:272|256:272|304:256,1,90.9999983727932
384,192,12127,1,2
256,149,12298,1,0
208,64,12641,5,0
208,64,12727,1,8
208,64,12813,1,0
128,144,12984,1,8
304,176,13155,5,0
304,176,13241,1,8
304,176,13327,1,0
384,256,13498,1,8
256,336,13670,5,0
256,320,13756,1,8
256,304,13842,1,0
256,288,13928,1,0
256,272,14013,1,8
48,336,14355,5,4
144,304,14527,1,0
64,240,14698,2,0,B|64:192|64:192|96:160,1,90.9999983727932
192,160,15041,1,2
256,80,15213,1,0
320,160,15384,1,0
384,80,15556,1,0
320,160,15727,1,2
256,80,15898,1,0
320,160,16070,1,0
256,320,16413,6,2,B|224:352|160:352,1,90.9999983727932
80,352,16756,1,2
80,128,17098,5,2
144,208,17270,1,0
208,128,17441,2,0,B|208:32,1,90.9999983727932
272,208,17784,2,0,B|272:304,1,90.9999983727932,2|0
368,336,18127,1,0
448,272,18299,1,0
480,176,18470,1,2
448,80,18641,1,0
352,32,18813,1,0
256,80,18984,6,0,B|256:176,3,90.9999983727932,2|0|2|0
432,320,19841,5,2
432,224,20013,1,0
336,272,20184,2,0,B|240:272,1,90.9999983727932
160,320,20527,1,2
160,224,20699,1,0
80,160,20870,1,0
160,96,21042,1,0
256,96,21213,1,2
160,96,21384,1,0
256,96,21556,1,0
416,240,21899,5,2
416,240,22070,1,2
256,160,22242,5,0
256,192,22584,1,0
256,336,22927,1,0
176,272,23099,1,0
112,192,23270,1,0
80,96,23442,1,0
176,96,23613,5,0
256,0,23785,1,0
368,64,23956,1,0
304,176,24127,1,0
240,288,24299,1,0
352,352,24470,1,0
416,240,24642,1,0
416,224,24727,1,0
416,208,24813,1,0
416,192,24899,1,0
416,176,24985,1,0
464,48,25328,5,4
400,128,25499,1,0
464,208,25670,2,0,B|400:288,1,90.9999983727932
304,256,26013,1,2
256,160,26185,1,0
304,32,26357,1,0
176,96,26528,1,0
336,96,26699,1,2
208,32,26871,1,0
256,160,27042,1,0
256,320,27385,5,2
256,320,27556,1,2
256,192,27728,6,0,B|320:128,1,90.9999983727932
256,192,28071,2,0,B|192:256,1,90.9999983727932
256,192,28413,2,0,B|192:128,1,90.9999983727932
256,192,28756,2,0,B|320:256,1,90.9999983727932
224,304,29099,1,0
128,304,29271,6,0,B|80:272|80:224,1,90.9999983727932
176,224,29613,1,0
224,304,29785,1,0
272,224,29956,2,0,B|240:192,1,45.4999991863966
288,192,30128,2,0,B|256:144,1,45.4999991863966
320,176,30299,2,0,B|304:128,1,45.4999991863966
352,176,30471,1,4
432,304,30814,5,0
384,208,30985,1,0
464,128,31156,2,0,B|384:64,1,90.9999983727932
288,64,31499,1,0
128,64,31671,1,0
128,224,31842,1,0
288,224,32014,1,0
448,224,32185,1,0
368,368,32356,1,0
288,224,32528,1,0
256,32,32871,5,0
256,32,33042,1,0
256,192,33214,6,0,B|320:128,1,90.9999983727932
256,192,33557,2,0,B|192:256,1,90.9999983727932
96,304,33899,1,0
48,208,34071,1,0
128,144,34242,1,0
224,192,34414,1,0
336,192,34585,2,0,B|336:96,2,90.9999983727932
416,336,35099,1,0
256,320,35271,1,0
256,160,35442,5,0
96,192,35614,1,0
96,208,35700,1,0
96,224,35785,1,0
96,240,35871,1,0
96,256,35957,1,0
416,48,36300,6,0,B|352:112,1,90.9999983727932
351,112,36642,2,0,B|288:48,1,90.9999983727932
288,48,36985,2,0,B|224:112,1,90.9999983727932
144,112,37328,1,0
80,160,37500,2,0,B|80:256,3,90.9999983727932
128,320,38185,1,0
208,336,38357,1,0
224,320,38443,1,0
240,304,38528,1,0
288,240,38700,1,0
64,48,39043,6,0,B|48:112|112:96,1,90.9999983727932
112,96,39385,2,0,B|165:50|176:112,1,90.9999983727932
176,112,39728,2,0,B|194:181|240:128,1,90.9999983727932
320,160,40071,5,0
320,256,40243,1,0
400,304,40414,1,0
480,256,40586,1,0
480,160,40757,1,0
400,112,40928,1,0
400,208,41100,1,0
400,224,41186,1,0
400,240,41271,1,0
400,256,41357,1,0
400,272,41443,1,0
192,272,41786,6,0,B|128:336,1,90.9999983727932
128,192,42128,2,0,B|192:128,1,90.9999983727932
320,144,42471,2,0,B|255:207,1,90.9999983727932
288,288,42814,1,4
384,304,42986,2,0,B|352:272|352:272|416:272|416:272|384:240|384:240|400:208,1,181.999996745586
416,128,43500,2,0,B|384:80|336:80,1,90.9999983727932
256,176,43843,1,0
192,64,44186,6,0,B|128:64|112:128,1,90.9999983727932,2|0
320,64,44529,2,0,B|384:64|400:128,1,90.9999983727932,2|0
160,224,44871,5,2
64,144,45043,1,0
352,224,45214,5,2
448,144,45386,1,0
256,288,45557,5,0
256,304,45900,1,0
256,320,46243,1,0
256,336,46586,5,4
32,80,46929,6,0,B|96:48|96:48|160:80,1,136.49999755919
192,96,47272,1,0
224,192,47443,1,0
320,160,47614,2,0,B|384:96,1,90.9999983727932
432,224,47957,2,0,B|496:288,1,90.9999983727932
496,288,48215,1,0
496,288,48300,1,0
320,272,48472,5,0
224,320,48643,1,0
176,224,48815,1,0
272,176,48986,1,0
320,272,49157,1,0
224,320,49329,2,0,B|128:336,1,90.9999983727932,2|0
64,224,49672,2,0,B|64:128|160:80,1,181.999996745586,2|0
256,64,50186,5,2
384,192,50358,1,2
256,320,50529,1,2
128,192,50700,1,2
416,64,51043,5,8
304,96,51214,1,8
304,96,51300,1,0
304,96,51386,1,0
320,208,51557,1,8
144,208,51729,5,0
128,224,51815,1,8
112,240,51900,1,0
96,256,51986,1,0
80,272,52072,1,8
480,352,52415,6,0,B|352:304,1,136.49999755919
320,288,52758,1,0
224,336,52929,1,0
176,240,53058,1,0
272,192,53272,5,0
240,64,53443,1,0
368,96,53614,1,0
432,96,53957,5,0
208,16,54128,1,0
256,240,54300,1,0
64,320,54643,6,0,B|64:224,1,90.9999983727932
160,144,54986,1,0
48,80,55158,2,0,B|128:0|224:64,1,181.999996745586
213,57,55672,2,0,B|336:48|352:160,1,181.999996745586
349,146,56186,2,0,B|416:208,1,90.9999983727932
352,320,56529,5,8
160,208,56786,1,8
160,208,56872,1,0
64,304,57044,1,8
32,144,57215,1,8
192,96,57386,1,8
256,256,57558,1,8
272,272,57644,1,0
288,288,57729,1,0
304,304,57815,1,0
320,320,57901,6,0,B|416:208,1,136.49999755919,0|0
432,192,58244,1,0
432,80,58415,1,0
320,80,58587,2,0,B|272:64|272:64|224:80,1,90.9999983727932
128,80,58929,1,0
64,176,59101,2,0,B|64:272|160:320,1,181.999996745586
224,240,59615,1,0
288,320,59787,2,0,B|400:272|400:176,1,181.999996745586
400,80,60301,2,0,B|304:48,1,90.9999983727932,2|0
208,48,60644,2,0,B|96:96|96:192,1,181.999996745586,2|0
224,240,61158,5,2
400,304,61330,1,2
464,128,61501,1,2
288,64,61672,1,2
32,304,62015,5,2
256,352,62186,2,0,B|288:304|256:256,1,90.9999983727932,2|0
256,160,62530,1,2
256,64,62701,1,0
256,32,63044,1,0
128,32,63387,6,0,B|16:96|112:192,1,181.999996745586,2|0
100,179,63901,2,0,B|48:304|192:304,1,181.999996745586,2|0
272,288,64415,1,0
368,272,64587,1,0
464,240,64758,6,0,B|480:128|368:112,1,181.999996745586,2|0
369,112,65273,2,0,B|272:144|224:32,1,181.999996745586,2|0
176,112,65787,1,0
128,192,65958,1,0
336,272,66130,6,0,B|400:336,1,90.9999983727932,2|0
336,112,66473,2,0,B|400:48,1,90.9999983727932,2|0
176,112,66816,2,0,B|112:48,1,90.9999983727932,2|0
176,272,67158,2,0,B|112:336,1,90.9999983727932,2|0
256,336,67501,5,0
352,288,67673,1,0
400,192,67844,1,0
352,96,68016,1,0
256,48,68187,1,0
160,96,68359,1,0
112,192,68530,1,0
160,288,68659,1,0
256,336,68873,5,0
256,320,68959,1,0
256,304,69044,1,0
256,288,69130,1,0
256,272,69216,1,0
256,256,69301,1,0
256,240,69387,1,0
256,224,69473,1,0
256,208,69559,1,0
256,192,69644,1,0
256,176,69730,1,0
256,160,69816,1,0
256,144,69901,1,0
256,128,69987,1,0
256,112,70073,1,0
256,96,70159,1,0
336,32,70587,5,0
336,64,70930,1,0
336,96,71273,1,0
256,192,76930,12,0,78816
256,48,79502,5,0
464,64,79845,6,0,B|400:32|400:32|336:64,1,136.49999755919
320,80,80188,1,0
352,176,80359,1,0
256,208,80531,1,0
320,320,80702,1,0
256,208,80874,1,0
192,320,81045,1,0
64,112,81388,1,0
192,112,81559,1,0
64,112,81731,1,0
320,112,82074,5,2
448,112,82245,2,0,B|480:160|448:208,1,90.9999983727932,2|0
432,256,82588,2,2,B|400:352|272:352,1,181.999996745586,0|2
352,160,83102,2,2,B|240:128|192:240,1,181.999996745586
112,272,83617,1,2
64,192,83788,1,2
144,48,83959,6,0,B|288:48,1,136.49999755919,2|0
320,48,84302,1,2
432,48,84474,1,2
400,160,84645,1,8
240,112,84817,1,8
272,272,84988,1,8
272,288,85074,1,0
272,304,85159,1,8
272,320,85245,1,0
272,336,85331,6,0,B|208:352|208:352|144:304,1,136.49999755919
128,288,85674,1,0
96,192,85845,1,0
128,96,86017,1,0
256,32,86188,1,0
208,192,86360,1,0
368,176,86531,2,0,B|432:272|352:352,1,181.999996745586
256,336,87045,1,0
144,320,87217,2,0,B|96:224|192:144,1,181.999996745586
224,176,87731,1,0
272,192,87903,1,0
336,336,88074,6,0,B|416:288|416:288|416:192,1,181.999996745586,2|0
176,48,88588,2,0,B|96:96|96:96|96:192,1,181.999996745586,2|0
112,288,89103,1,0
208,336,89274,1,0
352,224,89445,5,8
128,64,89703,1,8
128,64,89788,1,0
256,64,89960,1,8
176,128,90131,5,8
336,128,90303,1,8
256,256,90474,1,8
256,272,90560,1,0
256,288,90646,1,0
80,336,90817,6,0,B|48:272|48:272|80:208,1,136.49999755919
96,176,91160,1,0
192,128,91331,1,0
320,128,91503,1,2
224,192,91674,1,0
288,64,91846,1,2
288,192,92017,1,0
224,64,92188,1,2
128,64,92360,1,0
64,144,92531,1,0
112,240,92703,2,0,B|160:336|256:352,1,181.999996745586
248,350,93217,2,0,B|320:288,1,90.9999983727932,2|0
316,290,93560,2,0,B|416:288|448:176,1,181.999996745586,2|0
448,96,94074,5,0
352,32,94246,1,0
160,80,94417,1,0
352,128,94589,1,0
160,176,94760,1,0
352,224,94931,1,2
288,304,95103,2,0,B|256:352|192:336,1,90.9999983727932,2|0
128,288,95446,1,2
64,208,95617,1,2
64,160,95960,1,2
256,32,96303,6,0,B|352:64,1,90.9999983727932,2|0
336,160,96646,1,0
432,128,96817,2,0,B|496:208|416:304,1,181.999996745586,2|0
320,272,97332,2,0,B|256:192,1,90.9999983727932,2|0
208,96,97674,6,0,B|112:64,1,90.9999983727932,2|0
128,176,97975,1,0
32,144,98189,2,0,B|16:256|128:304,1,181.999996745586,2|0
208,336,98703,2,0,B|256:256,1,90.9999983727932,2|0
256,32,99046,6,0,B|256:128,1,90.9999983727932,2|0
96,192,99389,2,0,B|192:192,1,90.9999983727932,2|0
256,352,99732,2,0,B|256:256,1,90.9999983727932,2|0
416,192,100075,2,0,B|320:192,1,90.9999983727932,2|0
352,96,100418,5,2
352,96,100589,1,0
160,96,100760,1,2
160,96,100932,1,0
160,288,101103,1,2
160,288,101275,1,0
352,288,101446,1,2
144,48,101789,5,8
144,48,101875,1,0
144,48,101960,1,0
368,128,102132,5,8
368,128,102218,1,0
368,128,102303,1,0
256,320,102475,5,0
256,304,102560,1,8
256,288,102646,1,0
256,272,102732,1,0
256,256,102818,1,8
256,240,102903,1,0
256,224,102989,1,8
256,208,103075,1,0
256,192,103161,5,4
256,32,104018,5,0
256,192,104189,1,0
256,192,104275,1,0
256,192,104361,1,0
64,64,104532,6,0,B|128:128,1,90.9999983727932
128,224,104875,1,0
224,304,105046,1,0
240,304,105132,1,0
256,304,105218,1,0
272,304,105304,1,0
288,304,105389,1,0
400,336,105561,1,0
400,64,105732,1,0
256,320,105904,6,0,B|256:272,1,45.4999991863966
384,128,106161,2,0,B|336:160,1,45.4999991863966
128,128,106418,2,0,B|176:160,1,45.4999991863966
368,48,106589,5,0
144,48,106761,1,0
256,224,106932,1,0
256,208,107018,1,0
256,192,107104,1,0
256,192,107275,12,0,110018
