osu file format v5

[General]
AudioFilename: his-world-zebrahead-version-sonic-the-hedgehog-2006-.mp3
AudioLeadIn: 0
PreviewTime: -1
Countdown: 1
SampleSet: Normal
StackLeniency: 0.3
Mode: 0
LetterboxInBreaks: 1
EditorBookmarks: 14690,40490,57290,64490,90290,107090,128690,149090,185090,194690

[Metadata]
Title:His World
Artist:
Creator:buraimaster1234
Version:Insane
Source:SONIC the Hedgehog - Zebrahead
Tags:2006 Zebrahead

[Difficulty]
HPDrainRate:6
CircleSize:6
OverallDifficulty:7
SliderMultiplier:1.6
SliderTickRate:2

[Events]
//Background and Video events
0,0,"5_28_20 PM_sonic-the-hedgehog.jpg"
//Break Periods
2,109390,127340
//Storyboard Layer 0 (Background)
//Storyboard Layer 1 (Failing)
//Storyboard Layer 2 (Passing)
//Storyboard Layer 3 (Foreground)
//Storyboard Sound Samples
//Background Colour Transformations
3,100,163,162,255

[TimingPoints]
290,300,4,1,0,100

[HitObjects]
96,96,14240,1,0
160,128,14390,1,0
224,96,14540,1,0
288,128,14690,1,0
416,128,14990,1,0
416,192,15140,2,0,B|352:288,1,80
320,304,15440,2,0,B|256:240,1,80
208,208,15740,2,0,B|112:272,2,80
272,176,16190,1,0
336,144,16340,2,0,B|304:48|208:112,1,160
176,168,16790,1,0
112,160,16940,1,0
48,192,17090,6,0,B|48:288,1,80
48,336,17390,2,0,B|144:336,1,80
192,336,17690,2,0,B|192:240,1,80
192,192,17990,2,0,B|288:192,1,80
336,192,18290,2,0,B|432:192,2,80
336,256,18740,2,0,B|336:384|464:320,1,160
448,272,19190,1,0
448,208,19340,1,0
384,208,19490,2,0,B|256:208|320:80,1,160
272,48,19940,1,0
208,80,20090,2,0,B|144:176|240:240,1,160
280,256,20540,1,0
256,320,20690,1,0
192,288,20840,1,0
128,320,20990,1,0
192,288,21140,1,0
192,160,21440,6,2,B|192:64,1,80
288,64,21740,5,0
288,128,21890,1,0
384,80,22190,2,0,B|384:176,1,80
416,224,22490,1,0
416,288,22640,1,0
352,320,22790,1,4
288,288,22940,1,0
224,320,23090,1,6
160,288,23240,1,0
96,256,23390,1,4
64,192,23540,2,4,B|96:96|192:128,1,160
224,192,23990,1,0
224,192,24140,1,0
288,160,24290,6,0,B|352:96,1,80
344,103,24590,2,0,B|448:128,1,80
421,121,24890,2,0,B|448:224,1,80
441,198,25190,2,6,B|352:256,1,80
373,241,25490,2,6,B|416:320,2,80
320,208,25940,2,6,B|224:176|192:272,1,160
144,320,26390,1,0
80,320,26540,1,0
64,256,26690,6,0,B|64:160,1,80
64,112,26990,2,0,B|160:112,1,80
192,160,27290,2,0,B|192:256,1,80
192,304,27590,2,6,B|288:304,1,80
336,304,27890,2,6,B|432:304,2,80
272,304,28340,2,6,B|150:299|240:176,1,160
272,144,28790,1,0
272,144,28940,1,0
352,96,29090,6,0,B|352:192,2,80
416,96,29540,2,0,B|416:192,2,80
480,128,29990,2,6,B|480:224,1,80
480,272,30290,2,6,B|384:272,1,80
344,320,30590,1,0
280,320,30740,1,0
160,320,31040,1,4
96,320,31190,1,0
96,256,31340,1,4
64,192,31490,6,0,B|160:192,1,80
192,248,31790,2,0,B|192:344,1,80
256,288,32090,2,2,B|288:192,1,80
328,152,32390,2,0,B|392:248,1,80
424,272,32690,2,6,B|424:176,2,80
424,272,33140,1,6
288,320,33740,5,0
224,320,33890,1,0
96,320,34190,1,4
96,192,34490,1,0
224,192,34790,1,4
224,64,35090,2,6,B|384:128,1,160
432,160,35540,1,6
448,288,35840,1,0
384,288,35990,1,0
320,288,36140,1,0
256,288,36290,5,6
128,288,36590,1,4
128,160,36890,1,0
192,160,37040,1,0
256,160,37190,1,4
288,224,37340,1,0
352,224,37490,1,6
416,224,37640,1,0
416,160,37790,1,6
384,96,37940,2,6,B|192:256,1,240
256,192,38540,12,0,38990
256,192,39140,12,0,39590
384,256,39890,1,0
320,160,40190,1,2
256,192,40490,12,0,41690
256,224,41840,2,6,B|256:320,2,80
256,160,42290,1,0
256,64,42590,1,6
64,64,42890,6,0,B|64:320,1,240
128,336,43490,1,0
192,336,43640,1,0
224,272,43790,2,6,B|224:80,1,160
448,64,44690,2,6,B|448:256,2,160
256,192,45590,12,0,46490
224,192,46640,2,6,B|320:192,2,80
160,192,47090,1,0
64,192,47390,1,6
128,96,47690,5,6
160,160,47840,1,0
256,96,48140,1,4
352,160,48440,1,2
448,96,48740,1,4
256,192,48815,12,0,49490
448,288,49790,1,4
384,192,50090,1,2
384,192,50240,1,4
320,288,50540,1,0
256,192,50840,1,2
192,288,51140,1,4
128,192,51440,1,2
64,288,51740,1,4
64,96,52490,5,2
64,96,52640,1,0
128,192,52940,1,4
192,96,53240,1,0
256,192,53540,1,2
352,96,53990,1,0
416,96,54140,1,2
416,224,54590,1,4
320,224,54890,5,0
320,288,55040,1,0
224,224,55340,1,6
128,256,55640,1,4
96,160,55940,1,2
192,128,56240,1,0
288,128,56540,2,4,B|448:128|384:256,1,160
256,352,57140,1,0
256,352,57290,5,4
256,352,57440,1,4
32,192,57740,1,4
32,192,57890,5,4
256,32,58190,1,4
256,32,58340,5,4
480,192,58640,1,4
480,192,58790,5,4
256,192,59090,5,4
256,192,59390,5,4
192,96,59690,6,0,B|288:96,2,80
160,128,60140,1,2
128,160,60290,2,0,B|32:160,2,80
160,192,60740,1,2
192,224,60890,2,4,B|288:224,2,80
160,256,61340,1,6
128,288,61490,2,4,B|32:288,2,80
160,320,61940,1,6
256,352,62090,1,4
256,352,62240,5,4
352,232,62690,1,4
352,232,62840,5,4
288,96,63290,1,4
288,96,63440,5,4
152,160,63890,1,4
216,192,64040,1,4
280,224,64190,1,4
344,256,64340,1,4
416,224,64490,6,2,B|416:160,2,40
368,256,64790,2,2,B|368:320,2,40
320,224,65090,1,0
256,128,65390,2,6,B|96:224,1,160
160,264,65840,2,0,B|256:264,1,80
296,296,66140,1,2
384,224,66440,1,0
416,288,66590,1,6
416,288,66740,1,0
384,352,66890,6,0,B|288:320,1,80
256,288,67190,2,0,B|256:192,1,80
240,144,67490,2,4,B|48:144,1,160
32,192,67940,2,0,B|64:288,1,80
160,320,68390,1,6
280,256,68690,1,6
416,192,68990,1,0
352,192,69140,1,0
288,192,69290,6,0,B|192:192,1,80
144,192,69590,2,2,B|144:96,1,80
144,48,69890,2,0,B|240:48,1,80
288,48,70190,2,6,B|288:144,1,80
288,192,70490,6,2,B|384:192,2,80
224,192,70940,1,0
160,192,71090,2,0,B|64:192,2,80
224,192,71540,1,0
224,256,71690,2,6,B|224:352,2,80
224,192,72140,1,0
224,128,72290,2,0,B|224:32,2,80
224,192,72740,1,2
288,192,72890,2,6,B|384:192,1,80
432,192,73190,1,6
432,256,73340,2,6,B|240:256,1,160
208,256,73790,5,0
144,256,73940,1,0
80,224,74090,2,4,L|112:128,1,80
144,96,74390,2,0,L|240:96,1,80
288,96,74690,2,2,L|288:192,2,80
352,96,75140,2,4,L|352:192,1,80
352,240,75440,2,0,L|448:240,1,80
480,288,75740,2,6,L|432:368,1,80
368,352,76040,2,0,L|272:352,1,80
224,336,76340,6,0,L|128:336,1,80
144,272,76640,2,2,L|144:176,2,80
80,272,77090,2,4,L|80:176,3,80
96,128,77690,2,6,L|256:160,1,160
288,208,78140,2,6,L|288:48,1,160
224,48,78590,2,4,L|128:48,2,80
288,48,79040,5,0
352,48,79190,2,4,L|352:144,1,80
416,144,79490,5,0
464,192,79640,2,0,L|464:288,1,80
416,320,79940,2,2,L|320:320,3,80
272,320,80540,2,2,L|112:320,1,160
48,320,80990,5,0
48,256,81140,1,0
80,192,81290,1,0
192,224,81590,2,2,L|192:128,1,80
192,80,81890,1,0
320,64,82190,1,0
384,64,82340,1,4
416,128,82490,2,6,L|416:224,3,80
192,192,83540,5,0
128,192,83690,1,4
192,64,83990,1,2
256,192,84290,1,4
320,320,84590,1,2
384,192,84890,2,6,C|448:96|480:160,1,160
480,192,85340,1,6
416,320,86090,5,4
256,320,86390,1,2
96,320,86690,1,4
96,256,86840,2,0,C|96:160,1,80
128,120,87140,1,2
192,96,87290,2,6,C|256:160|192:192,1,160
160,256,87740,2,6,C|96:320|256:352,1,240
256,192,88340,12,0,88790
256,192,88940,12,0,89390
160,96,89690,2,2,C|224:256,1,160
256,192,90290,12,0,91490
192,96,91640,2,6,C|288:96,1,80
336,96,91940,1,6
400,96,92090,1,0
400,224,92390,1,6
320,320,92690,6,0,C|320:64,2,240
320,320,93740,2,4,C|64:320,1,240
64,96,94490,6,2,C|96:256,2,160
256,192,95390,12,0,96290
256,320,96440,2,6,C|256:224,2,80
256,320,96890,1,0
256,192,97190,1,2
320,64,97490,5,2
384,96,97640,1,0
256,160,97940,1,2
448,224,98240,1,0
224,288,98540,1,6
64,192,99290,5,0
64,64,99590,1,0
160,160,99890,1,2
160,160,100040,1,0
256,64,100340,1,0
352,160,100640,1,6
448,64,100940,1,0
352,160,101240,1,4
256,64,101540,1,0
256,192,101840,1,0
256,256,101990,1,0
320,288,102140,1,0
352,224,102290,5,2
352,224,102440,1,0
256,320,102740,1,0
160,224,103040,1,4
64,320,103340,1,6
144,192,103790,1,2
144,128,103940,1,4
256,128,104240,1,0
256,64,104390,1,2
352,64,104690,5,2
416,96,104840,1,0
288,160,105140,1,4
448,224,105440,1,2
256,288,105740,1,0
480,352,106040,1,6
224,352,106340,2,6,C|64:352,1,160
64,288,106790,1,0
96,224,106940,2,6,C|192:224,1,80
288,224,107390,1,4
352,224,107540,5,4
224,192,107840,1,4
288,192,107990,5,4
160,160,108290,1,4
224,160,108440,5,4
96,128,108740,1,4
160,128,108890,5,4
224,128,109040,1,0
288,128,109190,5,4
384,192,128240,5,0
384,128,128390,1,0
384,64,128540,2,0,C|384:160,1,80
384,192,128840,2,0,C|288:192,1,80
256,192,129140,2,0,C|256:96,1,80
256,64,129440,2,0,C|256:160,1,80
256,192,129740,2,0,C|160:192,1,80
128,224,130040,1,0
160,320,130340,1,0
256,240,130790,1,0
320,240,130940,2,0,C|320:336,1,80
384,336,131240,2,0,C|480:336,1,80
512,304,131540,2,0,C|512:208,1,80
512,160,131840,1,0
448,176,131990,1,0
432,112,132140,2,0,C|336:112,2,80
496,48,132590,5,2
256,48,133190,1,2
112,128,133490,6,0,C|112:224,1,80
176,224,133790,2,0,C|176:320,2,80
240,224,134240,2,0,C|240:320,3,80
288,352,134840,1,0
352,352,134990,1,0
352,352,135140,1,0
448,304,135440,2,0,C|448:208,1,80
448,112,135890,2,0,C|352:112,1,80
304,112,136190,1,0
208,192,136490,2,0,C|208:288,1,80
224,336,136790,2,0,C|128:336,1,80
96,288,137090,2,0,C|96:192,1,80
96,96,137390,5,2
320,96,137990,1,2
416,160,138290,6,0,C|416:256,5,80
368,288,139190,1,0
304,288,139340,1,0
240,288,139490,5,2
144,256,139790,1,2
144,320,139940,1,2
48,224,140240,6,0,C|48:320,2,80
64,160,140690,2,0,C|160:160,4,80
64,64,141590,1,0
128,64,141740,1,0
184,112,141890,5,2
328,112,142190,1,2
256,128,142340,1,2
256,192,142940,5,0
208,240,143090,2,0,B|176:304|336:304|304:240,1,160
256,192,143690,1,0
160,96,143990,5,2
256,160,144290,6,0,B|256:352,1,160
256,360,144740,2,0,B|256:168,1,160
352,96,145190,5,2
384,224,145490,6,4,B|192:224,1,160
160,192,145940,1,4
96,224,146090,2,4,B|96:128,1,80
136,88,146390,2,4,B|232:152,1,80
264,160,146690,2,4,B|296:64|424:128,1,160
352,168,147140,1,4
256,192,147215,12,0,148190
128,96,148490,2,2,B|160:288|224:288,2,160
224,80,149390,2,0,B|256:272|320:272,1,160
320,64,149990,1,0
416,128,150290,5,6
416,192,150440,2,6,B|416:288,2,80
416,128,150890,1,0
320,128,151190,1,6
224,96,151490,6,0,B|96:224|64:288|32:384,1,320
112,368,152240,1,0
176,368,152390,2,6,B|368:368,1,160
384,96,153290,6,2,B|352:288|288:288,2,160
288,80,154190,2,0,B|256:272|192:272,1,160
192,64,154790,1,0
128,64,154940,5,0
64,64,155090,1,6
16,112,155240,1,6
16,176,155390,1,6
16,240,155540,1,6
80,208,155690,1,0
136,112,155990,1,6
256,96,156290,5,2
288,160,156440,1,0
384,96,156740,1,4
416,208,157040,1,0
384,320,157340,1,6
224,288,158090,6,0,B|64:352,1,160
32,256,158690,1,2
32,256,158840,1,0
128,192,159140,1,4
32,128,159440,1,0
128,64,159740,1,6
224,128,160040,1,6
128,192,160340,1,4
288,272,160640,5,0
360,304,160790,2,0,B|456:328,1,80
480,256,161090,1,2
480,256,161240,1,4
384,192,161540,1,0
480,128,161840,1,0
384,64,162140,2,2,B|192:256,1,240
192,304,162740,2,4,B|192:400|320:400|384:240,1,240
352,160,163490,5,0
288,160,163640,1,0
256,272,163940,1,0
224,160,164240,1,2
192,272,164540,1,4
160,160,164840,1,2
128,272,165140,1,4
96,160,165440,1,6
160,64,165740,2,0,B|256:64,1,80
256,192,165965,12,0,167390
128,96,167690,1,2
384,96,167990,1,2
256,96,168290,1,2
256,256,168590,2,4,B|256:64,1,160
128,96,169190,1,0
128,208,169490,5,2
128,272,169640,1,0
176,320,169790,1,2
240,320,169940,1,0
208,256,170090,1,6
88,248,170390,1,0
64,352,170690,6,2,B|352:352,1,240
360,320,171290,1,0
416,352,171440,1,0
472,320,171590,2,6,B|504:256|408:192|344:256,1,160
256,64,172490,6,2,B|256:256,2,160
256,192,173390,12,0,174290
112,128,174440,2,6,B|112:224,1,80
176,224,174740,2,6,B|176:320,1,80
272,352,175190,1,6
320,192,175490,5,0
320,192,175640,1,0
384,288,175940,1,0
448,192,176240,1,0
384,96,176540,1,0
352,160,176690,2,0,B|256:64|160:160|96:96,1,240
64,160,177290,1,2
160,224,177590,1,4
288,256,177890,5,0
352,256,178040,1,0
448,192,178340,1,0
352,128,178640,1,0
240,160,178940,2,6,B|112:160|112:128|48:128,2,160
352,192,179840,2,0,B|352:96,1,80
416,96,180140,1,0
416,160,180290,6,6,B|416:256,1,80
352,320,180740,1,0
256,224,181040,1,2
160,320,181340,2,4,B|32:320|32:192|96:160,1,240
40,128,181940,2,0,B|136:32|232:160,1,160
248,96,182390,1,2
384,96,182690,5,4
384,160,182840,1,0
384,288,183140,1,0
384,160,183440,1,2
256,160,183740,1,0
384,160,184040,1,6
256,288,184340,2,0,L|96:288|96:128,1,320
128,64,185090,5,4
128,64,185240,1,4
256,192,185540,1,4
256,192,185690,1,4
384,320,185990,1,4
384,320,186140,1,4
416,64,186440,1,4
416,64,186590,1,4
288,192,186890,1,4
160,320,187190,1,4
64,224,187490,6,0,L|160:224,1,80
256,224,187940,1,0
320,224,188090,2,0,L|416:224,1,80
480,160,188540,1,0
352,128,188990,5,2
256,128,189290,2,2,L|160:160,1,80
120,128,189590,1,2
32,224,189890,6,4,L|128:224,1,80
224,224,190340,1,0
288,224,190490,2,4,L|384:224,1,80
448,160,190940,1,4
352,96,191390,5,2
256,128,191690,2,2,L|160:160,1,80
128,200,191990,1,2
176,288,192290,5,4
240,288,192440,1,0
200,192,192740,1,0
272,192,192890,1,4
344,192,193040,1,0
432,104,193340,1,0
432,184,193490,1,4
224,160,194390,5,6
256,192,194690,12,0,199190
