osu file format v5

[General]
AudioFilename: his-world-crush-40-version-sonic-the-hedgehog-2006-.mp3
AudioLeadIn: 0
PreviewTime: -1
Countdown: 2
SampleSet: Normal
StackLeniency: 0.4
Mode: 0
LetterboxInBreaks: 1
EditorBookmarks: 11480,22774,62303,106935,118093,155752,200384

[Metadata]
Title:His World
Artist:
Creator:buraimaster1234
Version:Normal
Source:SONIC the Hedehog - Crush 40
Tags:2006 Crush 40

[Difficulty]
HPDrainRate:4
CircleSize:4
OverallDifficulty:5
SliderMultiplier:0.899999999999999
SliderTickRate:1

[Events]
//Background and Video events
0,0,"sth1_1600.jpg"
//Break Periods
2,105379,116883
//Storyboard Layer 0 (Background)
//Storyboard Layer 1 (Failing)
//Storyboard Layer 2 (Passing)
//Storyboard Layer 3 (Foreground)
//Storyboard Sound Samples
//Background Colour Transformations
3,100,163,162,255

[TimingPoints]
11480,352.941176470588,4,1,0,100
60891,348.7358326068,4,1,0,100

[HitObjects]
96,128,22774,2,0,B|224:128,1,89.9999999999999
288,128,23479,2,0,B|448:128|384:256,1,180
304,256,24538,2,0,B|112:256,1,180
64,336,25597,1,0
160,336,25950,1,0
256,336,26303,6,0,B|448:336,2,180
256,240,28068,1,0
352,240,28421,2,0,B|352:48,2,180
256,240,30185,2,0,B|160:240,7,89.9999999999999
64,96,33362,5,0
160,96,33715,2,2,B|256:96,1,89.9999999999999
448,96,34774,1,0
448,288,35479,1,0
352,288,35832,2,2,B|352:192,1,89.9999999999999
256,128,36891,5,4
160,128,37244,1,0
64,128,37597,1,0
160,256,38303,1,0
256,256,38656,1,0
352,256,39009,1,0
416,128,39715,6,0,B|320:160,1,89.9999999999999
288,128,40244,2,0,B|160:224,1,135
128,192,40950,2,0,B|64:288|160:320,1,135
192,320,41656,2,4,B|448:320,1,225
416,224,42891,6,0,B|352:224,2,45
416,128,43597,1,2
320,128,43950,2,4,B|128:128,1,180
64,224,45715,5,0
64,320,46068,1,0
256,320,46774,1,0
256,224,47127,1,0
448,224,47832,1,2
448,320,48185,1,4
448,320,48538,1,0
256,192,49597,5,0
256,96,49950,2,0,B|256:32|64:64,1,180
32,144,51009,1,2
224,144,51715,1,0
416,144,52421,1,2
416,240,52774,2,0,B|416:368,1,89.9999999999999
96,288,53832,5,2
96,96,54538,1,2
288,96,55244,1,2
416,288,56656,6,4,B|256:288,1,135
320,256,57362,2,4,B|160:256,1,135
224,224,58068,2,4,B|64:224,1,135
128,192,58774,1,4
256,192,58862,12,0,60891
96,128,61588,1,0
192,128,61937,1,0
288,128,62285,2,0,B|480:128|384:256,2,180
96,128,64378,1,0
96,224,64727,2,4,B|96:320,1,89.9999999999999
320,352,65773,1,0
320,256,66122,1,4
416,256,66470,2,0,B|416:160,1,89.9999999999999
352,96,67168,6,6,B|256:96,2,89.9999999999999
128,96,68563,1,0
128,192,68911,2,0,B|128:288,1,89.9999999999999
352,288,69958,1,0
352,192,70306,2,4,B|256:192,1,89.9999999999999
128,192,71178,1,0
128,64,71701,1,0
224,64,72050,2,2,B|320:64,2,89.9999999999999
224,160,73096,6,6,B|224:256,1,89.9999999999999
448,256,74142,1,0
448,352,74491,2,4,B|352:352,1,89.9999999999999
128,352,75537,1,0
128,256,75886,1,4
128,160,76235,2,0,B|224:160,1,89.9999999999999
224,256,76932,2,6,B|320:256,2,89.9999999999999
256,352,77979,2,6,B|352:352,1,89.9999999999999
448,224,79025,6,0,B|448:32|160:96,1,360
32,160,81117,1,0
32,256,81466,1,2
128,256,81815,2,6,B|224:256,1,89.9999999999999
256,224,82338,2,6,B|352:288,1,89.9999999999999
384,256,82861,1,6
448,96,83907,5,2
352,96,84256,1,0
256,96,84605,2,4,B|64:96,2,180
416,224,86697,1,0
320,224,87046,2,2,B|224:224,1,89.9999999999999
96,224,87918,2,4,B|96:64,1,135
192,64,88789,2,2,B|288:64,2,89.9999999999999
192,160,89836,6,6,B|192:256,1,89.9999999999999
416,256,90882,1,0
416,160,91231,2,4,B|320:160,1,89.9999999999999
96,160,92277,1,0
96,256,92625,1,4
192,256,92974,2,4,B|288:256,2,89.9999999999999
192,160,94020,1,6
288,160,94369,2,6,B|480:160,1,180
480,64,95415,5,6
384,64,95764,1,6
160,64,96462,2,0,B|160:160,2,89.9999999999999
96,256,98554,2,6,B|192:256,1,89.9999999999999
160,224,99077,2,6,B|320:224,1,135
288,192,99775,2,6,B|384:192,1,89.9999999999999
480,192,100472,1,6
352,96,101344,6,0,B|224:32|192:160,1,180
224,224,102390,1,2
128,224,102739,2,0,B|0:224|96:96,1,180
176,160,103785,1,2
272,160,104134,2,6,B|368:160,1,89.9999999999999
352,256,104831,2,6,B|256:256,1,89.9999999999999
128,256,118083,5,0
32,256,118432,2,0,B|32:160,1,89.9999999999999
128,64,119478,2,0,B|224:64,2,89.9999999999999
128,288,120873,2,0,B|224:288,2,89.9999999999999
128,192,121919,1,0
224,192,122268,2,2,B|320:192,1,89.9999999999999
416,192,122965,1,4
416,96,123314,5,0
320,96,123663,2,2,B|224:96,1,89.9999999999999
128,96,124360,1,2
128,192,124709,1,4
224,192,125058,2,0,B|320:192,8,89.9999999999999
32,192,128545,1,4
32,288,128894,6,2,B|128:288,1,89.9999999999999
352,288,129940,1,2
352,64,130638,1,4
352,160,130986,2,4,B|352:64,1,89.9999999999999
192,64,132033,2,4,B|128:64|128:128,1,89.9999999999999
168,200,132730,2,4,B|232:232|168:264,1,89.9999999999999
80,256,133428,2,4,B|16:320|80:352,2,89.9999999999999
288,256,134822,6,2,B|384:256|384:192,1,89.9999999999999
384,192,135346,2,2,B|384:96|352:32,1,135
320,96,136043,2,2,B|224:96|160:128,1,135
160,160,136741,1,4
160,288,137612,5,4
256,288,137961,2,0,B|320:288,2,45
256,192,138659,2,4,B|192:192,3,45
320,192,139530,1,4
448,192,140402,5,2
448,96,140751,2,0,B|352:96,1,89.9999999999999
256,96,141448,2,0,B|256:192,1,89.9999999999999
256,288,142146,1,2
160,288,142495,2,0,B|64:288,1,89.9999999999999
64,192,143192,1,6
96,96,143541,2,4,B|160:192,1,89.9999999999999
224,224,144238,2,4,B|256:128,2,89.9999999999999
192,312,145285,1,4
288,320,145633,5,2
384,320,145982,2,4,B|480:320|480:224|416:192,1,180
224,128,147377,2,2,B|96:128|128:256,1,180
256,288,148423,5,4
256,192,148772,2,4,B|256:96,1,89.9999999999999
256,32,149469,2,4,B|256:128,1,89.9999999999999
256,192,150167,1,4
448,96,151562,6,2,B|448:224|416:224,1,135
384,192,152259,2,2,B|384:320|352:320,1,135
320,288,152957,2,6,B|224:384|192:320,1,135
192,288,153654,1,6
96,128,155049,5,0
192,128,155398,1,0
288,128,155747,2,0,B|384:128|384:192,2,89.9999999999999
96,128,157142,1,0
96,288,157839,1,0
192,288,158188,2,4,B|288:288,1,89.9999999999999
384,288,158885,1,0
448,224,159234,2,4,B|352:224,1,89.9999999999999
256,224,159931,2,6,B|160:224,2,89.9999999999999
256,128,160978,5,6
256,32,161326,2,6,B|448:32,1,180
448,128,162373,1,4
448,224,162721,2,4,B|448:352|320:320,1,180
272,256,163768,1,2
176,256,164116,2,6,B|80:256|112:352,2,135
176,160,165511,2,4,B|176:64,1,89.9999999999999
176,70,166034,1,4
224,64,166209,5,6
320,64,166557,1,6
416,64,166906,2,6,B|416:256,2,180
320,64,168650,1,0
320,160,168999,1,0
224,160,169347,2,4,B|128:160,1,89.9999999999999
64,224,170045,5,2
160,224,170394,1,2
192,320,170742,2,4,B|288:288,1,89.9999999999999
368,320,171440,1,2
336,240,171788,1,2
416,192,172137,2,4,B|416:96,1,89.9999999999999
320,64,172835,5,2
224,64,173183,2,2,B|32:64,2,180
224,160,174927,1,2
128,160,175276,2,6,B|128:256,1,89.9999999999999
160,288,175799,2,6,B|256:288,1,89.9999999999999
288,256,176322,1,6
288,96,177368,5,2
384,96,177717,1,0
384,192,178066,2,4,B|384:288,4,89.9999999999999
288,192,179809,1,0
288,96,180158,1,4
192,96,180507,1,2
192,192,180856,2,6,B|192:352,2,135
96,192,182251,2,0,B|192:192,1,89.9999999999999
224,192,182774,1,4
272,192,182948,5,6
368,192,183297,1,6
464,192,183646,1,6
272,192,184343,1,0
176,192,184692,1,6
80,192,185040,1,6
272,192,185738,5,0
224,112,186087,1,6
320,112,186435,2,6,B|480:112|416:208,1,180
352,288,187482,1,2
256,288,187830,2,4,B|160:288,2,89.9999999999999
256,288,188877,5,6
256,288,189225,1,6
480,288,189923,1,0
384,96,190620,1,2
256,256,191318,1,4
256,32,192015,5,4
64,128,192713,1,2
288,128,193410,1,6
128,256,194108,1,0
352,256,194805,5,0
352,160,195154,1,2
352,160,195328,1,0
192,160,195851,1,2
192,160,196026,1,6
32,160,196897,1,6
32,256,197246,1,6
128,256,197595,1,6
224,256,197944,1,0
224,256,198118,1,6
320,256,198467,1,0
320,256,198641,1,6
256,192,198816,12,4,200385
