osu file format v5

[General]
AudioFilename: his-world-ali-tabatabaee-matty-lewis-sonic-the-hedgehog-2006-.mp3
AudioLeadIn: 0
PreviewTime: -1
Countdown: 1
SampleSet: Normal
StackLeniency: 0.3
Mode: 0
LetterboxInBreaks: 1
EditorBookmarks: 23950,49565,71136,92706,139892,161463,183033

[Metadata]
Title:His World
Artist:
Creator:buraimaster1234
Version:Hard
Source:SONIC the Hedgehog - Ali Tabatabaee & Matty Lewis
Tags:2006 Ali Tabatabaee & Matty Lewis

[Difficulty]
HPDrainRate:5
CircleSize:5
OverallDifficulty:6
SliderMultiplier:1.4
SliderTickRate:1

[Events]
//Background and Video events
0,0,"5_28_20 PM_sonic-the-hedgehog.jpg"
//Break Periods
2,70325,91656
//Storyboard Layer 0 (Background)
//Storyboard Layer 1 (Failing)
//Storyboard Layer 2 (Passing)
//Storyboard Layer 3 (Foreground)
//Storyboard Sound Samples
//Background Colour Transformations
3,100,163,162,255

[TimingPoints]
2380,337.040781934614,4,1,0,100

[HitObjects]
96,160,23276,1,0
200,168,23613,1,0
256,256,23950,1,4
288,352,24287,1,0
352,352,24456,1,0
416,352,24624,1,0
416,224,24961,1,2
288,192,25298,2,0,L|192:192,1,70
152,192,25635,1,0
88,192,25804,1,4
128,64,26141,5,0
192,64,26309,1,0
288,64,26646,2,4,B|288:224,1,140
352,224,27152,1,0
416,224,27321,1,0
480,256,27489,1,0
416,288,27658,2,2,B|320:288,1,70
288,320,27995,6,6,B|192:320,1,70
152,320,28332,1,0
152,256,28500,2,6,B|152:128|280:192,1,140
288,192,29006,1,0
344,216,29174,1,0
400,256,29343,6,0,B|496:224|432:128,1,140
320,96,30017,2,4,B|224:96,1,70
184,96,30354,1,0
120,96,30522,1,0
64,128,30691,2,4,B|64:288,1,140
64,336,31196,1,4
160,320,31365,6,2,B|160:160,1,140
256,160,31871,5,0
256,224,32039,2,4,B|416:224,1,140
416,320,32713,2,4,B|256:320,1,140
256,224,33387,2,4,B|416:224,1,140
416,128,34061,2,4,B|256:128,1,140
160,128,34735,6,0,B|160:224,4,70
96,128,35578,2,0,B|96:224,2,70
32,160,36084,2,6,B|32:256,1,70
32,296,36421,1,0
96,296,36589,2,6,B|256:296,1,140
304,296,37095,1,0
304,296,37263,1,0
384,288,37432,6,0,B|384:192,1,70
448,192,37769,1,2
448,80,38106,1,2
384,80,38274,2,0,B|288:80,1,70
248,96,38611,1,2
192,128,38780,2,4,B|32:128,1,140
32,192,39285,2,4,B|32:352,1,140
96,352,39791,1,2
160,352,39960,1,0
224,352,40128,6,4,B|320:352,1,70
360,352,40465,1,0
352,256,40802,2,6,B|352:192|416:192,1,70
448,192,41139,1,0
416,96,41476,2,6,B|256:96,1,140
216,96,41982,2,4,B|376:96,1,140
384,160,42487,1,0
320,160,42656,1,0
256,192,42824,5,4
192,192,42993,1,0
192,256,43161,1,0
296,256,43498,1,4
400,256,43836,2,6,B|400:96,1,140
288,64,44510,1,0
288,128,44678,1,6
160,64,45352,1,0
160,128,45521,6,4,B|64:128,1,70
64,192,45858,2,4,B|160:192,1,70
200,192,46195,1,4
296,192,46532,1,0
320,288,46869,2,4,B|160:288,1,140
160,224,47374,2,4,B|384:224,1,210
128,96,48891,6,2,B|192:256,2,140
224,96,49902,2,4,B|384:96,1,140
448,224,51924,5,2
384,224,52093,2,0,B|0:224,1,350
64,320,53273,1,0
128,320,53441,2,4,B|352:320,1,210
448,288,54284,6,2,B|448:128,2,140
352,288,55295,2,4,B|192:288,1,140
64,192,57654,2,6,B|96:96|192:128,1,140
160,192,58160,2,4,B|224:256|288:192,1,140
320,96,58834,1,4
448,128,59676,5,2
384,192,60013,1,0
448,256,60351,1,2
352,256,60688,2,6,B|192:256,1,140
64,256,61699,1,0
64,128,62373,1,0
128,96,62541,5,2
160,160,62710,1,0
192,96,62878,1,2
224,160,63047,2,2,B|288:256|448:320|480:96,1,350
416,96,64058,1,0
352,96,64226,2,6,B|288:96|256:160|320:224,2,140
416,128,65069,6,0,B|384:224|288:256,1,140
256,288,65743,1,2
64,288,66754,2,6,B|64:192,1,70
64,96,67428,1,2
160,96,67765,1,0
320,96,68439,2,2,B|320:384|128:384|64:256,1,420
64,224,69619,2,6,B|64:128|160:128,1,140
160,192,70125,1,4
416,160,92706,5,0
352,160,92875,1,0
288,160,93043,1,2
256,256,93381,1,2
192,256,93549,1,0
128,256,93718,1,0
64,176,94055,2,6,B|160:112,1,70
160,192,94392,1,0
224,208,94560,2,6,B|352:208|288:112,1,140
240,96,95066,1,0
304,64,95234,1,0
384,64,95403,6,2,B|384:160,1,70
384,200,95740,1,0
288,224,96077,2,4,B|288:320,1,70
288,360,96414,1,0
128,352,96751,5,6
128,192,97088,5,6
256,64,97425,5,6
256,224,97762,1,0
352,320,98099,6,4,B|416:320|416:288,1,70
448,240,98436,1,0
448,176,98605,1,0
400,128,98773,2,4,B|288:128|288:256,1,140
320,256,99279,1,0
320,192,99447,2,4,B|256:128|160:224,1,140
192,128,99953,2,4,B|192:256|96:256,1,140
96,288,100458,1,2
160,288,100627,1,0
224,320,100795,5,6
288,320,100964,1,0
352,320,101132,2,4,B|448:320,3,70
448,256,101807,2,4,B|352:256,2,70
448,160,102481,1,2
384,160,102649,2,6,B|224:160,1,140
192,192,103155,1,2
128,192,103323,1,0
64,192,103492,6,0,B|64:96,1,70
64,122,103829,1,2
128,48,104166,2,0,B|224:48,1,70
198,48,104503,1,0
288,64,104840,2,6,B|384:64,1,70
424,64,105177,1,0
448,128,105345,2,6,B|448:288,1,140
408,320,105851,5,2
384,256,106020,1,0
320,288,106188,2,2,B|256:256,1,70
256,192,106525,1,0
320,160,106694,1,2
288,96,106862,2,2,B|192:96,1,70
160,128,107199,1,2
128,192,107368,1,0
192,192,107536,6,6,B|192:288,1,70
192,160,108042,2,6,B|352:160,1,140
400,160,108547,1,0
464,160,108716,1,0
464,96,108884,6,0,B|464:0,1,70
400,48,109221,1,2
336,16,109390,1,0
272,48,109558,2,2,L|208:16|144:48,1,140
176,112,110064,1,0
112,144,110233,2,6,B|112:240|176:272,1,140
166,266,110738,2,4,B|208:176|304:240,1,140
320,288,111244,1,0
448,224,111581,6,6,B|448:128,1,70
448,88,111918,1,6
288,64,112255,2,4,B|288:224,1,140
224,224,112760,1,0
256,288,112929,2,0,B|96:288,1,140
64,248,113434,1,2
64,128,113771,1,2
128,128,113940,1,0
256,128,114277,6,4,B|352:128,1,70
392,128,114614,1,0
448,224,114951,2,4,B|288:224,1,140
245,242,115457,1,0
288,288,115625,2,2,B|256:384|160:320,1,140
120,352,116131,2,2,B|24:352|56:256,1,140
120,224,116636,1,0
184,224,116805,1,4
224,160,116973,5,4
336,160,117310,2,2,B|416:160,1,70
432,224,117647,2,2,B|272:224,1,140
224,232,118153,1,0
192,288,118322,2,4,B|96:256|160:160,1,140
192,128,118827,1,4
320,128,119164,5,0
384,96,119333,1,0
400,168,119501,1,2
360,224,119670,2,0,B|392:288,1,70
448,256,120007,1,2
432,192,120175,2,0,B|272:192,1,140
224,192,120681,1,2
112,224,121018,2,6,B|112:272|160:272,3,70
224,192,122029,6,0,B|224:96,1,70
224,56,122366,1,2
320,16,122703,2,0,B|416:16,1,70
456,16,123040,1,2
480,120,123377,1,6
480,184,123546,1,0
480,248,123714,2,6,B|480:344,3,70
352,320,124725,5,0
288,320,124894,1,0
224,320,125062,2,0,B|128:320,3,70
128,256,125736,2,4,B|224:256,2,70
64,256,126242,1,0
64,192,126411,2,4,B|160:160|224:224,1,140
192,256,126916,2,4,B|224:160|320:192,1,140
352,224,127422,1,0
448,112,127759,5,0
384,112,127927,1,0
320,112,128096,1,2
256,112,128264,1,0
192,112,128433,1,2
96,208,128770,1,2
160,208,128938,1,0
224,208,129107,2,6,B|384:208,1,140
432,208,129612,2,6,B|432:336|336:304,1,140
304,288,130118,6,0,B|208:288,1,70
176,288,130455,1,0
112,320,130624,1,0
80,256,130792,1,2
64,152,131129,2,6,B|224:152,1,140
272,160,131635,1,0
224,224,131803,2,6,B|384:224,1,140
432,232,132309,1,6
416,64,133151,5,0
256,64,133488,1,4
96,64,133825,1,0
96,192,134162,1,4
256,192,134499,1,0
416,192,134837,1,4
416,320,135174,1,0
256,320,135511,1,4
96,320,135848,5,4
96,64,136522,1,4
416,64,137196,1,4
256,192,137701,1,4
96,160,139218,6,2,B|192:96|256:128,2,140
160,224,140229,2,4,B|224:320|192:384,1,140
384,312,142251,1,2
416,224,142588,2,2,B|448:64|288:32|224:128,1,280
336,160,143600,1,0
272,192,143768,2,4,B|112:192|176:32,1,210
288,32,144611,6,2,B|448:32|448:96,1,140
384,144,145285,1,2
480,128,145622,2,4,B|480:288|416:288,1,140
256,160,147981,2,2,B|128:128|96:224,1,140
96,128,148487,2,4,B|96:256|192:256,1,140
256,224,149161,1,2
448,320,150003,6,2,B|448:160,1,140
448,64,150677,1,2
352,64,151014,2,4,B|192:64,1,140
152,40,152868,1,0
96,96,153037,1,2
160,128,153205,1,0
128,192,153374,2,4,B|32:352|256:384|448:288,1,420
344,296,154553,2,0,B|280:232|184:296,2,140
416,320,155396,5,2
416,224,155733,1,2
416,128,156070,1,2
256,96,157081,1,0
256,160,157250,2,4,B|256:256|160:288|96:192,1,210
48,288,158092,1,4
192,352,158766,2,4,B|480:352,1,280
480,256,159778,1,0
416,256,159946,2,6,B|256:256,1,140
208,256,160452,1,6
96,160,161126,5,0
192,160,161463,2,4,B|352:160,3,140
416,160,162811,1,0
416,256,163148,1,0
320,256,163485,1,0
224,256,163822,1,2
128,256,164159,2,0,B|32:192|64:96|160:64|224:128,1,280
256,208,165170,1,0
320,200,165339,2,4,B|448:136|352:40|288:104,1,210
192,96,166181,6,2,B|128:192|192:256,1,140
240,176,166855,2,6,B|272:272|240:336,1,140
320,256,167529,2,0,B|416:224|384:128,1,140
320,64,168204,1,0
128,80,168878,1,0
128,256,169552,1,2
192,224,169720,2,4,B|288:224|288:320,3,140
416,320,171574,6,2,B|416:160,1,140
416,96,172248,1,2
320,96,172585,2,4,B|160:96,1,140
64,96,173596,2,4,B|64:192,6,70
128,96,174776,1,2
128,160,174944,2,2,B|128:320|320:320,1,280
400,256,175956,1,0
400,192,176124,2,4,B|400:96|304:96,2,140
336,192,176967,5,0
240,192,177304,1,2
224,288,177641,2,2,B|32:288|96:96,1,280
192,64,178652,1,0
192,128,178820,2,6,B|256:128|288:128|288:96|288:32|400:64,1,210
384,160,179663,1,6
384,288,180337,2,4,B|96:288,1,280
64,192,181348,1,0
128,192,181517,2,6,B|288:192,1,140
336,192,182022,1,6
256,192,182106,12,4,183033
