osu file format v9

[General]
AudioFilename: aaa.mp3
AudioLeadIn: 2007
PreviewTime: 52944
Countdown: 0
SampleSet: Normal
StackLeniency: 0.7
Mode: 0
LetterboxInBreaks: 1

[Editor]
DistanceSpacing: 1
BeatDivisor: 4
GridSize: 8

[Metadata]
Title:LOVE HEART (Short Ver.)
Artist:hiromi
Creator:Hinacle
Version:Normal
Source:relations sister sister
Tags:Aenna Cyborg

[Difficulty]
HPDrainRate:3
CircleSize:4
OverallDifficulty:3
ApproachRate:4
SliderMultiplier:1.2
SliderTickRate:0.5

[Events]
//Background and Video events
Video,0,"op.flv"
0,0,"BG.jpg"
//Break Periods
//Storyboard Layer 0 (Background)
//Storyboard Layer 1 (Fail)
//Storyboard Layer 2 (Pass)
//Storyboard Layer 3 (Foreground)
//Storyboard Sound Samples
//Background Colour Transformations
3,100,163,162,255

[TimingPoints]
793,348.837209302326,4,1,1,71,1,0
14659,-100,4,1,2,66,0,0
14833,-100,4,1,1,65,0,0
36984,-100,4,1,2,59,0,0
37159,-100,4,1,1,59,0,0
38395,-100,4,1,2,61,0,0
38554,-100,4,1,1,61,0,0
39775,-100,4,1,2,61,0,0
39949,-100,4,1,1,61,0,0
41170,-100,4,1,2,61,0,0
41345,-100,4,1,1,61,0,0
42653,-100,4,1,1,71,0,0
50938,-100,4,1,1,50,0,0
51897,-100,4,1,1,61,0,0
52246,-100,4,1,1,69,0,0
53729,-100,4,1,1,79,0,0
53816,-100,4,1,1,79,0,1
76141,-100,4,1,1,69,0,0
79543,-100,4,1,1,60,0,0
84426,-100,4,1,1,73,0,0

[Colours]
Combo1 : 233,179,253
Combo2 : 128,255,255
Combo3 : 255,255,255

[HitObjects]
256,288,793,2,0,B|136:288,1,120,0|8
64,192,1490,2,0,B|184:192,1,120,0|8
288,136,2188,2,0,B|328:192|288:256,3,120,0|8|0|8
176,256,3583,6,0,B|120:296|56:256,1,120,0|8
64,136,4281,1,0
176,96,4630,1,8
288,136,4979,5,0
328,248,5327,1,8
248,336,5676,2,0,B|192:352|128:336,1,120,0|8
128,216,6374,6,0,B|184:200|248:216,1,120,0|8
368,216,7072,2,0,B|448:216,2,60,0|0|8
368,96,7769,2,0,B|328:72|264:72,2,90,2|2|2
432,96,8467,2,0,B|504:96,2,60,0|0|8
432,216,9165,6,0,B|432:336,1,120,0|8
312,336,9862,1,0
312,216,10211,2,0,B|248:200|184:216,1,120,8|0
192,336,10909,1,8
72,336,11258,2,0,B|72:208,1,120,0|8
128,104,11955,5,0
248,104,12304,1,8
320,200,12653,1,0
200,200,13002,1,8
128,296,13351,5,4
248,296,13699,2,4,B|320:296,1,60,4|4
400,80,14746,5,4
280,80,15095,2,0,B|216:64|152:80,2,120,8|0|8
280,200,16141,5,0
336,304,16490,2,0,B|280:336|216:304,2,120,8|0|8
400,200,17537,5,0
280,200,17886,1,8
160,200,18234,1,0
40,200,18583,1,8
104,96,18932,5,0
224,96,19281,1,8
224,216,19630,1,0
104,216,19979,1,8
168,320,20327,6,0,B|288:360|416:320,1,240
408,200,21374,1,8
408,80,21723,6,0,B|288:40|160:80,1,240
168,200,22769,1,8
256,280,23118,6,0,B|328:280|344:344,2,120,0|8|0
136,280,24165,1,8
72,176,24513,6,0,B|8:176,2,60,0|0|8
192,176,25211,2,0,B|272:176,2,60,0|0|8
136,72,25909,1,4
352,72,26606,5,0
352,184,26955,1,8
256,256,27304,6,0,B|136:256,1,120,0|8
136,136,28002,1,0
256,136,28351,1,8
256,256,28699,6,0,B|376:256,1,120,0|8
376,136,29397,1,0
256,136,29746,1,8
256,256,30095,6,0,B|256:320,2,60,0|0|8
256,136,30793,1,0
256,136,31141,1,8
136,136,31490,6,0,B|72:136|24:216|72:296|136:296,1,240
240,240,32537,1,8
344,296,32886,6,0,B|408:296|456:216|408:136|344:136,1,240
240,192,33932,1,8
240,312,34281,6,0,B|176:336|112:312,1,120,0|8
40,224,34979,2,0,B|104:200|168:224,1,120,0|8
256,192,35676,12,4,37072
56,216,37769,1,0
56,216,38118,1,8
56,96,38467,5,4
296,96,39165,1,0
296,96,39513,1,8
416,96,39862,5,4
416,336,40560,2,0,B|296:336,1,120,0|8
176,336,41258,5,4
176,96,41955,2,0,B|296:96,1,120,0|8
296,216,42653,5,4
208,304,43002,1,8
120,216,43351,1,0
208,128,43699,1,8
296,216,44048,6,0,B|360:232|432:216,2,120,4|8|0
176,216,45095,1,8
104,120,45444,6,0,B|216:72,1,120,4|8
328,112,46141,2,0,B|216:160,1,120,0|8
176,272,46839,6,0,B|288:224,1,120,4|8
400,264,47537,2,0,B|288:312,1,120,0|8
176,344,48234,5,4
56,344,48583,1,8
56,224,48932,1,0
176,224,49281,1,8
296,224,49630,5,4
296,104,49979,1,8
176,104,50327,1,0
176,224,50676,1,8
240,328,51025,6,0,B|344:368|400:344|432:248,1,240
432,128,52072,1,0
328,192,52420,6,0,B|264:192,1,60,4|4
208,88,52944,2,0,B|272:88,1,60
384,88,53467,1,8
384,208,53816,6,0,B|400:272|384:328,2,120,4|8|0
264,208,54862,2,0,B|128:208,2,120,8|0|8
264,328,55909,2,0,B|144:328,1,120,0|8
144,208,56606,6,0,B|128:152|144:88,2,120,0|8|0
256,160,57653,2,0,B|376:160,2,120,8|0|8
192,56,58699,2,0,B|72:56,1,120,0|8
72,176,59397,6,0,B|72:296|72:296|192:296,1,240,4|0
312,296,60444,1,8
312,176,60793,6,0,B|288:120|304:56,1,120,0|8
408,120,61490,2,0,B|432:176|416:240,1,120,0|8
312,296,62188,5,0
192,296,62537,1,8
192,176,62886,2,0,B|192:48,1,120,0|8
312,56,63583,5,0
432,56,63932,1,8
432,176,64281,2,0,B|312:176,1,120,0|8
192,176,64979,6,0,B|192:112,2,60,8|0|8
88,240,65676,1,0
192,296,66025,1,8
248,296,66199,2,0,B|336:336|432:296,1,180,0|8
424,176,67072,2,0,B|304:176,1,120,0|8
184,176,67769,6,0,B|184:248,2,60,8|0|8
80,112,68467,1,0
184,56,68816,1,8
240,56,68990,2,0,B|328:32|432:56,1,180,0|8
416,176,69862,1,0
416,296,70211,1,8
312,240,70560,6,0,B|192:280|64:232,1,240,4|0
80,120,71606,1,8
184,56,71955,1,0
256,152,72304,1,8
328,56,72653,1,0
432,120,73002,1,8
432,240,73351,6,0,B|336:240|288:296|192:296,1,240,4|0
80,296,74397,1,8
80,176,74746,1,0
184,112,75095,1,8
288,176,75444,1,0
392,112,75793,1,8
256,192,76141,12,0,78932
200,192,79630,6,0,B|80:192,1,120,0|8
80,72,80327,6,0,B|160:48|232:48|320:72,1,240
440,72,81374,1,8
440,192,81723,6,0,B|360:216|288:216|200:192,1,240
80,192,82769,1,8
80,312,83118,6,0,B|160:336|232:336|320:312,1,240
440,312,84165,1,8
440,192,84513,5,4
256,192,85037,1,4
80,192,85560,2,0,B|8:192,1,60,4|4
