osu file format v9

[General]
AudioFilename: aaa.mp3
AudioLeadIn: 1996
PreviewTime: 52944
Countdown: 0
SampleSet: Normal
StackLeniency: 0.7
Mode: 0
LetterboxInBreaks: 1

[Editor]
DistanceSpacing: 1.6
BeatDivisor: 4
GridSize: 8

[Metadata]
Title:LOVE HEART (Short Ver.)
Artist:hiromi
Creator:Hinacle
Version:Aenna
Source:relations sister sister
Tags:Aenna Cyborg

[Difficulty]
HPDrainRate:5
CircleSize:4
OverallDifficulty:6
ApproachRate:7
SliderMultiplier:1.5
SliderTickRate:0.5

[Events]
//Background and Video events
Video,0,"op.flv"
0,0,"BG.jpg"
//Break Periods
//Storyboard Layer 0 (Background)
//Storyboard Layer 1 (Fail)
//Storyboard Layer 2 (Pass)
//Storyboard Layer 3 (Foreground)
//Storyboard Sound Samples
//Background Colour Transformations
3,100,163,162,255

[TimingPoints]
793,348.837209302326,4,1,1,40,1,0
880,-100,4,1,1,70,0,0
6287,-100,4,1,1,40,0,0
6461,-100,4,1,1,70,0,0
11868,-100,4,1,1,50,0,0
12566,-100,4,1,1,60,0,0
13263,-100,4,1,1,70,0,0
14484,-100,4,1,1,60,0,0
20240,-100,4,1,1,50,0,0
20415,-100,4,1,1,60,0,0
21636,-100,4,1,1,50,0,0
21810,-100,4,1,1,60,0,0
25822,-100,4,1,1,40,0,0
25996,-100,4,1,1,70,0,0
31403,-100,4,1,1,50,0,0
31577,-100,4,1,1,70,0,0
32798,-100,4,1,1,50,0,0
32973,-100,4,1,1,70,0,0
35415,-100,4,2,0,0,0,0
36548,-100,4,1,1,60,0,0
36984,-100,4,1,1,50,0,0
37159,-100,4,1,1,70,0,0
42653,-100,4,1,1,50,0,0
42740,-100,4,1,1,70,0,0
45356,-100,4,1,1,50,0,0
45531,-100,4,1,1,70,0,0
48147,-100,4,1,1,50,0,0
48322,-100,4,1,1,70,0,0
50938,-100,4,1,1,50,0,0
52333,-100,4,1,1,60,0,0
52769,-100,4,1,1,50,0,0
53729,-100,4,1,1,80,0,0
53816,-100,4,1,1,80,0,1
76054,-100,4,1,1,70,0,1
76141,-100,4,1,1,70,0,0
85647,-100,4,1,1,60,0,0

[Colours]
Combo1 : 233,179,253
Combo2 : 128,255,255
Combo3 : 255,255,255

[HitObjects]
416,168,793,2,0,B|440:208|432:256,1,75,4|0
376,304,1141,2,0,B|216:304,1,150,8|0
145,272,1665,1,0
177,192,1839,1,8
257,224,2013,1,0
225,304,2188,5,0
48,216,2537,1,8
152,48,2886,1,0
329,136,3235,1,8
225,304,3583,6,0,B|376:304,1,150,0|8
448,264,4106,2,0,B|464:224|464:184,1,75
440,112,4455,2,0,B|408:96|368:96,1,75,0|8
288,120,4804,6,0,B|224:168|136:144,1,150
72,104,5327,1,8
72,104,5502,2,0,B|56:136|56:176,1,75
24,256,5851,2,0,B|56:280|104:280,1,75,0|8
176,264,6199,1,0
248,224,6374,5,4
296,152,6548,2,0,B|328:128|376:128,1,75,0|8
440,88,6897,2,0,B|456:120|456:160,1,75
432,240,7246,1,0
440,320,7420,2,0,B|408:336|368:336,1,75,8|0
288,304,7769,6,0,B|240:272|176:280,2,112.5,2|2|2
336,240,8467,1,0
280,176,8641,1,0
320,104,8816,2,0,B|360:104,2,37.5,8|0|0
264,40,9165,5,2
240,48,9252,1,0
216,56,9339,1,0
136,40,9513,2,0,B|120:72,1,37.5,10|0
48,112,9775,2,0,B|56:160,1,37.5,2|0
80,232,10037,1,0
144,288,10211,2,0,B|232:288,1,75,8|0
296,256,10560,2,0,B|312:288|312:328,2,75,0|0|8
224,208,11083,6,0,B|208:176|208:136,2,75
296,256,11606,1,8
352,192,11781,1,0
424,240,11955,6,0,B|456:312,1,75,4|0
504,216,12304,2,0,B|473:147,1,75,10|0
400,104,12653,6,0,B|320:120,1,75,4|0
224,56,13002,2,0,B|297:41,1,75,10|0
224,136,13351,5,2
344,200,13525,1,2
288,320,13699,1,2
168,256,13873,1,2
224,136,14746,6,0,B|144:136,1,75,4|0
64,152,15095,1,8
32,232,15269,2,0,B|24:272|32:312,1,75
104,352,15618,2,0,B|184:352,1,75,0|8
264,352,15967,1,0
336,312,16141,6,0,B|352:272|344:232,1,75
264,256,16490,2,0,B|257:222|273:182,1,75,8|0
328,120,16839,1,0
280,48,17013,2,0,B|248:32|208:32,1,75,0|8
128,32,17362,1,0
64,88,17537,6,0,B|16:152|40:240,1,150,0|8
88,296,18060,1,0
168,328,18234,2,0,B|256:328,1,75
320,360,18583,2,0,B|336:328|336:288,1,75,8|0
288,216,18932,5,2
376,152,19106,1,2
312,64,19281,1,10
224,128,19455,1,2
224,128,19804,5,0
160,72,19979,1,8
144,152,20153,1,0
224,128,20327,6,0,B|264:192|240:280,1,150,0|8
160,296,20851,2,0,B|240:272|312:320,1,150
384,344,21374,1,8
384,344,21548,1,0
448,288,21723,6,0,B|496:224|472:128,1,150,0|8
408,96,22246,2,0,B|352:152|256:128,1,150
200,80,22769,1,8
120,112,22944,1,0
48,64,23118,6,0,B|8:136|48:224,1,150,0|8
16,288,23641,2,0,B|80:336|168:312,1,150
224,264,24165,2,0,B|264:272|288:304,2,75,8|0|0
160,208,24688,5,0
128,112,24862,1,8
232,80,25037,1,0
232,80,25124,1,0
232,80,25211,1,0
264,184,25386,1,0
264,184,25473,1,0
264,184,25560,1,8
264,184,25647,1,0
264,184,25734,1,0
160,208,25909,6,0,B|80:208,1,75,4|0
24,152,26258,1,8
72,80,26432,1,0
152,112,26606,1,0
200,40,26781,2,0,B|280:40,1,75,0|8
352,80,27130,1,0
432,48,27304,6,0,B|480:112|456:200,1,150,0|8
392,240,27827,2,0,B|304:240,1,75
256,152,28176,2,0,B|336:152,1,75,0|8
392,240,28525,1,0
456,328,28699,6,0,B|296:328,1,150,0|8
224,352,29223,2,0,B|192:280,1,75
112,296,29572,2,0,B|120:216,1,75,0|8
40,200,29920,2,0,B|72:128,1,75
136,80,30269,5,0
136,80,30444,1,8
256,104,30618,1,0
256,104,30793,1,0
176,192,30967,5,0
136,80,31141,1,8
256,104,31316,1,0
176,192,31490,6,0,B|328:192,1,150,4|8
400,288,32013,2,0,B|232:288,1,150
168,288,32537,1,8
88,288,32711,1,0
40,224,32886,6,0,B|8:152|32:72,1,150,4|8
136,136,33409,2,0,B|168:208|144:288,1,150
200,344,33932,1,8
280,344,34106,1,0
360,344,34281,6,0,B|408:280|392:192,1,150,0|8
344,136,34804,1,0
344,136,34891,1,0
344,136,34979,2,0,B|256:136,1,75
184,136,35327,1,8
256,192,35502,12,0,36374
304,96,36723,5,8
376,136,36897,1,0
344,216,37072,2,0,B|352:256|344:296,1,75,4|0
288,352,37420,1,8
208,344,37595,2,0,B|120:344,1,75
64,296,37944,1,0
32,224,38118,2,0,B|16:184|24:144,1,75,8|0
56,72,38467,6,0,B|208:72,1,150,0|8
288,48,38990,2,0,B|304:88|296:128,1,75
240,184,39339,1,0
280,256,39513,2,0,B|320:272|360:272,1,75,8|0
432,248,39862,6,0,B|472:176|440:96,1,150,0|8
376,48,40386,1,0
296,64,40560,2,0,B|208:64,1,75
144,32,40909,2,0,B|128:72|136:112,1,75,8|0
184,176,41258,5,0
184,176,41345,1,0
184,176,41432,1,0
264,144,41606,1,8
304,216,41781,2,0,B|392:216,1,75
448,264,42130,1,0
408,336,42304,1,8
384,336,42391,1,0
360,336,42479,1,0
336,336,42566,1,0
312,336,42653,6,0,B|240:320,1,75,4|0
160,352,43002,2,0,B|112:288,1,75,8|0
56,232,43351,1,0
96,160,43525,1,0
176,136,43699,1,8
256,168,43874,6,0,B|336:168,1,75
384,80,44223,2,0,B|288:80,1,75,0|8
200,80,44572,2,0,B|144:136|160:224,1,150
192,296,45095,1,8
112,320,45269,1,0
80,240,45444,6,0,B|152:192|248:216,1,150,4|8
288,264,45967,1,0
360,312,46141,2,0,B|400:320|440:312,1,75
480,240,46490,2,0,B|496:200|496:160,1,75,8|0
472,88,46839,6,0,B|416:32|320:40,1,150,0|8
256,72,47362,1,0
177,39,47537,2,0,B|96:32|40:88,1,150,0|8
72,168,48060,1,0
40,248,48234,6,0,B|95:303|176:296,1,150,4|8
256,264,48758,2,0,B|280:232|288:192,1,75
208,128,49106,2,0,B|184:160|176:200,1,75,0|8
256,192,49455,12,8,50676
120,88,51025,6,0,B|96:120|96:160,1,75,8|0
112,248,51374,2,0,B|88:288,2,37.5,8|0|0
200,240,51723,1,8
216,232,51810,1,0
232,224,51897,1,0
272,144,52072,1,8
360,168,52246,1,0
344,64,52420,5,4
288,248,52595,1,4
128,112,52944,5,0
56,160,53118,2,0,B|8:224|40:312,1,150,0|0
240,344,53816,5,4
312,304,53990,1,0
392,320,54165,2,0,B|408:288|408:248,1,75,8|0
448,176,54513,2,0,B|440:136|416:104,1,75
344,64,54862,1,8
264,88,55037,1,0
184,72,55211,6,0,B|128:136|152:224,2,150,0|8|0
360,192,56258,1,8
200,328,56606,5,4
120,352,56781,1,0
56,296,56955,2,0,B|40:256|48:216,1,75,8|0
24,144,57304,2,0,B|32:104|64:80,1,75
144,56,57653,1,8
208,112,57827,1,0
288,80,58002,6,0,B|336:136|320:224,2,150,0|8|0
112,192,59048,1,8
256,344,59397,1,4
336,328,59572,1,0
416,312,59746,1,8
424,104,60095,6,0,B|448:136|448:176,2,75,0|0|8
360,48,60618,1,0
280,48,60793,2,0,B|208:16|120:40,1,150,0|8
64,88,61316,1,0
32,168,61490,2,0,B|16:208|24:248,1,75
120,288,61839,2,0,B|136:248|128:208,1,75,8|0
176,144,62188,6,0,B|160:112,2,37.5,4|0|0
256,176,62537,2,0,B|344:176,1,75,8|0
416,184,62886,1,0
472,248,63060,2,0,B|488:288|480:328,1,75,0|8
408,360,63409,1,0
328,352,63583,6,0,B|168:352,1,150,0|8
112,296,64106,2,0,B|64:360,1,75
32,256,64455,2,0,B|77:196,1,75,0|8
256,80,64979,5,4
304,152,65153,1,0
224,176,65327,2,0,B|136:176,1,75,8|0
80,136,65676,2,0,B|24:192|48:288,1,150,0|8
112,328,66199,6,0,B|184:288|264:312,1,150
336,344,66723,2,0,B|376:360|416:360,1,75,8|0
472,304,67072,2,0,B|488:232,1,75
408,200,67420,2,0,B|448:128,1,75,8|0
488,64,67769,5,4
408,48,67944,1,0
328,32,68118,2,0,B|240:32,1,75,8|0
280,112,68467,2,0,B|128:112,1,150,0|8
64,192,68990,2,0,B|224:192,1,150
296,192,69513,6,0,B|344:192,2,37.5,8|0|0
296,192,69862,1,0
112,88,70211,1,8
112,296,70560,6,0,B|168:344|256:328,1,150,4|8
328,288,71083,2,0,B|360:272|400:272,1,75
464,72,71606,1,8
384,104,71781,1,0
304,136,71955,6,0,B|216:136,1,75
152,176,72304,1,8
72,144,72479,2,0,B|56:112|64:64,1,75
128,16,72827,1,0
208,40,73002,2,0,B|288:40,1,75,8|0
360,72,73351,5,4
392,152,73525,1,0
368,232,73699,1,8
400,312,73874,1,0
400,312,73961,1,0
400,312,74048,2,0,B|368:328|328:328,1,75
248,304,74397,2,0,B|216:288|176:288,1,75,8|0
96,312,74746,6,0,B|48:248|80:152,1,150,0|8
256,56,75444,2,0,B|336:56,2,75,0|0|8
176,56,75967,1,0
96,56,76141,6,0,B|112:136,1,75,4|0
32,160,76490,2,0,B|72:240,1,75,8|0
24,296,76839,2,0,B|80:352,1,75
160,352,77188,1,8
240,352,77362,1,0
320,352,77537,5,0
416,168,77886,1,8
224,80,78234,1,0
128,264,78583,1,8
320,352,78932,6,0,B|400:352,1,75
472,312,79281,2,0,B|488:280|488:240,1,75,8|0
416,200,79630,2,0,B|416:159|432:127,1,75
480,56,79979,1,8
480,56,80153,1,0
400,24,80327,5,0
256,176,80676,1,8
256,256,80851,1,0
64,336,81199,2,0,B|64:248,1,75,0|8
64,176,81548,1,0
64,96,81723,6,0,B|96:80|136:80,1,75,0|0
216,104,82072,1,8
216,104,82246,1,0
272,168,82420,2,0,B|312:167|344:151,1,75
400,88,82769,1,8
400,88,82944,1,0
472,136,83118,6,0,B|512:200|480:288,1,150,0|8
408,320,83641,2,0,B|248:320,1,150
176,320,84165,1,8
96,320,84339,1,0
48,248,84513,5,4
144,64,84862,1,8
224,64,85037,2,0,B|280:72|328:56|384:64,1,150,4|0
376,184,85560,5,4
256,192,85734,1,4
