osu file format v13

[General]
AudioFilename: AUDIO.mp3
AudioLeadIn: 0
PreviewTime: 89173
Countdown: 0
SampleSet: Soft
StackLeniency: 0.7
Mode: 0
LetterboxInBreaks: 0
WidescreenStoryboard: 0

[Editor]
DistanceSpacing: 0.6
BeatDivisor: 8
GridSize: 4
TimelineZoom: 1

[Metadata]
Title:Whisper of Rose
TitleUnicode:花语-玫瑰
Artist:himmeltengoku
ArtistUnicode:himmeltengoku
Creator:Tsukuyomi
Version:Insane
Source:
Tags:baldrace Minakami Yuki Sharlo
BeatmapID:563475
BeatmapSetID:173614

[Difficulty]
HPDrainRate:5
CircleSize:4
OverallDifficulty:7
ApproachRate:8
SliderMultiplier:1.5
SliderTickRate:1

[Events]
//Background and Video events
0,0,"BG.jpg",0,0
//Break Periods
//Storyboard Layer 0 (Background)
//Storyboard Layer 1 (Fail)
//Storyboard Layer 2 (Pass)
//Storyboard Layer 3 (Foreground)
//Storyboard Sound Samples

[TimingPoints]
6888,342.857142857143,4,2,1,50,1,0
11688,-100,4,2,2,50,0,0
12373,-100,4,2,1,50,0,0
23345,-100,4,3,1,60,0,1
34488,-100,4,3,1,60,0,1
40488,-100,4,3,2,60,0,1
40573,-100,4,3,1,60,0,1
41859,-100,4,3,2,60,0,1
41945,-100,4,3,1,60,0,1
45288,-200,4,2,2,40,0,0
64488,-200,4,2,2,50,0,0
67230,-100,4,2,1,50,0,0
77516,-100,4,2,2,50,0,0
78202,-100,4,2,1,50,0,0
89173,-100,4,3,1,60,0,1
95345,-100,4,3,2,60,0,1
95430,-100,4,3,1,60,0,1
96716,-100,4,3,2,60,0,1
96802,-100,4,3,1,60,0,1
98088,-100,4,3,2,60,0,1
98173,-100,4,3,1,60,0,1
111116,-100,4,2,1,60,0,0

[Colours]
Combo1 : 0,255,128
Combo2 : 255,128,255
Combo3 : 255,128,128
Combo4 : 128,255,255

[HitObjects]
130,239,6887,6,0,P|126:292|151:333,1,75,4|0,1:2|1:2,0:0:0:0:
215,272,7230,1,0,1:0:0:0:
215,272,7402,1,0,3:0:0:0:
298,304,7573,2,0,L|401:282,1,75,0|0,1:0|3:0,0:0:0:0:
459,270,7916,1,0,1:0:0:0:
404,198,8087,1,8,3:2:0:0:
400,191,8173,1,8,0:0:0:0:
396,184,8259,6,0,P|381:129|385:98,1,75,0|8,1:2|3:2,0:0:0:0:
309,58,8602,1,0,1:2:0:0:
237,111,8773,2,0,L|211:73,2,37.5,8|8|0,3:2|3:2|1:2,0:0:0:0:
188,187,9116,2,0,L|142:155,2,37.5,8|8|0,3:2|0:0|1:2,0:0:0:0:
278,191,9459,1,10,0:0:0:0:
281,197,9545,1,8,0:0:0:0:
282,204,9630,6,0,P|284:270|265:302,1,75,0|8,1:0|3:2,0:0:0:0:
194,301,9973,2,0,P|137:296|101:315,1,75,0|8,1:0|3:2,0:0:0:0:
77,310,10230,1,8,0:0:0:0:
77,310,10316,2,0,L|63:225,1,75,0|0,1:0|3:2,0:0:0:0:
111,94,10659,2,0,L|125:179,1,75,0|2,1:0|0:0,0:0:0:0:
173,242,11002,5,8,1:2:0:0:
254,280,11173,1,2,0:2:0:0:
308,352,11345,1,8,1:2:0:0:
393,325,11516,1,2,0:2:0:0:
452,257,11688,1,10,1:0:0:0:
481,172,11859,1,2,0:0:0:0:
485,82,12030,2,0,L|438:84,1,37.5,10|8,1:0|0:0,0:0:0:0:
409,58,12202,2,0,L|361:57,1,37.5,10|8,3:2|0:0,0:0:0:0:
332,34,12373,6,0,L|223:35,1,75,4|2,1:2|0:0,0:0:0:0:
216,115,12716,1,8,1:0:0:0:
177,196,12888,1,2,0:0:0:0:
266,191,13059,2,0,L|357:188,1,75,0|2,1:0|0:0,0:0:0:0:
431,185,13402,1,8,1:0:0:0:
398,268,13573,1,2,0:0:0:0:
362,351,13745,6,0,L|270:358,1,75,0|2,1:0|0:0,0:0:0:0:
197,362,14088,1,8,1:0:0:0:
121,312,14259,1,2,0:0:0:0:
48,259,14430,2,0,L|44:155,1,75,0|2,1:0|0:0,0:0:0:0:
39,93,14773,1,8,1:0:0:0:
39,93,14945,1,8,0:1:0:0:
127,76,15116,6,0,P|178:65|206:33,1,75,0|10,1:0|0:0,0:0:0:0:
234,29,15373,1,8,0:0:0:0:
234,29,15459,2,0,L|260:121,1,75,8|2,1:0|0:0,0:0:0:0:
294,181,15802,2,0,P|252:202|239:228,1,75,0|10,1:0|0:0,0:0:0:0:
219,265,16059,1,8,0:0:0:0:
219,265,16145,2,0,L|259:352,1,75,8|2,1:0|0:0,0:0:0:0:
340,345,16488,6,0,P|396:331|410:306,1,75,0|10,1:0|0:0,0:0:0:0:
433,285,16745,1,8,0:0:0:0:
433,285,16830,1,8,1:0:0:0:
466,201,17002,1,0,0:0:0:0:
395,144,17173,2,0,P|358:109|352:77,1,75,0|10,1:0|0:0,0:0:0:0:
339,43,17430,1,8,0:0:0:0:
339,43,17516,1,8,1:0:0:0:
249,30,17688,1,8,1:0:0:0:
179,86,17859,6,0,P|129:128|128:157,1,75,4|0,1:0|3:0,0:0:0:0:
212,166,18202,1,8,1:0:0:0:
212,166,18373,1,0,3:2:0:0:
296,198,18545,2,0,L|296:285,1,75,0|0,1:0|3:0,0:0:0:0:
239,343,18888,1,8,1:0:0:0:
151,324,19059,1,8,3:2:0:0:
144,320,19145,1,8,0:0:0:0:
137,316,19230,6,0,P|96:282|88:244,1,75,0|0,1:0|3:2,0:0:0:0:
191,133,19573,2,0,P|157:174|119:182,1,75,8|0,1:0|3:0,0:0:0:0:
0,131,19916,2,0,P|41:165|49:203,1,75,0|2,1:0|0:0,0:0:0:0:
137,316,20259,2,0,P|96:282|88:244,1,75,8|0,1:0|0:0,0:0:0:0:
175,236,20602,5,4,1:2:0:0:
260,262,20773,1,4,0:0:0:0:
175,236,20945,2,0,L|201:141,1,75,8|0,1:0|3:2,0:0:0:0:
318,75,21288,5,4,1:2:0:0:
233,49,21459,1,4,0:0:0:0:
318,75,21631,2,0,L|292:170,1,75,8|2,1:0|0:0,0:0:0:0:
436,208,21973,5,12,1:2:0:0:
393,287,22145,1,8,0:0:0:0:
395,293,22230,1,8,0:0:0:0:
398,299,22316,1,12,1:2:0:0:
315,332,22488,1,0,0:0:0:0:
225,336,22659,2,0,P|158:322|138:298,1,75,12|0,1:2|0:0,0:0:0:0:
138,230,23002,2,0,P|205:244|225:268,1,75,12|0,1:2|0:0,0:0:0:0:
66,292,23345,5,4,0:2:0:0:
49,203,23516,1,2,0:0:0:0:
47,195,23602,1,0,0:0:0:0:
46,187,23688,1,0,0:0:0:0:
123,141,23859,1,2,0:0:0:0:
204,102,24030,2,0,P|228:55|223:19,1,75,2|0,0:0|0:0,0:0:0:0:
300,120,24373,2,0,P|276:167|281:203,1,75,2|0,0:0|0:0,0:0:0:0:
368,180,24716,5,0,0:0:0:0:
454,204,24888,1,2,0:0:0:0:
427,289,25059,1,0,0:0:0:0:
339,267,25230,2,0,P|281:267|246:291,1,75,2|0,0:0|0:0,0:0:0:0:
184,311,25573,2,0,L|145:225,1,75,0|2,0:0|0:0,0:0:0:0:
65,218,25916,1,0,0:0:0:0:
82,129,26088,6,0,P|98:77|129:59,1,75,2|2,0:0|0:0,0:0:0:0:
152,44,26345,1,0,0:0:0:0:
152,44,26430,1,0,0:0:0:0:
170,132,26602,1,2,0:0:0:0:
259,122,26773,2,0,P|314:118|352:144,2,75,2|0|2,0:0|0:0|0:0,0:0:0:0:
294,205,27288,1,0,0:0:0:0:
231,269,27459,6,0,P|193:309|190:346,1,75,0|2,0:0|0:0,0:0:0:0:
278,338,27802,2,0,L|377:318,1,75,0|2,0:0|0:0,0:0:0:0:
351,323,28145,1,0,0:0:0:0:
422,267,28316,1,2,0:0:0:0:
457,184,28487,1,2,0:0:0:0:
366,179,28659,2,0,L|352:128,1,37.5,0|0,0:0|0:0,0:0:0:0:
312,131,28830,6,0,L|285:31,2,75,4|4|0,0:0|0:0|0:0,0:0:0:0:
242,188,29345,2,0,P|190:184|149:148,1,75,2|0,0:0|0:0,0:0:0:0:
88,136,29688,1,0,0:0:0:0:
32,206,29859,2,0,P|7:258|17:293,1,75,2|0,0:0|0:0,0:0:0:0:
98,266,30202,5,2,0:0:0:0:
135,347,30373,1,2,0:0:0:0:
153,258,30545,1,0,0:0:0:0:
187,175,30716,1,2,0:0:0:0:
238,100,30888,2,0,P|272:60|320:43,2,75,0|0|2,0:0|0:0|0:0,0:0:0:0:
321,133,31402,2,0,L|336:187,1,37.5,0|0,0:0|0:0,0:0:0:0:
376,168,31573,6,0,L|410:271,1,75,4|2,0:2|0:0,0:0:0:0:
467,298,31916,2,0,P|489:242|482:200,1,75,0|2,0:0|0:0,0:0:0:0:
324,283,32259,2,0,P|348:311|384:322,1,75,4|0,0:2|0:0,0:0:0:0:
399,239,32602,2,0,L|376:168,1,75,2|0,0:0|0:0,0:0:0:0:
350,81,32945,5,4,0:2:0:0:
277,134,33116,1,4,0:2:0:0:
230,211,33288,1,0,0:0:0:0:
202,296,33459,1,4,0:2:0:0:
112,290,33630,1,0,0:0:0:0:
95,274,33716,1,0,0:2:0:0:
81,256,33802,1,4,0:2:0:0:
71,235,33888,1,0,0:0:0:0:
62,214,33973,2,0,L|28:209,7,18.75,0|0|0|0|4|0|0|0,0:0|0:0|0:0|0:0|0:2|0:0|0:0|0:0,0:0:0:0:
30,179,34316,6,0,L|42:80,1,75,4|0,0:2|0:0,0:0:0:0:
136,44,34659,1,10,0:0:0:0:
136,44,34830,2,0,L|136:127,1,75,0|0,0:0|0:0,0:0:0:0:
225,180,35173,1,0,0:0:0:0:
225,180,35345,2,0,L|236:87,1,75,10|0,0:0|0:0,0:0:0:0:
368,133,35688,6,0,L|455:116,1,75,2|0,0:0|0:0,0:0:0:0:
441,118,36030,1,8,0:0:0:0:
448,237,36202,2,0,L|363:229,1,75,2|0,0:0|0:0,0:0:0:0:
373,229,36545,1,0,0:0:0:0:
348,324,36716,2,0,L|257:314,1,75,10|8,0:0|0:0,0:0:0:0:
183,304,37059,5,2,0:0:0:0:
120,240,37230,2,0,L|88:205,2,37.5,0|0|8,0:0|0:0|0:0,0:0:0:0:
207,216,37573,1,2,0:0:0:0:
294,192,37745,2,0,L|327:153,2,37.5,0|0|0,0:0|0:0|0:0,0:0:0:0:
229,128,38088,2,0,L|252:37,1,75,10|0,0:0|0:0,0:0:0:0:
157,54,38430,5,2,0:0:0:0:
80,101,38602,2,0,L|24:75,2,37.5,0|0|8,0:0|0:0|0:0,0:0:0:0:
142,165,38945,1,2,0:0:0:0:
205,228,39116,2,0,L|263:230,2,37.5,0|0|0,0:0|0:0|0:0,0:0:0:0:
127,274,39459,1,8,0:0:0:0:
127,274,39630,1,10,0:0:0:0:
190,338,39802,5,4,0:2:0:0:
278,352,39973,2,0,L|336:320,1,37.5,0|0,0:0|0:0,0:0:0:0:
355,344,40145,2,0,L|433:301,1,75,8|2,0:0|0:0,0:0:0:0:
447,221,40488,2,0,P|405:199|399:188,1,37.5,4|0,0:0|0:0,0:0:0:0:
391,167,40659,2,0,P|421:121|458:107,2,75,0|10|0,0:0|0:0|0:0,0:0:0:0:
304,193,41173,5,4,0:2:0:0:
237,253,41345,1,0,0:0:0:0:
232,258,41430,1,0,0:0:0:0:
227,264,41516,1,8,0:0:0:0:
149,310,41688,2,0,P|93:322|52:310,2,75,2|4|0,0:0|0:0|0:0,0:0:0:0:
104,231,42202,2,0,L|97:129,1,75,10|0,0:0|0:0,0:0:0:0:
148,80,42545,5,4,0:2:0:0:
231,46,42716,1,2,0:0:0:0:
321,42,42888,1,10,0:0:0:0:
408,60,43059,1,0,0:0:0:0:
322,88,43230,1,4,0:2:0:0:
252,145,43402,1,2,0:0:0:0:
190,210,43573,1,8,0:0:0:0:
152,292,43745,1,0,0:0:0:0:
240,303,43916,6,0,L|227:353,2,37.5,4|0|10,0:2|0:0|0:0,0:0:0:0:
325,330,44259,1,10,0:0:0:0:
406,367,44430,1,0,0:0:0:0:
357,290,44602,1,4,0:2:0:0:
339,201,44773,1,2,0:0:0:0:
338,193,44859,1,0,0:0:0:0:
339,185,44945,1,8,0:0:0:0:
359,97,45116,1,0,0:0:0:0:
359,97,45288,6,0,P|390:49|412:40,2,75,4|0|0,0:0|0:0|0:0,0:0:0:0:
274,129,46316,2,0,L|228:111,1,37.5,2|0,0:0|0:0,0:0:0:0:
196,99,46659,6,0,B|145:110|145:110|103:140|117:200,1,150,2|2,0:0|0:0,0:0:0:0:
137,284,47688,1,2,0:0:0:0:
212,332,48030,6,0,P|254:352|292:349,2,75,2|0|0,0:0|0:0|0:0,0:0:0:0:
272,265,49059,2,0,L|318:244,1,37.5,2|0,0:0|0:0,0:0:0:0:
347,231,49402,6,0,P|383:250|399:293,1,75,2|0,0:0|0:0,0:0:0:0:
436,303,49916,2,0,L|472:226,1,75,2|0,0:0|0:0,0:0:0:0:
479,191,50430,1,2,0:0:0:0:
475,145,50602,1,0,0:0:0:0:
450,107,50773,6,0,P|416:68|388:61,2,75,2|0|0,0:0|0:0|0:0,0:0:0:0:
370,150,51802,1,2,0:0:0:0:
329,230,52145,6,0,P|279:284|235:293,1,112.5,2|0,0:0|0:0,0:0:0:0:
198,295,52830,1,2,0:0:0:0:
133,232,53173,1,2,0:0:0:0:
109,145,53516,6,0,P|114:97|138:62,2,75,2|0|2,0:0|0:0|0:0,0:0:0:0:
153,154,54373,1,0,0:0:0:0:
198,155,54545,2,0,P|220:154|247:142,1,37.5,2|0,0:0|0:0,0:0:0:0:
278,140,54888,6,0,L|285:190,1,37.5,0|2,0:0|0:0,0:0:0:0:
309,267,55230,2,0,L|320:315,1,37.5,0|2,0:0|0:0,0:0:0:0:
411,293,55573,2,0,L|430:249,1,37.5,2|2,0:0|0:0,0:0:0:0:
424,164,55916,2,0,L|438:122,1,37.5,0|2,0:0|0:0,0:0:0:0:
369,62,56259,6,0,P|327:49|288:57,2,75,6|0|0,0:0|0:0|0:0,0:0:0:0:
322,139,57288,2,0,L|289:182,1,37.5,2|0,0:0|0:0,0:0:0:0:
270,203,57630,5,2,0:0:0:0:
197,256,57973,1,0,0:0:0:0:
106,258,58316,1,2,0:0:0:0:
26,214,58659,2,0,L|12:167,1,37.5,2|0,0:0|0:0,0:0:0:0:
19,133,59002,6,0,P|56:124|95:91,1,75,2|0,0:0|0:0,0:0:0:0:
163,56,59688,2,0,L|201:81,1,37.5,0|2,0:0|0:0,0:0:0:0:
220,112,60030,2,0,L|236:162,1,37.5,0|2,0:0|0:0,0:0:0:0:
246,190,60373,6,0,B|219:226|272:262|252:310,1,112.5,2|2,0:0|0:0,0:0:0:0:
255,297,61230,1,0,0:0:0:0:
212,312,61402,2,0,L|159:323,1,37.5,2|0,0:0|0:0,0:0:0:0:
130,324,61745,6,0,P|110:289|111:249,1,75,2|0,0:0|0:0,0:0:0:0:
100,165,62430,1,0,0:0:0:0:
100,165,62602,1,2,0:0:0:0:
165,97,62773,1,2,0:0:0:0:
165,97,62945,1,0,0:0:0:0:
253,131,63116,6,0,P|235:159|220:172,1,37.5,2|0,0:0|0:0,0:0:0:0:
290,237,63459,2,0,P|308:209|323:196,1,37.5,2|0,0:0|0:0,0:0:0:0:
351,122,63802,2,0,L|400:122,1,37.5,2|0,0:0|0:0,0:0:0:0:
434,205,64145,2,0,L|385:205,1,37.5,2|2,0:0|0:0,0:0:0:0:
362,234,64488,6,0,L|356:278,1,37.5,8|8,0:0|0:0,0:0:0:0:
320,252,64830,2,0,L|303:298,1,37.5,10|0,0:0|0:0,0:0:0:0:
252,262,65173,2,0,L|221:291,1,37.5,2|0,0:0|0:0,0:0:0:0:
172,215,65516,2,0,L|124:225,1,37.5,2|8,0:0|0:0,0:0:0:0:
138,107,65859,6,0,L|174:132,1,37.5,10|10,0:0|0:0,0:0:0:0:
219,38,66202,2,0,L|240:77,1,37.5,8|10,0:0|0:0,0:0:0:0:
348,31,66545,2,0,L|345:82,1,37.5,10|8,0:0|0:0,0:0:0:0:
473,74,66888,2,0,L|450:117,1,37.5,10|8,0:0|0:0,0:0:0:0:
390,210,67230,5,4,1:2:0:0:
450,277,67402,1,2,0:0:0:0:
283,345,67745,5,2,0:0:0:0:
262,257,67916,1,0,1:0:0:0:
195,318,68088,1,2,0:0:0:0:
46,216,68430,5,2,0:0:0:0:
136,217,68602,1,0,1:0:0:0:
93,137,68773,1,2,0:0:0:0:
246,43,69116,5,2,0:0:0:0:
220,129,69288,1,0,1:0:0:0:
307,107,69459,1,2,0:0:0:0:
461,199,69802,5,2,0:0:0:0:
372,212,69973,1,0,1:0:0:0:
426,284,70145,1,2,0:0:0:0:
257,346,70488,5,2,0:0:0:0:
255,256,70659,1,0,1:0:0:0:
257,346,70830,1,2,0:0:0:0:
426,284,71173,5,2,0:0:0:0:
487,217,71345,1,0,1:0:0:0:
426,284,71516,1,2,0:0:0:0:
357,117,71859,5,2,0:0:0:0:
357,27,72030,1,0,1:0:0:0:
357,117,72202,1,2,0:0:0:0:
186,57,72545,5,2,0:0:0:0:
110,105,72716,2,0,P|74:133|64:184,1,75,4|2,1:2|0:0,0:0:0:0:
151,182,73059,1,0,1:0:0:0:
151,182,73230,1,0,3:0:0:0:
200,257,73402,2,0,L|288:247,1,75,0|0,1:0|3:0,0:0:0:0:
364,238,73745,1,0,1:0:0:0:
451,258,73916,1,8,3:2:0:0:
450,265,74002,1,8,0:0:0:0:
448,272,74088,6,0,P|409:316|369:320,1,75,0|0,1:2|3:2,0:0:0:0:
308,342,74430,1,0,1:2:0:0:
302,251,74602,2,0,L|298:184,2,37.5,8|8|0,3:2|0:0|1:2,0:0:0:0:
226,301,74945,1,10,0:0:0:0:
224,293,75031,1,8,0:0:0:0:
222,285,75116,2,0,P|205:245|172:222,1,75,0|10,1:2|0:0,0:0:0:0:
140,205,75373,1,8,0:0:0:0:
140,205,75459,6,0,L|150:124,1,75,0|0,1:2|3:2,0:0:0:0:
59,124,75802,2,0,L|50:215,1,75,0|8,1:2|3:2,0:0:0:0:
46,243,76059,1,8,0:0:0:0:
46,243,76145,2,0,P|86:289|90:321,1,75,0|0,1:2|3:2,0:0:0:0:
137,377,76488,1,0,1:0:0:0:
226,370,76659,2,0,L|264:336,1,37.5,8|8,0:0|0:0,0:0:0:0:
291,353,76830,6,0,L|343:291,1,75,8|2,1:2|0:0,0:0:0:0:
478,244,77173,2,0,L|416:320,1,75,8|2,1:2|0:0,0:0:0:0:
266,245,77516,2,0,L|313:186,1,75,8|2,1:0|0:0,0:0:0:0:
454,132,77859,2,0,L|406:190,1,75,8|0,1:0|0:1,0:0:0:0:
220,168,78202,5,4,1:2:0:0:
278,100,78373,1,2,0:0:0:0:
188,88,78545,2,0,P|143:126|135:159,1,75,8|2,1:0|0:0,0:0:0:0:
111,225,78888,1,0,1:0:0:0:
99,314,79059,1,2,0:0:0:0:
169,369,79230,2,0,P|188:325|185:286,1,75,8|10,1:0|0:0,0:0:0:0:
209,258,79488,1,8,0:0:0:0:
209,258,79573,6,0,L|294:330,1,75,0|2,1:0|0:0,0:0:0:0:
350,338,79916,1,8,1:0:0:0:
434,305,80088,1,2,0:0:0:0:
453,217,80259,2,0,P|404:222|372:251,1,75,8|2,1:2|0:0,0:0:0:0:
295,216,80602,2,0,P|317:173|365:150,1,75,8|8,1:0|0:1,0:0:0:0:
381,145,80859,1,8,0:0:0:0:
381,145,80945,6,0,L|336:75,1,75,0|2,1:0|0:0,0:0:0:0:
412,27,81288,1,8,1:0:0:0:
412,27,81459,1,2,0:0:0:0:
463,100,81630,2,0,P|476:154|463:186,1,75,0|10,1:0|0:0,0:0:0:0:
459,215,81888,1,8,0:0:0:0:
459,215,81973,1,8,1:0:0:0:
414,293,82145,1,2,0:0:0:0:
337,340,82316,6,0,P|279:350|241:337,1,75,0|2,1:0|0:0,0:0:0:0:
174,332,82659,1,8,1:0:0:0:
103,276,82830,1,2,0:0:0:0:
100,185,83002,2,0,P|154:200|175:233,1,75,0|10,1:0|0:0,0:0:0:0:
198,243,83259,1,8,0:0:0:0:
198,243,83345,2,0,L|265:184,1,75,8|8,1:0|1:0,0:0:0:0:
323,135,83688,6,0,P|385:115|416:128,1,75,0|0,1:0|3:0,0:0:0:0:
375,204,84030,1,8,1:0:0:0:
375,204,84202,1,0,3:0:0:0:
437,268,84373,2,0,L|434:357,1,75,8|0,1:2|3:0,0:0:0:0:
348,371,84716,1,8,1:0:0:0:
257,375,84888,1,8,3:2:0:0:
250,372,84973,1,8,0:0:0:0:
243,368,85059,6,0,P|206:355|177:297,1,75,0|0,1:0|3:2,0:0:0:0:
257,276,85402,2,0,P|231:213|236:173,1,75,8|0,1:0|3:0,0:0:0:0:
116,58,85745,2,0,P|153:71|182:129,1,75,0|2,1:0|0:0,0:0:0:0:
102,150,86088,2,0,P|128:213|123:253,1,75,8|0,1:0|0:0,0:0:0:0:
148,306,86430,6,0,L|248:288,1,75,4|4,1:2|0:0,0:0:0:0:
239,204,86773,1,8,1:0:0:0:
221,292,86945,1,0,3:2:0:0:
410,264,87116,6,0,L|310:282,1,75,4|4,1:2|0:0,0:0:0:0:
396,344,87459,1,8,1:0:0:0:
336,277,87631,1,2,0:0:0:0:
353,189,87802,5,12,1:2:0:0:
347,99,87973,1,8,0:0:0:0:
342,92,88059,1,8,0:0:0:0:
337,86,88145,1,12,1:2:0:0:
259,40,88316,1,0,0:0:0:0:
168,42,88488,2,0,P|108:55|90:77,1,75,12|0,1:2|0:0,0:0:0:0:
87,151,88830,2,0,P|147:138|165:116,1,75,12|4,1:2|0:0,0:0:0:0:
17,97,89173,5,4,0:2:0:0:
9,186,89345,1,2,0:0:0:0:
9,193,89430,1,0,0:0:0:0:
9,200,89516,1,8,0:0:0:0:
30,287,89688,1,2,0:0:0:0:
110,327,89859,2,0,L|90:364,2,37.5,2|0|0,0:0|0:0|0:0,0:0:0:0:
161,249,90202,1,10,0:0:0:0:
200,331,90373,1,0,0:0:0:0:
250,256,90545,5,0,0:0:0:0:
210,175,90716,1,2,0:0:0:0:
300,181,90888,2,0,L|340:173,1,37.5,10|0,0:0|0:0,0:0:0:0:
368,205,91059,2,0,L|422:194,1,37.5,0|0,0:0|0:0,0:0:0:0:
438,226,91230,2,0,L|520:209,1,75,2|0,0:0|0:0,0:0:0:0:
501,300,91573,2,0,L|406:318,1,75,10|0,0:0|0:0,0:0:0:0:
338,329,91916,5,2,0:0:0:0:
257,287,92088,1,2,0:0:0:0:
254,280,92173,1,0,0:0:0:0:
251,272,92259,1,8,0:0:0:0:
264,183,92430,1,2,0:0:0:0:
349,154,92602,2,0,L|359:103,2,37.5,0|0|2,0:0|0:0|0:0,0:0:0:0:
402,227,92945,2,0,P|434:191|436:151,1,75,10|0,0:0|0:0,0:0:0:0:
451,76,93288,5,2,0:0:0:0:
372,32,93459,2,0,L|309:48,1,37.5,0|0,0:0|0:0,0:0:0:0:
292,28,93630,2,0,L|203:51,1,75,10|0,0:0|0:0,0:0:0:0:
131,67,93973,2,0,L|109:115,3,37.5,0|0|2|0,0:0|0:0|0:0|0:0,0:0:0:0:
94,141,94316,1,10,0:0:0:0:
157,205,94488,1,0,0:0:0:0:
163,207,94573,1,0,0:0:0:0:
170,208,94659,6,0,P|221:216|252:197,1,75,4|0,0:0|0:0,0:0:0:0:
282,190,94916,1,0,0:0:0:0:
282,190,95002,2,0,L|307:294,1,75,10|0,0:0|0:0,0:0:0:0:
325,349,95345,1,4,0:0:0:0:
387,284,95516,2,0,L|418:247,2,37.5,2|0|8,0:0|0:0|0:0,0:0:0:0:
299,262,95859,1,0,0:0:0:0:
236,326,96030,5,4,0:0:0:0:
211,238,96202,2,0,L|217:182,2,37.5,2|0|8,0:0|0:0|0:0,0:0:0:0:
148,303,96545,1,0,0:0:0:0:
58,302,96716,2,0,P|66:347|94:373,1,75,4|2,0:0|0:0,0:0:0:0:
148,303,97059,2,0,P|123:239|108:228,1,75,10|0,0:0|0:0,0:0:0:0:
43,188,97402,5,4,0:2:0:0:
17,101,97573,1,2,0:0:0:0:
102,71,97745,1,10,0:0:0:0:
128,156,97916,1,0,0:0:0:0:
209,194,98088,2,0,P|268:186|296:161,1,75,6|2,0:2|0:0,0:0:0:0:
295,89,98430,2,0,P|236:97|208:122,1,75,10|0,0:0|0:0,0:0:0:0:
279,178,98773,6,0,P|341:169|359:152,1,75,4|4,0:2|0:2,0:0:0:0:
389,140,99030,1,0,0:0:0:0:
389,140,99116,1,8,0:0:0:0:
443,67,99288,1,4,0:2:0:0:
482,147,99459,1,0,0:0:0:0:
485,169,99545,1,0,0:0:0:0:
483,191,99630,1,4,0:2:0:0:
481,213,99716,1,0,0:0:0:0:
477,235,99802,2,0,L|467:265,7,18.75,8|0|0|4|0|0|0|0,0:0|0:0|0:0|0:2|0:0|0:0|0:0|0:0,0:0:0:0:
462,280,100145,5,4,0:2:0:0:
388,331,100316,2,0,L|406:379,2,37.5,2|0|8,0:0|0:0|0:0,0:0:0:0:
379,241,100659,1,2,0:0:0:0:
308,296,100830,1,0,0:0:0:0:
297,206,101002,2,0,L|289:158,2,37.5,2|0|8,0:0|0:0|0:0,0:0:0:0:
225,260,101345,1,2,0:0:0:0:
214,170,101516,6,0,P|162:197|152:216,1,75,0|2,0:0|0:0,0:0:0:0:
137,251,101773,1,0,0:0:0:0:
137,251,101859,1,8,0:0:0:0:
102,334,102030,1,2,0:0:0:0:
46,262,102202,2,0,P|26:218|29:180,1,75,0|2,0:0|0:0,0:0:0:0:
25,146,102459,1,0,0:0:0:0:
25,146,102545,2,0,L|92:94,1,75,8|10,0:0|0:0,0:0:0:0:
155,44,102888,5,2,0:0:0:0:
244,47,103059,2,0,L|263:6,2,37.5,0|0|8,0:0|0:0|0:0,0:0:0:0:
195,123,103402,1,2,0:0:0:0:
257,187,103573,2,0,P|213:211|172:209,1,75,0|0,0:0|0:0,0:0:0:0:
183,302,103916,2,0,P|248:296|268:285,1,75,10|0,0:0|0:0,0:0:0:0:
341,264,104259,5,2,0:0:0:0:
430,264,104430,1,0,0:0:0:0:
384,341,104602,1,8,0:0:0:0:
341,264,104773,1,2,0:0:0:0:
390,188,104945,1,2,0:0:0:0:
439,112,105116,2,0,L|482:38,2,75,0|10|8,0:0|0:0|0:0,0:0:0:0:
390,188,105630,5,4,0:0:0:0:
341,264,105802,2,0,L|296:239,1,37.5,2|0,0:0|0:0,0:0:0:0:
267,264,105973,2,0,L|192:221,1,75,8|2,0:0|0:0,0:0:0:0:
123,181,106316,1,2,0:0:0:0:
65,250,106488,1,0,0:0:0:0:
37,335,106659,1,10,0:0:0:0:
124,314,106830,1,0,0:0:0:0:
131,313,106916,1,0,0:0:0:0:
138,310,107002,6,0,P|187:301|229:306,1,75,4|0,0:2|0:0,0:0:0:0:
353,354,107345,2,0,P|304:363|262:358,1,75,8|2,0:0|0:0,0:0:0:0:
211,302,107688,1,0,0:0:0:0:
244,218,107859,1,2,0:0:0:0:
244,218,108030,2,0,P|302:211|338:220,1,75,10|0,0:0|0:0,0:0:0:0:
408,215,108373,5,4,0:2:0:0:
458,290,108545,2,0,L|467:344,2,37.5,2|0|10,0:0|0:0|0:0,0:0:0:0:
446,200,108888,1,0,0:0:0:0:
452,110,109059,1,4,0:2:0:0:
481,25,109230,1,2,0:0:0:0:
421,92,109402,1,8,0:0:0:0:
347,143,109573,2,0,P|323:158|283:162,1,37.5,0|0,0:0|0:0,0:0:0:0:
270,174,109745,6,0,P|253:224|256:278,1,75,4|10,0:2|0:0,0:0:0:0:
243,335,110088,1,10,0:0:0:0:
158,305,110259,1,0,0:0:0:0:
87,249,110430,1,4,0:2:0:0:
81,227,110516,1,0,0:0:0:0:
79,204,110602,1,2,0:0:0:0:
79,181,110688,1,0,0:0:0:0:
80,158,110773,2,0,L|86:132,7,18.75,8|0|0|0|0|0|0|0,0:0|0:0|0:0|0:0|0:0|0:0|0:0|0:0,0:0:0:0:
95,120,111116,5,4,0:2:0:0:
