osu file format v14

[General]
AudioFilename: whisper of rose.mp3
AudioLeadIn: 0
PreviewTime: 67230
Countdown: 0
SampleSet: None
StackLeniency: 0.7
Mode: 3
LetterboxInBreaks: 0
SpecialStyle: 0
WidescreenStoryboard: 0

[Editor]
Bookmarks: 6887,12373,23344,34316,45287,56259,67230,78202,89173,111116
DistanceSpacing: 1.2
BeatDivisor: 4
GridSize: 4
TimelineZoom: 1.399999

[Metadata]
Title:Whisper of Rose
TitleUnicode:花语-玫瑰
Artist:himmeltengoku
ArtistUnicode:himmeltengoku
Creator:KawaEE
Version:Another
Source:
Tags:
BeatmapID:580853
BeatmapSetID:252947

[Difficulty]
HPDrainRate:8
CircleSize:7
OverallDifficulty:8
ApproachRate:5
SliderMultiplier:1.4
SliderTickRate:1

[Events]
//Background and Video events
0,0,"666.jpg",0,0
//Break Periods
//Storyboard Layer 0 (Background)
//Storyboard Layer 1 (Fail)
//Storyboard Layer 2 (Pass)
//Storyboard Layer 3 (Foreground)
//Storyboard Sound Samples

[TimingPoints]
6888,342.857142857143,4,2,1,40,1,0
23345,-100,4,2,1,40,0,0
45288,-133.333333333333,4,2,1,40,0,0
67230,-100,4,2,1,40,0,0
87802,-200,4,2,1,40,0,0
87973,-66.6666666666667,4,2,1,40,0,0
88145,-200,4,2,1,40,0,0
88316,-66.6666666666667,4,2,1,40,0,0
88488,-200,4,2,1,40,0,0
88659,-66.6666666666667,4,2,1,40,0,0
88830,-100,4,2,1,40,0,0
89173,-100,4,3,1,40,0,1
111116,-100,4,3,1,40,0,0

[HitObjects]
256,192,1402,5,2,2:0:0:0:
402,192,2430,1,2,2:0:0:0:
36,192,2773,1,0,0:0:0:0:
182,192,2773,1,2,2:0:0:0:
329,192,3287,1,2,2:0:0:0:
475,192,3802,1,2,2:0:0:0:
256,192,4145,1,2,2:0:0:0:
36,192,4145,1,0,0:0:0:0:
329,192,5173,1,2,2:0:0:0:
182,192,5345,1,2,2:0:0:0:
475,192,5516,1,0,0:0:0:0:
329,192,5516,1,2,2:0:0:0:
402,192,6030,1,2,2:0:0:0:
109,192,6545,1,2,2:0:0:0:
475,192,6887,1,0,3:0:0:70:bass.wav
36,192,6887,1,0,0:0:0:70:LR_CymbalRDW.wav
182,192,6887,1,0,0:0:0:0:
329,192,6887,1,0,0:0:0:0:
256,192,7059,1,0,0:0:0:0:
182,192,7230,1,8,1:0:0:0:
36,192,7230,1,0,0:0:0:0:
256,192,7402,1,0,0:0:0:0:
329,192,7573,1,0,3:0:0:70:bass.wav
475,192,7573,1,0,0:0:0:0:
256,192,7745,1,0,0:0:0:0:
182,192,7916,1,8,1:0:0:0:
36,192,7916,1,0,0:0:0:0:
256,192,8087,1,0,0:0:0:0:
36,192,8259,1,0,3:0:0:70:bass.wav
329,192,8259,1,0,0:0:0:0:
256,192,8430,1,0,0:0:0:0:
475,192,8602,1,8,1:0:0:0:
182,192,8602,1,0,0:0:0:0:
256,192,8773,1,0,0:0:0:0:
36,192,8945,1,0,3:0:0:70:bass.wav
329,192,8945,1,0,0:0:0:0:
256,192,9116,1,0,0:0:0:0:
475,192,9287,1,8,1:0:0:0:
182,192,9287,1,0,0:0:0:0:
256,192,9459,1,0,0:0:0:0:
182,192,9630,1,0,3:0:0:70:bass.wav
329,192,9630,1,0,0:0:0:0:
475,192,9802,1,0,0:0:0:0:
329,192,9973,1,8,1:0:0:0:
182,192,9973,1,0,0:0:0:0:
109,192,10145,1,0,0:0:0:0:
182,192,10316,1,0,0:0:0:70:bass.wav
329,192,10316,1,0,0:0:0:0:
402,192,10488,1,0,0:0:0:0:
329,192,10659,1,8,1:0:0:0:
182,192,10659,1,0,0:0:0:0:
36,192,10830,1,0,0:0:0:0:
329,192,11002,1,0,0:0:0:70:bass.wav
402,192,11002,1,0,0:0:0:0:
182,192,11173,1,0,0:0:0:70:bass.wav
109,192,11173,1,0,0:0:0:0:
475,192,11345,1,0,0:0:0:70:bass.wav
329,192,11345,1,0,0:0:0:0:
182,192,11516,1,0,0:0:0:70:bass.wav
36,192,11516,1,0,0:0:0:0:
329,192,11688,1,0,0:0:0:70:bass.wav
402,192,11688,1,0,0:0:0:0:
109,192,11859,1,0,0:0:0:70:bass.wav
182,192,11859,1,0,0:0:0:0:
475,192,12030,1,0,0:0:0:70:bass.wav
329,192,12030,1,0,0:0:0:0:
109,192,12202,1,0,0:0:0:70:bass.wav
256,192,12202,1,0,0:0:0:0:
475,192,12373,1,0,0:0:0:0:
36,192,12373,1,0,0:0:0:70:bass.wav
329,192,12373,1,0,0:0:0:70:LR_CymbalRDW.wav
182,192,12373,1,0,0:0:0:0:
256,192,12545,1,0,0:0:0:0:
109,192,12716,1,0,0:0:0:0:
402,192,12716,1,0,0:0:0:70:kick1.wav
182,192,12716,1,0,0:0:0:0:
256,192,12888,1,0,0:0:0:0:
329,192,13059,1,0,0:0:0:70:bass.wav
475,192,13059,1,0,0:0:0:0:
256,192,13230,1,0,0:0:0:0:
109,192,13402,1,0,0:0:0:0:
182,192,13402,1,0,0:0:0:70:kick1.wav
402,192,13402,1,0,0:0:0:0:
256,192,13573,1,0,0:0:0:0:
36,192,13745,1,0,0:0:0:70:bass.wav
182,192,13745,1,0,0:0:0:0:
256,192,13916,1,0,0:0:0:0:
329,192,14088,1,0,0:0:0:0:
475,192,14088,1,0,0:0:0:0:
109,192,14088,1,0,0:0:0:70:kick1.wav
256,192,14259,1,0,0:0:0:0:
182,192,14430,1,0,0:0:0:70:bass.wav
36,192,14430,1,0,0:0:0:0:
256,192,14602,1,0,0:0:0:0:
402,192,14773,1,0,0:0:0:0:
109,192,14773,1,0,0:0:0:70:kick1.wav
329,192,14773,1,0,0:0:0:0:
109,192,14945,1,0,0:0:0:70:kick1.wav
256,192,14945,1,0,0:0:0:0:
182,192,15116,1,0,0:0:0:0:
329,192,15116,1,0,0:0:0:70:bass.wav
402,192,15288,1,0,0:0:0:0:
36,192,15459,1,0,0:0:0:0:
256,192,15459,1,0,0:0:0:0:
475,192,15459,1,0,0:0:0:70:kick1.wav
109,192,15630,1,0,0:0:0:0:
329,192,15802,1,0,0:0:0:70:bass.wav
182,192,15802,1,0,0:0:0:0:
402,192,15973,1,0,0:0:0:0:
36,192,16145,1,0,0:0:0:0:
475,192,16145,1,0,0:0:0:70:kick1.wav
256,192,16145,1,0,0:0:0:0:
109,192,16316,1,0,0:0:0:0:
329,192,16488,1,0,0:0:0:70:bass.wav
182,192,16488,1,0,0:0:0:0:
475,192,16659,1,0,0:0:0:0:
256,192,16830,1,0,0:0:0:70:kick1.wav
402,192,16830,1,0,0:0:0:0:
109,192,16830,1,0,0:0:0:0:
36,192,17002,1,0,0:0:0:0:
182,192,17173,1,0,0:0:0:70:bass.wav
329,192,17173,1,0,0:0:0:0:
475,192,17345,1,0,0:0:0:0:
256,192,17516,1,0,0:0:0:0:
402,192,17516,1,0,0:0:0:70:kick1.wav
109,192,17516,1,0,0:0:0:0:
402,192,17688,1,0,0:0:0:70:kick1.wav
109,192,17688,1,0,0:0:0:0:
329,192,17859,1,0,0:0:0:0:
182,192,17859,1,0,0:0:0:70:bass.wav
36,192,17859,1,0,0:0:0:70:LR_CymbalRDW.wav
475,192,17859,1,0,0:0:0:0:
256,192,18030,1,0,0:0:0:0:
36,192,18202,1,0,0:0:0:70:kick1.wav
402,192,18202,1,0,0:0:0:0:
182,192,18202,1,0,0:0:0:0:
329,192,18373,1,0,0:0:0:0:
256,192,18545,1,0,0:0:0:70:bass.wav
475,192,18545,1,0,0:0:0:0:
402,192,18716,1,0,0:0:0:0:
182,192,18888,1,0,0:0:0:70:kick1.wav
329,192,18888,1,0,0:0:0:0:
36,192,18888,1,0,0:0:0:0:
256,192,19059,1,0,0:0:0:0:
182,192,19230,1,0,0:0:0:0:
329,192,19230,1,0,0:0:0:70:bass.wav
256,192,19402,1,0,0:0:0:0:
475,192,19573,1,0,0:0:0:70:kick1.wav
109,192,19573,1,0,0:0:0:0:
329,192,19573,1,0,0:0:0:0:
182,192,19745,1,0,0:0:0:0:
256,192,19916,1,0,0:0:0:70:bass.wav
36,192,19916,1,0,0:0:0:0:
109,192,20088,1,0,0:0:0:0:
475,192,20259,1,0,0:0:0:0:
182,192,20259,1,0,0:0:0:0:
329,192,20259,1,0,0:0:0:70:kick1.wav
256,192,20430,1,0,0:0:0:0:
182,192,20602,1,0,0:0:0:70:LR_CymbalRDW.wav
475,192,20602,1,0,0:0:0:0:
329,192,20602,1,0,0:0:0:0:
36,192,20602,1,0,0:0:0:70:bass.wav
402,192,20773,1,0,0:0:0:0:
109,192,20773,1,0,0:0:0:70:bass.wav
256,192,20945,1,0,0:0:0:70:kick1.wav
329,192,20945,1,0,0:0:0:70:bass.wav
182,192,20945,1,0,0:0:0:0:
109,192,21116,1,0,0:0:0:70:bass.wav
402,192,21116,1,0,0:0:0:0:
36,192,21288,1,0,0:0:0:0:
182,192,21288,1,0,0:0:0:70:LR_CymbalRDW.wav
329,192,21288,1,0,0:0:0:70:bass.wav
475,192,21288,1,0,0:0:0:0:
402,192,21459,1,0,0:0:0:0:
109,192,21459,1,0,0:0:0:70:bass.wav
256,192,21630,1,0,0:0:0:70:kick1.wav
182,192,21630,1,0,0:0:0:0:
329,192,21630,1,0,0:0:0:70:bass.wav
402,192,21802,1,0,0:0:0:0:
109,192,21802,1,0,0:0:0:70:bass.wav
256,192,21973,1,0,0:0:0:70:bass.wav
475,192,21973,1,0,0:0:0:70:kick1.wav
36,192,21973,1,0,0:0:0:70:LR_CymbalSSD.wav
329,192,22145,1,0,0:0:0:70:bass.wav
402,192,22316,1,0,0:0:0:70:bass.wav
256,192,22316,1,0,0:0:0:70:kick1.wav
109,192,22316,1,0,0:0:0:70:LR_CymbalSSD.wav
182,192,22488,1,0,0:0:0:70:bass.wav
256,192,22659,1,0,0:0:0:70:bass.wav
475,192,22659,1,0,0:0:0:70:kick1.wav
36,192,22659,1,0,0:0:0:70:LR_CymbalSSD.wav
329,192,22830,1,0,0:0:0:70:bass.wav
256,192,23002,1,0,0:0:0:70:bass.wav
402,192,23002,1,0,0:0:0:70:kick1.wav
109,192,23002,1,0,0:0:0:70:LR_CymbalSSD.wav
109,192,23173,1,0,0:0:0:70:LR_CymbalSSD.wav
402,192,23173,1,0,0:0:0:70:bass.wav
475,192,23345,1,0,0:0:0:0:
36,192,23345,1,0,0:0:0:0:
182,192,23345,1,0,0:0:0:70:LR_CymbalRDW.wav
329,192,23345,1,0,0:0:0:70:bass.wav
256,192,23516,1,0,0:0:0:70:moktak.wav
402,192,23602,1,0,0:0:0:70:moktak.wav
256,192,23688,1,0,0:0:0:70:moktak.wav
109,192,23688,1,8,1:0:0:0:
329,192,23859,1,0,0:0:0:70:moktak.wav
402,192,24030,1,0,0:0:0:70:moktak.wav
182,192,24030,1,0,0:0:0:70:bass.wav
256,192,24202,1,0,0:0:0:70:moktak.wav
329,192,24373,1,0,0:0:0:70:moktak.wav
109,192,24373,1,8,1:0:0:0:
182,192,24545,1,0,0:0:0:70:moktak.wav
475,192,24716,1,0,0:0:0:70:moktak.wav
329,192,24716,1,0,0:0:0:70:bass.wav
256,192,24888,1,0,0:0:0:70:moktak.wav
182,192,25059,1,0,0:0:0:70:moktak.wav
36,192,25059,1,8,1:0:0:0:
329,192,25230,1,0,0:0:0:70:moktak.wav
36,192,25402,1,0,0:0:0:70:bass.wav
182,192,25573,1,0,0:0:0:70:moktak.wav
329,192,25745,1,8,1:0:0:0:
475,192,25745,1,0,0:0:0:70:moktak.wav
402,192,26088,1,0,0:0:0:70:bass.wav
109,192,26088,1,0,0:0:0:70:moktak.wav
475,192,26259,1,0,0:0:0:70:moktak.wav
329,192,26345,1,0,0:0:0:70:moktak.wav
182,192,26430,1,0,0:0:0:70:moktak.wav
36,192,26430,1,8,1:0:0:0:
256,192,26602,1,0,0:0:0:70:moktak.wav
329,192,26773,1,0,0:0:0:70:moktak.wav
475,192,26773,1,0,0:0:0:70:bass.wav
329,192,26945,1,0,0:0:0:70:moktak.wav
182,192,27116,1,0,0:0:0:70:moktak.wav
36,192,27116,1,8,1:0:0:0:
475,192,27459,1,0,0:0:0:70:bass.wav
256,192,27459,1,0,0:0:0:70:moktak.wav
329,192,27630,1,0,0:0:0:70:moktak.wav
36,192,27802,1,0,0:0:0:70:moktak.wav
182,192,27802,1,8,1:0:0:0:
256,192,27973,1,0,0:0:0:70:moktak.wav
329,192,28145,1,0,0:0:0:70:bass.wav
109,192,28316,1,0,0:0:0:70:moktak.wav
256,192,28488,1,0,0:0:0:70:moktak.wav
402,192,28488,1,8,1:0:0:0:
109,192,28659,1,0,0:0:0:70:moktak.wav
36,192,28830,1,0,0:0:0:70:moktak.wav
475,192,28830,1,0,0:0:0:70:bass.wav
256,192,28830,1,0,0:0:0:25:soul.wav
329,192,29173,1,8,1:0:0:0:
402,192,29173,1,0,0:0:0:70:moktak.wav
36,192,29345,1,0,0:0:0:70:moktak.wav
182,192,29345,1,0,0:0:0:0:
256,192,29516,1,0,0:0:0:70:bass.wav
109,192,29688,1,0,0:0:0:70:moktak.wav
182,192,29688,1,0,0:0:0:0:
329,192,29859,1,8,1:0:0:0:
475,192,29859,1,0,0:0:0:70:moktak.wav
256,192,30202,1,0,0:0:0:70:moktak.wav
109,192,30202,1,0,0:0:0:70:bass.wav
402,192,30373,1,0,0:0:0:70:moktak.wav
36,192,30545,1,8,1:0:0:0:
182,192,30545,1,0,0:0:0:70:moktak.wav
329,192,30716,1,0,0:0:0:70:moktak.wav
182,192,30888,1,0,0:0:0:70:bass.wav
402,192,31059,1,0,0:0:0:70:moktak.wav
256,192,31230,1,0,0:0:0:70:moktak.wav
109,192,31230,1,8,1:0:0:0:
402,192,31402,1,0,0:0:0:70:moktak.wav
182,192,31573,1,0,0:0:0:70:LR_CymbalRDW.wav
329,192,31573,1,0,0:0:0:25:soul.wav
36,192,31573,1,0,0:0:0:70:bass.wav
475,192,31573,1,0,0:0:0:70:moktak.wav
256,192,31745,1,0,0:0:0:70:moktak.wav
109,192,31916,1,0,0:0:0:0:
182,192,31916,1,8,1:0:0:0:
256,192,32088,1,0,0:0:0:70:moktak.wav
36,192,32259,1,0,0:0:0:70:bass.wav
182,192,32259,1,0,0:0:0:70:LR_CymbalRDW.wav
475,192,32259,1,0,0:0:0:0:
329,192,32259,1,0,0:0:0:70:moktak.wav
256,192,32430,1,0,0:0:0:70:moktak.wav
329,192,32602,1,0,0:0:0:0:
402,192,32602,1,8,1:0:0:0:
256,192,32773,1,0,0:0:0:70:moktak.wav
182,192,32945,1,0,2:0:0:0:
475,192,32945,1,0,0:0:0:70:LR_CymbalSSD.wav
36,192,32945,1,0,0:0:0:70:bass.wav
402,192,33116,1,0,0:0:0:70:LR_CymbalSSD.wav
256,192,33116,1,0,0:0:0:70:bass.wav
36,192,33116,1,0,2:0:0:0:
329,192,33288,1,0,0:0:0:0:
109,192,33288,1,0,0:0:0:70:bass.wav
109,192,33459,1,0,0:0:0:70:bass.wav
402,192,33459,1,0,0:0:0:70:LR_CymbalSSD.wav
256,192,33459,1,0,2:0:0:0:
402,192,33630,1,0,0:0:0:0:
182,192,33630,1,0,0:0:0:70:bass.wav
109,192,33802,1,0,0:0:0:70:bass.wav
475,192,33802,1,0,0:0:0:70:LR_CymbalSSD.wav
256,192,33802,1,0,2:0:0:0:
36,192,33973,1,0,2:0:0:0:
475,192,33973,1,0,0:0:0:70:LR_CymbalSSD.wav
329,192,33973,1,0,0:0:0:70:bass.wav
402,192,34145,1,0,0:0:0:70:bass.wav
109,192,34145,1,0,0:0:0:70:LR_CymbalSSD.wav
256,192,34145,1,0,2:0:0:0:
329,192,34316,1,0,2:0:0:0:
475,192,34316,1,0,0:0:0:0:
36,192,34316,1,0,0:0:0:70:bass.wav
182,192,34316,1,0,0:0:0:70:LR_CymbalRDW.wav
475,192,34659,1,0,0:0:0:70:moktak.wav
256,192,34659,1,8,1:0:0:70:kick1.wav
36,192,34659,1,0,0:0:0:0:
109,192,34830,1,0,0:0:0:0:
329,192,34830,1,0,0:0:0:70:moktak.wav
256,192,35002,1,0,0:0:0:70:bass.wav
182,192,35173,1,0,0:0:0:0:
402,192,35173,1,0,0:0:0:70:moktak.wav
475,192,35345,1,0,0:0:0:70:moktak.wav
256,192,35345,1,8,1:0:0:70:kick1.wav
36,192,35345,1,0,0:0:0:0:
329,192,35516,1,0,0:0:0:0:
182,192,35516,1,0,0:0:0:70:bass.wav
402,192,35688,1,0,0:0:0:70:moktak.wav
182,192,35688,1,0,0:0:0:70:bass.wav
256,192,36030,1,8,1:0:0:70:kick1.wav
475,192,36030,1,0,0:0:0:70:moktak.wav
36,192,36030,1,0,0:0:0:0:
182,192,36202,1,0,0:0:0:0:
402,192,36202,1,0,0:0:0:70:moktak.wav
256,192,36373,1,0,0:0:0:70:bass.wav
329,192,36545,1,0,0:0:0:70:moktak.wav
109,192,36545,1,0,0:0:0:0:
256,192,36716,1,0,0:0:0:0:
475,192,36716,1,0,0:0:0:70:moktak.wav
36,192,36716,1,8,1:0:0:70:kick1.wav
182,192,36888,1,0,0:0:0:70:moktak.wav
329,192,36888,1,0,0:0:0:70:bass.wav
109,192,37059,1,0,0:0:0:70:moktak.wav
329,192,37059,1,0,0:0:0:70:bass.wav
475,192,37402,1,0,0:0:0:0:
256,192,37402,1,8,1:0:0:70:kick1.wav
36,192,37402,1,0,0:0:0:70:moktak.wav
329,192,37573,1,0,0:0:0:0:
109,192,37573,1,0,0:0:0:70:moktak.wav
256,192,37745,1,0,0:0:0:70:bass.wav
182,192,37916,1,0,0:0:0:70:moktak.wav
402,192,37916,1,0,0:0:0:0:
36,192,38088,1,0,0:0:0:70:moktak.wav
256,192,38088,1,8,1:0:0:70:kick1.wav
475,192,38088,1,0,0:0:0:0:
109,192,38430,1,0,0:0:0:70:bass.wav
402,192,38430,1,0,0:0:0:70:moktak.wav
329,192,38602,1,0,0:0:0:70:moktak.wav
256,192,38688,1,0,0:0:0:70:moktak.wav
475,192,38773,1,0,0:0:0:70:moktak.wav
182,192,38773,1,0,0:0:0:0:
36,192,38773,1,8,1:0:0:70:kick1.wav
475,192,38945,1,0,0:0:0:70:moktak.wav
329,192,38945,1,0,0:0:0:0:
182,192,39116,1,0,0:0:0:70:moktak.wav
36,192,39116,1,0,0:0:0:70:bass.wav
475,192,39288,1,0,0:0:0:0:
329,192,39288,1,0,0:0:0:70:moktak.wav
109,192,39459,1,0,0:0:0:70:moktak.wav
256,192,39459,1,0,0:0:0:0:
402,192,39459,1,8,1:0:0:70:kick1.wav
402,192,39630,1,8,1:0:0:70:kick1.wav
109,192,39630,1,0,0:0:0:70:moktak.wav
256,192,39802,1,0,0:0:0:70:moktak.wav
475,192,39802,1,0,0:0:0:70:bass.wav
36,192,39802,1,0,0:0:0:25:soul.wav
329,192,39973,1,0,0:0:0:0:
256,192,40145,1,8,1:0:0:70:kick1.wav
36,192,40145,1,0,0:0:0:15:soul.wav
475,192,40145,1,0,0:0:0:70:moktak.wav
402,192,40316,1,0,0:0:0:70:moktak.wav
182,192,40316,1,0,0:0:0:0:
256,192,40488,1,0,0:0:0:70:bass.wav
109,192,40659,1,0,0:0:0:0:
329,192,40659,1,0,0:0:0:70:moktak.wav
36,192,40830,1,0,0:0:0:0:
475,192,40830,1,0,0:0:0:70:moktak.wav
256,192,40830,1,8,1:0:0:70:kick1.wav
109,192,41173,1,0,0:0:0:70:moktak.wav
256,192,41173,1,0,0:0:0:25:soul.wav
36,192,41173,1,0,0:0:0:70:bass.wav
475,192,41173,1,0,0:0:0:70:LR_CymbalRDW.wav
402,192,41345,1,0,0:0:0:70:moktak.wav
182,192,41345,1,0,0:0:0:0:
475,192,41516,1,0,0:0:0:70:moktak.wav
256,192,41516,1,0,0:0:0:25:soul.wav
36,192,41516,1,8,1:0:0:70:kick1.wav
329,192,41688,1,0,0:0:0:70:moktak.wav
109,192,41688,1,0,0:0:0:0:
256,192,41859,1,0,0:0:0:70:bass.wav
402,192,42030,1,0,0:0:0:70:moktak.wav
182,192,42030,1,0,0:0:0:0:
475,192,42202,1,0,0:0:0:70:moktak.wav
36,192,42202,1,0,0:0:0:0:
256,192,42202,1,8,1:0:0:70:kick1.wav
109,192,42373,1,0,0:0:0:70:moktak.wav
329,192,42373,1,0,0:0:0:70:bass.wav
36,192,42545,1,0,0:0:0:0:
402,192,42545,1,0,0:0:0:70:bass.wav
475,192,42545,1,0,0:0:0:70:moktak.wav
182,192,42545,1,0,0:0:0:70:LR_CymbalRDW.wav
256,192,42716,1,0,0:0:0:70:moktak.wav
329,192,42888,1,0,0:0:0:0:
402,192,42888,1,8,1:0:0:70:kick1.wav
109,192,42888,1,0,0:0:0:70:bass.wav
256,192,43059,1,0,0:0:0:70:moktak.wav
36,192,43230,1,0,0:0:0:70:bass.wav
475,192,43230,1,0,0:0:0:0:
182,192,43230,1,0,0:0:0:70:LR_CymbalRDW.wav
329,192,43230,1,0,0:0:0:0:
256,192,43402,1,0,0:0:0:70:moktak.wav
402,192,43573,1,0,0:0:0:70:bass.wav
109,192,43573,1,8,1:0:0:70:kick1.wav
182,192,43573,1,0,0:0:0:0:
256,192,43745,1,0,0:0:0:70:moktak.wav
329,192,43916,1,8,1:0:0:70:kick1.wav
475,192,43916,1,0,0:0:0:70:bass.wav
36,192,43916,1,0,0:0:0:0:
182,192,43916,1,0,0:0:0:70:LR_CymbalRDW.wav
256,192,44088,1,0,0:0:0:70:bass.wav
109,192,44088,1,0,0:0:0:0:
329,192,44259,1,0,0:0:0:70:bass.wav
182,192,44259,1,0,0:0:0:0:
402,192,44430,1,0,0:0:0:70:bass.wav
256,192,44430,1,0,0:0:0:0:
475,192,44602,1,0,0:0:0:70:bass.wav
36,192,44602,1,0,0:0:0:0:
182,192,44602,1,0,0:0:0:70:LR_CymbalRDW.wav
329,192,44602,1,0,0:0:0:0:
402,192,44773,1,0,0:0:0:70:bass.wav
109,192,44773,1,0,0:0:0:0:
182,192,44859,1,0,0:0:0:0:
329,192,44859,1,0,0:0:0:70:bass.wav
36,192,44945,1,0,0:0:0:0:
475,192,44945,1,0,0:0:0:0:
256,192,44945,1,0,0:0:0:70:bass.wav
182,192,45116,1,0,0:0:0:70:bass.wav
329,192,45116,1,0,0:0:0:0:
475,192,45288,1,0,0:0:0:70:LR_CymbalRDW.wav
256,192,45288,1,0,0:0:0:0:
36,192,45288,1,0,2:0:0:0:
182,192,45973,1,0,0:0:0:0:
329,192,46316,1,2,2:0:0:0:
475,192,46659,1,0,0:0:0:0:
256,192,46659,1,0,0:0:0:0:
36,192,46659,1,2,2:0:0:0:
402,192,47345,1,0,0:0:0:0:
109,192,47345,1,2,2:0:0:0:
182,192,47688,1,2,2:0:0:0:
256,192,48030,1,0,0:0:0:0:
475,192,48030,1,0,0:0:0:0:
36,192,48030,1,2,2:0:0:0:
182,192,48716,1,0,0:0:0:0:
402,192,48716,1,0,0:0:0:0:
329,192,49059,1,0,0:0:0:0:
109,192,49059,1,2,2:0:0:0:
402,192,49230,1,0,0:0:0:0:
182,192,49230,1,2,2:0:0:0:
256,192,49402,1,0,0:0:0:0:
475,192,49402,1,0,0:0:0:0:
36,192,49402,1,2,2:0:0:0:
329,192,49745,1,0,0:0:0:0:
182,192,49916,1,2,2:0:0:0:
475,192,50088,1,0,0:0:0:0:
329,192,50088,1,0,0:0:0:0:
402,192,50430,1,0,0:0:0:0:
182,192,50430,1,2,2:0:0:0:
329,192,50602,1,0,0:0:0:0:
109,192,50602,1,2,2:0:0:0:
36,192,50773,1,0,0:0:0:0:
256,192,50773,1,2,2:0:0:0:
182,192,51116,1,0,0:0:0:0:
475,192,51459,1,0,0:0:0:0:
329,192,51459,1,0,0:0:0:0:
402,192,51802,1,0,0:0:0:0:
256,192,51802,1,2,2:0:0:0:
329,192,52145,1,0,0:0:0:0:
182,192,52145,1,0,0:0:0:0:
36,192,52145,1,2,2:0:0:0:
256,192,52488,1,0,0:0:0:0:
329,192,52830,1,0,0:0:0:0:
109,192,52830,1,2,2:0:0:0:
182,192,53173,1,2,2:0:0:0:
402,192,53173,1,0,0:0:0:0:
256,192,53516,1,0,0:0:0:0:
475,192,53516,1,0,0:0:0:0:
36,192,53516,1,2,2:0:0:0:
402,192,53859,1,0,0:0:0:0:
36,192,54202,1,0,0:0:0:0:
182,192,54373,1,0,0:0:0:0:
475,192,54545,1,0,0:0:0:0:
329,192,54545,1,2,2:0:0:0:
329,192,54716,1,0,0:0:0:0:
182,192,54716,1,2,2:0:0:0:
182,192,54888,1,0,0:0:0:0:
36,192,54888,1,2,2:0:0:0:
402,192,55059,1,0,0:0:0:0:
256,192,55230,1,0,0:0:0:0:
475,192,55402,1,0,0:0:0:0:
109,192,55402,1,2,2:0:0:0:
329,192,55573,1,0,0:0:0:0:
182,192,55745,1,0,0:0:0:0:
256,192,55916,1,0,0:0:0:0:
36,192,55916,1,2,2:0:0:0:
329,192,56088,1,0,0:0:0:0:
475,192,56259,1,0,0:0:0:0:
182,192,56259,1,0,0:0:0:70:soul2.wav
36,192,56259,1,2,2:0:0:0:
256,192,56602,1,0,0:0:0:0:
329,192,56945,1,0,0:0:0:0:
475,192,56945,1,0,0:0:0:0:
182,192,57288,1,2,2:0:0:0:
256,192,57630,1,0,0:0:0:0:
475,192,57630,1,0,0:0:0:0:
36,192,57630,1,2,2:0:0:0:
329,192,57973,1,0,0:0:0:0:
402,192,58316,1,0,0:0:0:0:
475,192,58316,1,0,0:0:0:0:
109,192,58316,1,2,2:0:0:0:
475,192,58659,1,0,0:0:0:0:
329,192,58659,1,2,2:0:0:0:
256,192,58830,1,0,0:0:0:0:
36,192,59002,1,0,0:0:0:0:
475,192,59002,1,0,0:0:0:0:
182,192,59002,1,2,2:0:0:0:
256,192,59345,1,0,0:0:0:0:
475,192,59688,1,0,0:0:0:0:
329,192,59688,1,0,0:0:0:0:
256,192,59859,1,0,0:0:0:0:
402,192,60030,1,0,0:0:0:0:
182,192,60030,1,2,2:0:0:0:
329,192,60202,1,0,0:0:0:0:
36,192,60373,1,0,0:0:0:0:
475,192,60373,1,0,0:0:0:0:
256,192,60373,1,2,2:0:0:0:
182,192,60716,1,0,0:0:0:0:
475,192,60888,1,0,0:0:0:0:
329,192,60888,1,0,0:0:0:0:
402,192,61230,1,0,0:0:0:0:
182,192,61230,1,2,2:0:0:0:
329,192,61402,1,0,0:0:0:0:
109,192,61402,1,2,2:0:0:0:
475,192,61573,1,0,0:0:0:0:
256,192,61573,1,2,2:0:0:0:
402,192,61745,1,0,0:0:0:0:
182,192,61745,1,0,0:0:0:0:
36,192,61745,1,2,2:0:0:0:
329,192,62088,1,0,0:0:0:0:
475,192,62430,1,0,0:0:0:0:
402,192,62430,1,0,0:0:0:0:
256,192,62602,1,0,0:0:0:0:
329,192,62773,1,0,0:0:0:0:
109,192,62773,1,2,2:0:0:0:
402,192,62945,1,0,0:0:0:0:
182,192,62945,1,2,2:0:0:0:
475,192,63116,1,0,0:0:0:0:
36,192,63116,1,0,0:0:0:0:
256,192,63116,1,2,2:0:0:0:
329,192,63459,1,0,0:0:0:0:
109,192,63459,1,2,2:0:0:0:
256,192,63630,1,0,0:0:0:0:
402,192,63802,1,0,0:0:0:0:
182,192,63802,1,2,2:0:0:0:
475,192,64145,1,0,0:0:0:0:
329,192,64145,1,2,2:0:0:0:
256,192,64316,1,0,0:0:0:0:
182,192,64488,1,2,2:0:0:0:
36,192,64488,1,0,0:0:0:0:
109,192,64659,1,0,0:0:0:0:
256,192,64830,1,0,0:0:0:0:
402,192,65002,1,0,0:0:0:0:
475,192,65173,1,0,0:0:0:0:
36,192,65345,1,0,0:0:0:0:
109,192,65516,1,0,0:0:0:0:
256,192,65688,1,0,0:0:0:0:
402,192,65859,1,0,0:0:0:0:
475,192,66030,1,0,0:0:0:0:
36,192,66202,1,0,0:0:0:0:
109,192,66373,1,0,0:0:0:0:
182,192,66545,1,0,0:0:0:0:
256,192,66716,1,0,0:0:0:0:
329,192,66888,1,0,0:0:0:0:
402,192,67059,1,0,0:0:0:0:
182,192,67230,1,0,0:0:0:0:
36,192,67230,1,0,0:0:0:70:bass.wav
329,192,67230,1,0,0:0:0:70:LR_CymbalRDW.wav
475,192,67230,1,0,0:0:0:0:
36,192,67916,1,0,0:0:0:70:bass.wav
475,192,68259,1,2,0:0:0:0:
36,192,68602,1,0,0:0:0:70:bass.wav
329,192,68602,1,2,0:0:0:0:
402,192,69116,1,2,0:0:0:0:
36,192,69288,1,0,0:0:0:70:bass.wav
475,192,69630,1,2,0:0:0:0:
36,192,69973,1,0,0:0:0:70:bass.wav
256,192,69973,1,2,0:0:0:0:
36,192,70659,1,0,0:0:0:70:bass.wav
329,192,71002,1,2,0:0:0:0:
182,192,71173,1,2,0:0:0:0:
36,192,71345,1,0,0:0:0:70:bass.wav
329,192,71345,1,2,0:0:0:0:
402,192,71859,1,2,0:0:0:0:
36,192,72030,1,0,0:0:0:70:bass.wav
256,192,72373,1,2,0:0:0:0:
182,192,72716,1,0,0:0:0:70:LR_CymbalRDW.wav
329,192,72716,1,2,2:0:0:0:
475,192,72716,1,0,0:0:0:0:
36,192,72716,1,0,0:0:0:70:bass.wav
182,192,73059,1,8,1:0:0:0:
36,192,73402,1,0,0:0:0:70:bass.wav
182,192,73745,1,8,1:0:0:0:
329,192,73745,1,2,2:0:0:0:
36,192,74088,1,0,0:0:0:70:bass.wav
475,192,74088,1,2,0:0:0:0:
182,192,74430,1,8,1:0:0:0:
36,192,74773,1,0,0:0:0:70:bass.wav
182,192,75116,1,8,1:0:0:0:
475,192,75116,1,2,0:0:0:0:
36,192,75459,1,0,0:0:0:70:bass.wav
329,192,75459,1,2,0:0:0:0:
182,192,75802,1,8,1:0:0:0:
36,192,76145,1,0,0:0:0:70:bass.wav
182,192,76488,1,8,1:0:0:0:
475,192,76488,1,2,0:0:0:0:
402,192,76659,1,2,0:0:0:0:
329,192,76830,1,2,0:0:0:0:
36,192,76830,1,0,0:0:0:70:bass.wav
182,192,77002,1,0,0:0:0:70:bass.wav
36,192,77173,1,0,0:0:0:70:bass.wav
329,192,77345,1,2,0:0:0:0:
182,192,77345,1,0,0:0:0:70:bass.wav
36,192,77516,1,0,0:0:0:70:bass.wav
182,192,77688,1,0,0:0:0:70:bass.wav
402,192,77859,1,2,0:0:0:0:
36,192,77859,1,0,0:0:0:70:bass.wav
109,192,78030,1,0,0:0:0:70:bass.wav
36,192,78202,1,0,0:0:0:70:bass.wav
475,192,78202,1,2,0:0:0:0:
182,192,78202,1,0,0:0:0:70:LR_CymbalRDW.wav
329,192,78202,1,0,0:0:0:0:
256,192,78545,1,0,0:0:0:70:kick1.wav
109,192,78545,1,0,0:0:0:0:
36,192,78888,1,0,0:0:0:70:bass.wav
182,192,79230,1,0,0:0:0:70:kick1.wav
109,192,79230,1,0,0:0:0:0:
475,192,79230,1,2,0:0:0:0:
36,192,79573,1,0,0:0:0:70:bass.wav
329,192,79573,1,2,0:0:0:0:
109,192,79916,1,0,0:0:0:0:
256,192,79916,1,0,0:0:0:70:kick1.wav
36,192,80259,1,0,0:0:0:70:bass.wav
402,192,80259,1,2,0:0:0:0:
182,192,80602,1,0,0:0:0:70:kick1.wav
109,192,80602,1,0,0:0:0:0:
475,192,80602,1,2,0:0:0:0:
182,192,80773,1,0,0:0:0:70:kick1.wav
36,192,80945,1,0,0:0:0:70:bass.wav
329,192,80945,1,2,0:0:0:0:
109,192,81288,1,0,0:0:0:0:
256,192,81288,1,0,0:0:0:70:kick1.wav
36,192,81630,1,0,0:0:0:70:bass.wav
182,192,81973,1,0,0:0:0:70:kick1.wav
109,192,81973,1,0,0:0:0:0:
329,192,81973,1,2,0:0:0:0:
402,192,82145,1,2,0:0:0:0:
36,192,82316,1,0,0:0:0:70:bass.wav
475,192,82316,1,2,0:0:0:0:
109,192,82659,1,0,0:0:0:0:
256,192,82659,1,0,0:0:0:70:kick1.wav
329,192,82830,1,2,0:0:0:0:
36,192,83002,1,0,0:0:0:70:bass.wav
182,192,83345,1,0,0:0:0:70:kick1.wav
109,192,83345,1,0,0:0:0:0:
402,192,83345,1,2,0:0:0:0:
182,192,83516,1,0,0:0:0:70:kick1.wav
36,192,83688,1,0,0:0:0:70:bass.wav
256,192,83688,1,0,0:0:0:0:
475,192,83688,1,0,0:0:0:70:LR_CymbalRDW.wav
329,192,83688,1,2,0:0:0:0:
109,192,84030,1,0,0:0:0:0:
256,192,84030,1,0,0:0:0:70:kick1.wav
36,192,84373,1,0,0:0:0:70:bass.wav
329,192,84373,1,2,0:0:0:0:
109,192,84716,1,0,0:0:0:0:
182,192,84716,1,0,0:0:0:70:kick1.wav
402,192,84716,1,2,0:0:0:0:
36,192,85059,1,0,0:0:0:70:bass.wav
475,192,85059,1,2,0:0:0:0:
256,192,85402,1,0,0:0:0:70:kick1.wav
109,192,85402,1,0,0:0:0:0:
402,192,85402,1,2,0:0:0:0:
36,192,85745,1,0,0:0:0:70:bass.wav
329,192,85745,1,2,0:0:0:0:
109,192,86088,1,0,0:0:0:0:
182,192,86088,1,0,0:0:0:70:kick1.wav
402,192,86088,1,2,0:0:0:0:
36,192,86430,1,0,0:0:0:70:bass.wav
329,192,86430,1,0,0:0:0:70:LR_CymbalRDW.wav
475,192,86430,1,2,0:0:0:0:
182,192,86602,1,0,0:0:0:70:bass.wav
36,192,86773,1,0,0:0:0:70:bass.wav
182,192,86945,1,0,0:0:0:70:bass.wav
475,192,87116,1,0,0:0:0:70:LR_CymbalRDW.wav
36,192,87116,1,0,0:0:0:70:bass.wav
329,192,87116,1,0,0:0:0:0:
182,192,87288,1,0,0:0:0:70:bass.wav
36,192,87459,1,0,0:0:0:70:bass.wav
182,192,87630,1,0,0:0:0:70:bass.wav
36,192,87802,1,0,0:0:0:70:bass.wav
475,192,87802,1,0,0:0:0:70:LR_CymbalSSD.wav
329,192,87802,1,0,0:0:0:0:
475,192,88145,1,0,0:0:0:70:LR_CymbalSSD.wav
36,192,88145,1,0,0:0:0:70:bass.wav
256,192,88145,1,0,0:0:0:0:
36,192,88488,1,0,0:0:0:70:bass.wav
182,192,88488,1,0,0:0:0:0:
475,192,88488,1,0,0:0:0:70:LR_CymbalSSD.wav
36,192,88830,1,0,0:0:0:70:bass.wav
475,192,88830,1,0,0:0:0:70:LR_CymbalSSD.wav
256,192,88830,1,0,0:0:0:0:
256,192,89002,1,0,0:0:0:70:LR_CymbalSSD.wav
36,192,89173,5,0,0:0:0:70:bass.wav
475,192,89173,1,0,0:0:0:70:soft-hitnormal.wav
329,192,89173,1,0,0:0:0:0:
182,192,89173,1,0,0:0:0:70:LR_CymbalRDW.wav
109,192,89345,1,0,0:0:0:0:
402,192,89345,1,0,0:0:0:70:soft-hitnormal.wav
329,192,89430,1,0,0:0:0:70:soft-hitnormal.wav
182,192,89430,1,0,0:0:0:0:
256,192,89516,1,0,0:0:0:0:
36,192,89516,1,0,0:0:0:70:kick1.wav
475,192,89516,1,0,0:0:0:70:soft-hitnormal.wav
329,192,89688,1,0,0:0:0:70:soft-hitnormal.wav
109,192,89688,1,0,0:0:0:0:
182,192,89859,5,0,0:0:0:70:bass.wav
402,192,89859,1,0,0:0:0:0:
109,192,89945,1,0,0:0:0:0:
329,192,89945,1,0,0:0:0:70:soft-hitnormal.wav
36,192,90030,1,0,0:0:0:0:
256,192,90030,1,0,0:0:0:70:soft-hitnormal.wav
109,192,90202,1,0,0:0:0:0:
329,192,90202,1,0,0:0:0:70:kick1.wav
475,192,90202,1,0,0:0:0:70:soft-hitnormal.wav
182,192,90373,5,0,0:0:0:70:bass.wav
402,192,90373,1,0,0:0:0:0:
182,192,90545,5,0,0:0:0:70:bass.wav
329,192,90545,1,0,0:0:0:0:
256,192,90716,1,0,0:0:0:0:
402,192,90716,1,0,0:0:0:70:soft-hitnormal.wav
329,192,90888,1,0,0:0:0:70:kick1.wav
109,192,90888,1,0,0:0:0:0:
36,192,90888,1,0,0:0:0:70:soft-hitnormal.wav
182,192,90973,1,0,0:0:0:0:
402,192,90973,1,0,0:0:0:70:soft-hitnormal.wav
256,192,91059,1,0,0:0:0:0:
475,192,91059,1,0,0:0:0:70:soft-hitnormal.wav
182,192,91145,1,0,0:0:0:0:
402,192,91145,1,0,0:0:0:70:soft-hitnormal.wav
329,192,91230,5,0,0:0:0:70:bass.wav
109,192,91230,1,0,0:0:0:0:
256,192,91402,1,0,0:0:0:70:soft-hitnormal.wav
36,192,91402,1,0,0:0:0:0:
329,192,91573,1,0,0:0:0:70:soft-hitnormal.wav
475,192,91573,1,0,0:0:0:0:
109,192,91573,1,0,0:0:0:70:kick1.wav
402,192,91745,5,0,0:0:0:70:bass.wav
182,192,91745,1,0,0:0:0:0:
182,192,91916,5,0,0:0:0:70:bass.wav
329,192,91916,1,0,0:0:0:0:
329,192,92088,1,0,0:0:0:0:
109,192,92088,1,0,0:0:0:70:soft-hitnormal.wav
182,192,92173,1,0,0:0:0:70:soft-hitnormal.wav
402,192,92173,1,0,0:0:0:0:
36,192,92259,1,0,0:0:0:70:kick1.wav
256,192,92259,1,0,0:0:0:70:soft-hitnormal.wav
475,192,92259,1,0,0:0:0:0:
329,192,92430,1,0,0:0:0:0:
109,192,92430,1,0,0:0:0:70:soft-hitnormal.wav
402,192,92602,5,0,0:0:0:70:bass.wav
182,192,92602,1,0,0:0:0:0:
109,192,92773,1,0,0:0:0:0:
329,192,92773,1,0,0:0:0:70:soft-hitnormal.wav
475,192,92945,1,0,0:0:0:70:soft-hitnormal.wav
36,192,92945,1,0,0:0:0:70:kick1.wav
256,192,92945,1,0,0:0:0:0:
182,192,93116,5,0,0:0:0:70:bass.wav
329,192,93116,1,0,0:0:0:0:
182,192,93288,5,0,0:0:0:70:bass.wav
475,192,93288,1,0,0:0:0:0:
402,192,93459,1,0,0:0:0:0:
109,192,93459,1,0,0:0:0:70:soft-hitnormal.wav
182,192,93545,1,0,0:0:0:70:soft-hitnormal.wav
329,192,93545,1,0,0:0:0:0:
256,192,93630,1,0,0:0:0:70:soft-hitnormal.wav
36,192,93630,1,0,0:0:0:70:kick1.wav
475,192,93630,1,0,0:0:0:0:
402,192,93802,1,0,0:0:0:70:soft-hitnormal.wav
109,192,93802,1,0,0:0:0:0:
182,192,93973,5,0,0:0:0:70:bass.wav
329,192,93973,1,0,0:0:0:0:
256,192,94145,1,0,0:0:0:0:
475,192,94145,1,0,0:0:0:70:soft-hitnormal.wav
182,192,94230,1,0,0:0:0:0:
402,192,94230,1,0,0:0:0:70:soft-hitnormal.wav
109,192,94316,1,0,0:0:0:70:kick1.wav
36,192,94316,1,0,0:0:0:0:
329,192,94316,1,0,0:0:0:70:soft-hitnormal.wav
475,192,94488,5,0,0:0:0:70:bass.wav
329,192,94488,1,0,0:0:0:0:
182,192,94573,5,0,0:0:0:70:bass.wav
36,192,94573,1,0,0:0:0:0:
329,192,94659,5,0,0:0:0:70:bass.wav
475,192,94659,1,0,0:0:0:0:
256,192,94830,1,0,0:0:0:70:soft-hitnormal.wav
36,192,94830,1,0,0:0:0:0:
329,192,94916,1,0,0:0:0:70:soft-hitnormal.wav
109,192,94916,1,0,0:0:0:0:
402,192,95002,1,0,0:0:0:0:
182,192,95002,1,0,0:0:0:70:kick1.wav
475,192,95002,1,0,0:0:0:70:soft-hitnormal.wav
182,192,95173,1,0,0:0:0:70:soft-hitnormal.wav
36,192,95173,1,0,0:0:0:0:
475,192,95345,5,0,0:0:0:70:bass.wav
329,192,95345,1,0,0:0:0:0:
182,192,95516,1,0,0:0:0:70:soft-hitnormal.wav
402,192,95516,1,0,0:0:0:0:
109,192,95602,1,0,0:0:0:0:
256,192,95602,1,0,0:0:0:70:soft-hitnormal.wav
329,192,95688,1,0,0:0:0:70:kick1.wav
36,192,95688,1,0,0:0:0:0:
475,192,95688,1,0,0:0:0:70:soft-hitnormal.wav
182,192,95859,5,0,0:0:0:70:bass.wav
329,192,95859,1,0,0:0:0:0:
36,192,96030,5,0,0:0:0:70:bass.wav
182,192,96030,1,0,0:0:0:0:
329,192,96202,1,0,0:0:0:0:
109,192,96202,1,0,0:0:0:70:soft-hitnormal.wav
256,192,96288,1,0,0:0:0:70:soft-hitnormal.wav
402,192,96288,1,0,0:0:0:0:
182,192,96373,1,0,0:0:0:70:soft-hitnormal.wav
36,192,96373,1,0,0:0:0:70:kick1.wav
475,192,96373,1,0,0:0:0:0:
329,192,96545,1,0,0:0:0:70:soft-hitnormal.wav
182,192,96545,1,0,0:0:0:0:
475,192,96716,5,0,0:0:0:70:bass.wav
329,192,96716,1,0,0:0:0:0:
36,192,96888,1,0,0:0:0:0:
256,192,96888,1,0,0:0:0:70:soft-hitnormal.wav
329,192,97059,1,0,0:0:0:70:kick1.wav
475,192,97059,1,0,0:0:0:0:
109,192,97059,1,0,0:0:0:70:soft-hitnormal.wav
182,192,97230,5,0,0:0:0:70:bass.wav
402,192,97230,1,0,0:0:0:0:
182,192,97402,5,0,0:0:0:70:bass.wav
36,192,97402,1,0,0:0:0:0:
329,192,97402,1,0,0:0:0:70:LR_CymbalRDW.wav
475,192,97402,1,0,0:0:0:70:soft-hitnormal.wav
402,192,97573,1,0,0:0:0:70:soft-hitnormal.wav
109,192,97573,1,0,0:0:0:0:
329,192,97659,1,0,0:0:0:70:soft-hitnormal.wav
182,192,97659,1,0,0:0:0:0:
475,192,97745,1,0,0:0:0:70:soft-hitnormal.wav
36,192,97745,1,0,0:0:0:70:kick1.wav
256,192,97745,1,0,0:0:0:0:
402,192,97916,1,0,0:0:0:0:
109,192,97916,1,0,0:0:0:70:soft-hitnormal.wav
36,192,98088,5,0,0:0:0:70:bass.wav
475,192,98088,1,0,0:0:0:70:LR_CymbalRDW.wav
329,192,98088,1,0,0:0:0:0:
182,192,98088,1,0,0:0:0:70:soft-hitnormal.wav
256,192,98259,1,0,0:0:0:0:
109,192,98259,1,0,0:0:0:70:soft-hitnormal.wav
182,192,98430,1,0,0:0:0:70:soft-hitnormal.wav
36,192,98430,1,0,0:0:0:70:kick1.wav
329,192,98430,1,0,0:0:0:0:
402,192,98602,1,0,0:0:0:0:
256,192,98602,1,0,0:0:0:70:soft-hitnormal.wav
182,192,98773,5,0,0:0:0:70:bass.wav
475,192,98773,1,0,0:0:0:70:LR_CymbalSSD.wav
329,192,98773,1,0,0:0:0:0:
475,192,98945,5,0,0:0:0:70:bass.wav
402,192,98945,1,0,0:0:0:70:LR_CymbalSSD.wav
182,192,98945,1,0,0:0:0:70:kick1.wav
329,192,99030,1,0,0:0:0:70:soft-hitnormal.wav
109,192,99030,1,0,0:0:0:0:
256,192,99116,5,0,0:0:0:70:bass.wav
36,192,99116,1,0,0:0:0:0:
475,192,99288,1,0,0:0:0:70:LR_CymbalSSD.wav
329,192,99288,1,0,0:0:0:70:kick1.wav
109,192,99288,1,0,0:0:0:0:
402,192,99459,5,0,0:0:0:70:bass.wav
182,192,99459,1,0,0:0:0:0:
36,192,99630,1,0,0:0:0:70:kick1.wav
256,192,99630,1,0,0:0:0:70:LR_CymbalSSD.wav
475,192,99630,1,0,0:0:0:70:bass.wav
182,192,99716,1,0,0:0:0:70:bass.wav
329,192,99802,5,0,0:0:0:70:bass.wav
475,192,99802,1,0,0:0:0:70:LR_CymbalSSD.wav
109,192,99802,1,0,0:0:0:70:kick1.wav
256,192,99888,1,0,0:0:0:35:bass.wav
36,192,99973,5,0,0:0:0:70:bass.wav
402,192,99973,1,0,0:0:0:70:LR_CymbalSSD.wav
182,192,99973,1,0,0:0:0:70:kick1.wav
329,192,100059,1,0,0:0:0:35:bass.wav
36,192,100145,5,0,0:0:0:70:bass.wav
475,192,100145,1,0,0:0:0:70:LR_CymbalRDW.wav
109,192,100145,1,0,0:0:0:0:
256,192,100145,1,0,0:0:0:70:kick1.wav
402,192,100316,1,0,0:0:0:70:soft-hitnormal.wav
182,192,100316,1,0,0:0:0:0:
329,192,100402,1,0,0:0:0:70:soft-hitnormal.wav
109,192,100402,1,0,0:0:0:0:
256,192,100488,1,0,0:0:0:70:soft-hitnormal.wav
36,192,100488,1,0,0:0:0:0:
475,192,100488,1,0,0:0:0:70:kick1.wav
109,192,100659,1,0,0:0:0:0:
329,192,100659,1,0,0:0:0:70:soft-hitnormal.wav
402,192,100830,5,0,0:0:0:70:bass.wav
182,192,100830,1,0,0:0:0:0:
329,192,101002,1,0,0:0:0:70:soft-hitnormal.wav
109,192,101002,1,0,0:0:0:0:
402,192,101088,1,0,0:0:0:0:
256,192,101088,1,0,0:0:0:70:soft-hitnormal.wav
36,192,101173,1,0,0:0:0:70:kick1.wav
182,192,101173,1,0,0:0:0:70:soft-hitnormal.wav
475,192,101173,1,0,0:0:0:0:
329,192,101345,5,0,0:0:0:70:bass.wav
182,192,101345,1,0,0:0:0:0:
329,192,101516,5,0,0:0:0:70:bass.wav
475,192,101516,1,0,0:0:0:0:
182,192,101688,1,0,0:0:0:0:
402,192,101688,1,0,0:0:0:70:soft-hitnormal.wav
256,192,101773,1,0,0:0:0:70:soft-hitnormal.wav
109,192,101773,1,0,0:0:0:0:
475,192,101859,1,0,0:0:0:70:kick1.wav
36,192,101859,1,0,0:0:0:0:
329,192,101859,1,0,0:0:0:70:soft-hitnormal.wav
109,192,102030,1,0,0:0:0:0:
256,192,102030,1,0,0:0:0:70:soft-hitnormal.wav
329,192,102202,5,0,0:0:0:70:bass.wav
182,192,102202,1,0,0:0:0:0:
109,192,102373,1,0,0:0:0:0:
402,192,102373,1,0,0:0:0:70:soft-hitnormal.wav
182,192,102459,1,0,0:0:0:0:
329,192,102459,1,0,0:0:0:70:soft-hitnormal.wav
475,192,102545,1,0,0:0:0:70:kick1.wav
256,192,102545,1,0,0:0:0:70:soft-hitnormal.wav
36,192,102545,1,0,0:0:0:0:
182,192,102716,5,0,0:0:0:70:bass.wav
329,192,102716,1,0,0:0:0:0:
182,192,102888,5,0,0:0:0:70:bass.wav
475,192,102888,1,0,0:0:0:0:
329,192,103059,1,0,0:0:0:70:soft-hitnormal.wav
109,192,103059,1,0,0:0:0:0:
402,192,103145,1,0,0:0:0:70:soft-hitnormal.wav
182,192,103145,1,0,0:0:0:0:
475,192,103230,1,0,0:0:0:70:kick1.wav
36,192,103230,1,0,0:0:0:0:
256,192,103230,1,0,0:0:0:70:soft-hitnormal.wav
402,192,103402,1,0,0:0:0:70:soft-hitnormal.wav
182,192,103402,1,0,0:0:0:0:
329,192,103573,5,0,0:0:0:70:bass.wav
109,192,103573,1,0,0:0:0:0:
182,192,103745,1,0,0:0:0:0:
402,192,103745,1,0,0:0:0:70:soft-hitnormal.wav
36,192,103916,1,0,0:0:0:0:
475,192,103916,1,0,0:0:0:70:kick1.wav
256,192,103916,1,0,0:0:0:70:soft-hitnormal.wav
109,192,104088,1,0,0:0:0:70:soft-hitnormal.wav
329,192,104088,1,0,0:0:0:0:
182,192,104259,5,0,0:0:0:70:bass.wav
402,192,104259,1,0,0:0:0:0:
329,192,104430,1,0,0:0:0:0:
109,192,104430,1,0,0:0:0:70:soft-hitnormal.wav
36,192,104602,1,0,0:0:0:70:kick1.wav
256,192,104602,1,0,0:0:0:0:
475,192,104602,1,0,0:0:0:70:soft-hitnormal.wav
182,192,104773,1,0,0:0:0:0:
402,192,104773,1,0,0:0:0:70:soft-hitnormal.wav
329,192,104945,5,0,0:0:0:70:bass.wav
109,192,104945,1,0,0:0:0:0:
182,192,105116,1,0,0:0:0:0:
402,192,105116,1,0,0:0:0:70:soft-hitnormal.wav
36,192,105288,1,0,0:0:0:70:kick1.wav
256,192,105288,1,0,0:0:0:0:
475,192,105288,1,0,0:0:0:70:soft-hitnormal.wav
182,192,105459,1,0,0:0:0:0:
36,192,105459,1,0,0:0:0:70:kick1.wav
402,192,105459,1,0,0:0:0:70:soft-hitnormal.wav
329,192,105630,5,0,0:0:0:70:bass.wav
36,192,105630,1,0,0:0:0:70:LR_CymbalRDW.wav
475,192,105630,1,0,0:0:0:70:kick1.wav
109,192,105630,1,0,0:0:0:0:
402,192,105802,1,0,0:0:0:70:soft-hitnormal.wav
182,192,105802,1,0,0:0:0:0:
329,192,105888,1,0,0:0:0:70:soft-hitnormal.wav
109,192,105888,1,0,0:0:0:0:
256,192,105973,1,0,0:0:0:70:soft-hitnormal.wav
36,192,105973,1,0,0:0:0:70:kick1.wav
475,192,105973,1,0,0:0:0:0:
109,192,106145,1,0,0:0:0:0:
329,192,106145,1,0,0:0:0:70:soft-hitnormal.wav
182,192,106316,5,0,0:0:0:70:bass.wav
402,192,106316,1,0,0:0:0:0:
256,192,106659,1,0,0:0:0:70:kick1.wav
36,192,106659,1,0,0:0:0:70:soft-hitnormal.wav
475,192,106659,1,0,0:0:0:0:
109,192,106830,5,0,0:0:0:70:bass.wav
402,192,106830,1,0,0:0:0:0:
182,192,106916,1,0,0:0:0:0:
329,192,106916,1,0,0:0:0:70:soft-hitnormal.wav
109,192,107002,5,0,0:0:0:70:bass.wav
475,192,107002,1,0,0:0:0:70:soft-hitnormal.wav
36,192,107002,1,0,0:0:0:70:LR_CymbalRDW.wav
256,192,107002,1,0,0:0:0:0:
402,192,107173,1,0,0:0:0:70:soft-hitnormal.wav
182,192,107173,1,0,0:0:0:0:
36,192,107345,1,0,0:0:0:70:kick1.wav
475,192,107345,1,0,0:0:0:70:soft-hitnormal.wav
256,192,107345,1,0,0:0:0:0:
109,192,107516,1,0,0:0:0:0:
329,192,107516,1,0,0:0:0:70:soft-hitnormal.wav
256,192,107688,5,0,0:0:0:70:bass.wav
182,192,107859,1,0,0:0:0:0:
402,192,107859,1,0,0:0:0:70:soft-hitnormal.wav
36,192,108030,1,0,0:0:0:70:kick1.wav
475,192,108030,1,0,0:0:0:70:soft-hitnormal.wav
256,192,108030,1,0,0:0:0:0:
109,192,108202,5,0,0:0:0:70:bass.wav
329,192,108202,1,0,0:0:0:0:
36,192,108373,5,0,0:0:0:70:bass.wav
256,192,108373,1,0,0:0:0:70:soft-hitnormal.wav
402,192,108373,1,0,0:0:0:70:LR_CymbalRDW.wav
475,192,108373,1,0,0:0:0:0:
182,192,108459,1,0,0:0:0:35:bass.wav
109,192,108545,1,0,0:0:0:0:
329,192,108545,1,0,0:0:0:35:bass.wav
256,192,108630,1,0,0:0:0:35:bass.wav
182,192,108716,5,0,0:0:0:70:bass.wav
36,192,108716,1,0,0:0:0:0:
475,192,108716,1,0,0:0:0:70:soft-hitnormal.wav
109,192,108888,1,0,0:0:0:0:
402,192,108888,1,0,0:0:0:70:soft-hitnormal.wav
182,192,109059,5,0,0:0:0:70:bass.wav
329,192,109059,1,0,0:0:0:70:soft-hitnormal.wav
475,192,109059,1,0,0:0:0:70:LR_CymbalRDW.wav
36,192,109059,1,0,0:0:0:0:
256,192,109230,1,0,0:0:0:70:soft-hitnormal.wav
109,192,109230,1,0,0:0:0:0:
329,192,109402,5,0,0:0:0:70:bass.wav
182,192,109402,1,0,0:0:0:0:
109,192,109573,1,0,0:0:0:0:
256,192,109573,1,0,0:0:0:70:soft-hitnormal.wav
36,192,109745,5,0,0:0:0:70:bass.wav
329,192,109745,1,0,0:0:0:70:LR_CymbalRDW.wav
475,192,109745,1,0,0:0:0:70:soft-hitnormal.wav
182,192,109745,1,0,0:0:0:0:
109,192,109916,1,0,0:0:0:70:kick1.wav
402,192,109916,1,0,0:0:0:70:soft-hitnormal.wav
256,192,109916,1,0,0:0:0:0:
182,192,110088,5,0,0:0:0:70:bass.wav
329,192,110088,1,0,0:0:0:0:
109,192,110259,1,0,0:0:0:70:kick1.wav
402,192,110259,1,0,0:0:0:70:soft-hitnormal.wav
256,192,110259,1,0,0:0:0:0:
36,192,110430,5,0,0:0:0:70:bass.wav
475,192,110430,1,0,0:0:0:70:soft-hitnormal.wav
182,192,110430,1,0,0:0:0:70:LR_CymbalRDW.wav
329,192,110430,1,0,0:0:0:0:
402,192,110602,5,0,0:0:0:0:
109,192,110602,1,0,0:0:0:70:bass.wav
329,192,110688,5,0,0:0:0:0:
182,192,110688,1,0,0:0:0:70:bass.wav
475,192,110773,5,0,0:0:0:70:bass.wav
256,192,110773,1,0,0:0:0:70:LR_CymbalSSD.wav
36,192,110773,1,0,0:0:0:0:
402,192,110859,5,0,0:0:0:70:bass.wav
182,192,110859,1,0,0:0:0:0:
256,192,110945,5,0,0:0:0:70:bass.wav
475,192,110945,1,0,0:0:0:70:LR_CymbalSSD.wav
36,192,110945,1,0,0:0:0:0:
329,192,111030,5,0,0:0:0:70:bass.wav
109,192,111030,1,0,0:0:0:0:
182,192,111116,5,0,0:0:0:70:soft-hitnormal.wav
402,192,111116,1,0,0:0:0:70:soft-hitnormal.wav
475,192,111116,1,0,0:0:0:70:LR_CymbalRDW.wav
