osu file format v14

[General]
AudioFilename: whisper of rose.mp3
AudioLeadIn: 0
PreviewTime: 67230
Countdown: 0
SampleSet: Soft
StackLeniency: 0.7
Mode: 3
LetterboxInBreaks: 0
SpecialStyle: 0
WidescreenStoryboard: 0

[Editor]
Bookmarks: 6887,12373,23344,34316,45287,56259,67230,78202,89173,100144,111116
DistanceSpacing: 1.2
BeatDivisor: 4
GridSize: 4
TimelineZoom: 1

[Metadata]
Title:Whisper of Rose
TitleUnicode:花语-玫瑰
Artist:himmeltengoku
ArtistUnicode:himmeltengoku
Creator:KawaEE
Version:Normal
Source:
Tags:
BeatmapID:589245
BeatmapSetID:252947

[Difficulty]
HPDrainRate:7
CircleSize:7
OverallDifficulty:7
ApproachRate:5
SliderMultiplier:1.4
SliderTickRate:1

[Events]
//Background and Video events
0,0,"666.jpg",0,0
//Break Periods
//Storyboard Layer 0 (Background)
//Storyboard Layer 1 (Fail)
//Storyboard Layer 2 (Pass)
//Storyboard Layer 3 (Foreground)
//Storyboard Sound Samples

[TimingPoints]
6888,342.857142857143,4,2,1,40,1,0
45288,-133.333333333333,4,2,1,40,0,0
67230,-100,4,2,1,40,0,0
89173,-100,4,3,1,40,0,1
111116,-100,4,3,1,40,0,0

[HitObjects]
256,192,1402,5,2,2:0:0:0:
402,192,2430,1,2,2:0:0:0:
109,192,2773,1,2,2:0:0:0:
256,192,3287,1,2,2:0:0:0:
475,192,3802,1,2,2:0:0:0:
36,192,4145,1,2,2:0:0:0:
402,192,5173,1,2,2:0:0:0:
256,192,5345,1,2,2:0:0:0:
109,192,5516,1,2,2:0:0:0:
329,192,6030,1,2,2:0:0:0:
182,192,6545,1,2,2:0:0:0:
36,192,6887,1,0,0:0:0:70:bass.wav
475,192,6887,1,0,0:0:0:70:LR_CymbalRDW.wav
329,192,7573,1,0,0:0:0:70:bass.wav
182,192,8259,1,0,0:0:0:70:bass.wav
402,192,8945,1,0,0:0:0:70:bass.wav
109,192,9630,1,0,0:0:0:70:bass.wav
256,192,10316,1,0,0:0:0:70:bass.wav
329,192,11002,1,0,0:0:0:70:bass.wav
182,192,11345,1,0,0:0:0:70:bass.wav
329,192,11688,1,0,0:0:0:70:bass.wav
182,192,12030,1,0,0:0:0:70:bass.wav
36,192,12373,1,0,0:0:0:70:bass.wav
475,192,12373,1,0,0:0:0:70:LR_CymbalRDW.wav
329,192,12716,1,8,0:0:0:70:kick1.wav
109,192,13059,1,0,0:0:0:70:bass.wav
402,192,13402,1,8,0:0:0:70:kick1.wav
182,192,13745,1,0,0:0:0:70:bass.wav
475,192,14088,1,8,0:0:0:70:kick1.wav
256,192,14430,1,0,0:0:0:70:bass.wav
36,192,14773,1,8,0:0:0:70:kick1.wav
256,192,15116,1,0,0:0:0:70:bass.wav
475,192,15459,1,8,0:0:0:70:kick1.wav
256,192,15802,1,0,0:0:0:70:bass.wav
36,192,16145,1,8,0:0:0:70:kick1.wav
329,192,16488,1,0,0:0:0:70:bass.wav
109,192,16830,1,8,0:0:0:70:kick1.wav
402,192,17173,1,0,0:0:0:70:bass.wav
182,192,17516,1,8,0:0:0:70:kick1.wav
36,192,17859,1,0,0:0:0:70:bass.wav
475,192,17859,1,0,0:0:0:70:LR_CymbalRDW.wav
329,192,18202,1,8,0:0:0:70:kick1.wav
182,192,18545,1,0,0:0:0:70:bass.wav
402,192,18888,1,8,0:0:0:70:kick1.wav
109,192,19230,1,0,0:0:0:70:bass.wav
475,192,19573,1,8,0:0:0:70:kick1.wav
36,192,19916,1,0,0:0:0:70:bass.wav
256,192,20259,1,8,0:0:0:70:kick1.wav
109,192,20602,1,0,0:0:0:0:
402,192,20602,1,0,0:0:0:70:LR_CymbalRDW.wav
256,192,20945,1,8,0:0:0:70:kick1.wav
36,192,21288,1,0,0:0:0:0:
475,192,21288,1,0,0:0:0:70:LR_CymbalRDW.wav
256,192,21630,1,8,0:0:0:70:kick1.wav
329,192,21973,1,0,0:0:0:70:LR_CymbalSSD.wav
182,192,22316,1,0,0:0:0:70:LR_CymbalSSD.wav
329,192,22659,1,0,0:0:0:70:LR_CymbalSSD.wav
182,192,23002,1,0,0:0:0:70:LR_CymbalSSD.wav
475,192,23345,1,0,0:0:0:70:LR_CymbalRDW.wav
36,192,23345,1,0,0:0:0:70:bass.wav
329,192,23688,1,8,0:0:0:0:
109,192,24030,1,0,0:0:0:70:bass.wav
256,192,24373,1,8,0:0:0:0:
402,192,24716,1,0,0:0:0:70:bass.wav
182,192,25059,1,8,0:0:0:0:
36,192,25402,1,0,0:0:0:70:bass.wav
256,192,25745,1,8,0:0:0:0:
475,192,26088,1,0,0:0:0:70:bass.wav
182,192,26430,1,8,0:0:0:0:
402,192,26773,1,0,0:0:0:70:bass.wav
109,192,27116,1,8,0:0:0:0:
329,192,27459,1,0,0:0:0:70:bass.wav
36,192,27802,1,8,0:0:0:0:
256,192,28145,1,0,0:0:0:70:bass.wav
182,192,28488,1,8,0:0:0:0:
329,192,28659,1,8,0:0:0:0:
475,192,28830,1,0,0:0:0:70:bass.wav
36,192,28830,1,0,0:0:0:70:soul.wav
256,192,29173,1,8,0:0:0:0:
402,192,29516,1,0,0:0:0:70:bass.wav
182,192,29859,1,8,0:0:0:0:
329,192,30202,1,0,0:0:0:70:bass.wav
109,192,30545,1,8,0:0:0:0:
256,192,30888,1,0,0:0:0:70:bass.wav
36,192,31230,1,8,0:0:0:0:
475,192,31573,1,0,0:0:0:70:LR_CymbalRDW.wav
329,192,31573,1,0,0:0:0:70:bass.wav
256,192,31916,1,8,0:0:0:0:
36,192,32259,1,0,0:0:0:70:LR_CymbalRDW.wav
182,192,32259,1,0,0:0:0:70:bass.wav
256,192,32602,1,8,0:0:0:0:
329,192,32945,1,0,0:0:0:70:LR_CymbalSSD.wav
182,192,33116,1,0,0:0:0:70:LR_CymbalSSD.wav
182,192,33459,1,0,0:0:0:70:LR_CymbalSSD.wav
329,192,33802,1,0,0:0:0:70:LR_CymbalSSD.wav
182,192,33973,1,0,0:0:0:70:LR_CymbalSSD.wav
329,192,34145,1,0,0:0:0:70:LR_CymbalSSD.wav
475,192,34316,1,0,0:0:0:70:LR_CymbalRDW.wav
36,192,34316,1,0,0:0:0:70:bass.wav
109,192,34659,1,0,0:0:0:70:kick1.wav
256,192,35002,1,0,0:0:0:70:bass.wav
402,192,35345,1,0,0:0:0:70:kick1.wav
256,192,35688,1,0,0:0:0:70:bass.wav
109,192,36030,1,0,0:0:0:70:kick1.wav
256,192,36373,1,0,0:0:0:70:bass.wav
402,192,36716,1,0,0:0:0:70:kick1.wav
256,192,36888,1,0,0:0:0:70:kick1.wav
109,192,37059,1,0,0:0:0:70:bass.wav
36,192,37402,1,0,0:0:0:70:kick1.wav
182,192,37745,1,0,0:0:0:70:bass.wav
329,192,38088,1,0,0:0:0:70:kick1.wav
475,192,38430,1,0,0:0:0:70:bass.wav
329,192,38773,1,0,0:0:0:70:kick1.wav
182,192,39116,1,0,0:0:0:70:bass.wav
36,192,39459,1,0,0:0:0:70:kick1.wav
256,192,39630,1,0,0:0:0:70:kick1.wav
475,192,39802,1,0,0:0:0:70:bass.wav
402,192,40145,1,0,0:0:0:70:kick1.wav
256,192,40488,1,0,0:0:0:70:bass.wav
109,192,40830,1,0,0:0:0:70:kick1.wav
329,192,41173,1,0,0:0:0:70:bass.wav
475,192,41173,1,0,0:0:0:70:LR_CymbalRDW.wav
182,192,41516,1,0,0:0:0:70:kick1.wav
36,192,41859,1,0,0:0:0:70:bass.wav
182,192,42202,1,0,0:0:0:70:kick1.wav
475,192,42545,1,0,0:0:0:70:LR_CymbalRDW.wav
329,192,42545,1,0,0:0:0:70:bass.wav
256,192,42888,1,0,0:0:0:70:kick1.wav
182,192,43230,1,0,0:0:0:70:LR_CymbalRDW.wav
109,192,43230,1,0,0:0:0:70:bass.wav
256,192,43573,1,0,0:0:0:70:kick1.wav
329,192,43916,1,0,0:0:0:70:bass.wav
402,192,43916,1,0,0:0:0:70:LR_CymbalRDW.wav
256,192,44259,1,0,0:0:0:70:kick1.wav
182,192,44602,1,0,0:0:0:70:LR_CymbalSSD.wav
329,192,44945,1,0,0:0:0:70:kick1.wav
475,192,45288,1,0,0:0:0:70:LR_CymbalRDW.wav
36,192,45288,1,0,0:0:0:0:
402,192,46316,1,2,2:0:0:0:
109,192,46659,1,2,2:0:0:0:
182,192,47345,1,2,2:0:0:0:
329,192,47688,1,2,2:0:0:0:
182,192,48030,1,2,2:0:0:0:
402,192,49059,1,2,2:0:0:0:
109,192,49230,1,2,2:0:0:0:
402,192,49402,1,2,2:0:0:0:
256,192,49916,1,2,2:0:0:0:
475,192,50430,1,2,2:0:0:0:
256,192,50602,1,2,2:0:0:0:
36,192,50773,1,2,2:0:0:0:
402,192,51802,1,2,2:0:0:0:
109,192,52145,1,2,2:0:0:0:
182,192,52830,1,2,2:0:0:0:
329,192,53173,1,2,2:0:0:0:
182,192,53516,1,2,2:0:0:0:
402,192,54545,1,2,2:0:0:0:
256,192,54716,1,2,2:0:0:0:
109,192,54888,1,2,2:0:0:0:
182,192,55402,1,2,2:0:0:0:
329,192,55916,1,2,2:0:0:0:
475,192,56259,1,2,2:0:0:0:
36,192,56259,1,0,0:0:0:70:soul2.wav
402,192,57288,1,2,2:0:0:0:
109,192,57630,1,2,2:0:0:0:
182,192,58316,1,2,2:0:0:0:
329,192,58659,1,2,2:0:0:0:
182,192,59002,1,2,2:0:0:0:
109,192,60030,1,2,2:0:0:0:
402,192,60373,1,2,2:0:0:0:
475,192,61230,1,2,2:0:0:0:
329,192,61402,1,2,2:0:0:0:
182,192,61573,1,2,2:0:0:0:
36,192,61745,1,2,2:0:0:0:
109,192,62773,1,2,2:0:0:0:
256,192,62945,1,2,2:0:0:0:
402,192,63116,1,2,2:0:0:0:
36,192,63459,1,2,2:0:0:0:
182,192,63802,1,2,2:0:0:0:
329,192,64145,1,2,2:0:0:0:
475,192,64488,1,2,2:0:0:0:
36,192,64488,1,0,0:0:0:0:
109,192,65173,1,0,0:0:0:0:
256,192,65859,1,0,0:0:0:0:
402,192,66545,1,0,0:0:0:0:
475,192,67230,1,0,0:0:0:70:LR_CymbalRDW.wav
36,192,67230,1,0,0:0:0:70:bass.wav
329,192,68259,1,2,2:0:0:0:
182,192,68602,1,2,2:0:0:0:
256,192,69116,1,2,2:0:0:0:
402,192,69630,1,2,2:0:0:0:
109,192,69973,1,2,2:0:0:0:
36,192,71002,1,2,0:0:0:0:
256,192,71173,1,2,0:0:0:0:
475,192,71345,1,2,0:0:0:0:
329,192,71859,5,2,0:0:0:0:
182,192,72373,1,2,0:0:0:0:
475,192,72716,5,0,0:0:0:70:LR_CymbalRDW.wav
36,192,72716,1,2,0:0:0:0:
109,192,73745,1,2,0:0:0:0:
329,192,74088,1,2,0:0:0:0:
402,192,75116,1,2,0:0:0:0:
182,192,75459,1,2,0:0:0:0:
475,192,76488,1,2,0:0:0:0:
256,192,76659,1,2,0:0:0:0:
36,192,76830,1,2,0:0:0:0:
182,192,77345,1,2,0:0:0:0:
329,192,77859,1,2,0:0:0:0:
36,192,78202,1,2,0:0:0:0:
475,192,78202,1,0,0:0:0:70:LR_CymbalRDW.wav
329,192,79230,1,2,0:0:0:0:
182,192,79573,1,2,0:0:0:0:
109,192,80259,1,2,0:0:0:0:
402,192,80602,1,2,0:0:0:0:
109,192,80945,1,2,0:0:0:0:
36,192,81973,1,2,0:0:0:0:
256,192,82145,1,2,0:0:0:0:
475,192,82316,1,2,0:0:0:0:
182,192,82830,1,2,0:0:0:0:
329,192,83345,1,2,0:0:0:0:
36,192,83688,1,2,0:0:0:0:
475,192,83688,1,0,0:0:0:70:LR_CymbalRDW.wav
36,192,84373,1,2,0:0:0:0:
256,192,84716,1,2,0:0:0:0:
475,192,85059,1,2,0:0:0:0:
329,192,85402,1,2,0:0:0:0:
182,192,85745,1,2,0:0:0:0:
329,192,86088,1,2,0:0:0:0:
475,192,86430,1,2,0:0:0:0:
36,192,86430,1,0,0:0:0:70:LR_CymbalRDW.wav
329,192,87116,1,0,0:0:0:0:
182,192,87116,1,0,0:0:0:70:LR_CymbalRDW.wav
256,192,87802,1,0,0:0:0:70:LR_CymbalSSD.wav
256,192,88145,1,0,0:0:0:70:LR_CymbalSSD.wav
256,192,88488,1,0,0:0:0:70:LR_CymbalSSD.wav
256,192,88830,1,0,0:0:0:70:LR_CymbalSSD.wav
475,192,89173,1,0,0:0:0:70:LR_CymbalRDW.wav
36,192,89173,1,0,0:0:0:70:bass.wav
329,192,89516,1,0,0:0:0:70:kick1.wav
182,192,89859,1,0,0:0:0:70:bass.wav
402,192,90202,1,0,0:0:0:70:kick1.wav
109,192,90545,1,0,0:0:0:70:bass.wav
329,192,90888,1,0,0:0:0:70:kick1.wav
182,192,91230,1,0,0:0:0:70:bass.wav
329,192,91573,1,0,0:0:0:70:kick1.wav
329,192,91745,1,0,0:0:0:70:kick1.wav
182,192,91916,1,0,0:0:0:70:bass.wav
402,192,92259,1,0,0:0:0:70:kick1.wav
109,192,92602,1,0,0:0:0:70:bass.wav
329,192,92945,1,0,0:0:0:70:kick1.wav
36,192,93288,1,0,0:0:0:70:bass.wav
256,192,93630,1,0,0:0:0:70:kick1.wav
475,192,93973,1,0,0:0:0:70:bass.wav
182,192,94316,1,0,0:0:0:70:kick1.wav
182,192,94488,1,0,0:0:0:70:kick1.wav
402,192,94659,1,0,0:0:0:70:bass.wav
256,192,95002,1,0,0:0:0:70:kick1.wav
109,192,95345,1,0,0:0:0:70:bass.wav
256,192,95688,1,0,0:0:0:70:kick1.wav
475,192,96030,1,0,0:0:0:70:bass.wav
256,192,96373,1,0,0:0:0:70:kick1.wav
36,192,96716,1,0,0:0:0:70:bass.wav
256,192,97059,1,0,0:0:0:70:kick1.wav
109,192,97402,1,0,0:0:0:70:bass.wav
402,192,97402,1,0,0:0:0:70:LR_CymbalRDW.wav
256,192,97745,1,0,0:0:0:70:kick1.wav
475,192,98088,1,0,0:0:0:70:LR_CymbalRDW.wav
36,192,98088,1,0,0:0:0:70:bass.wav
256,192,98430,1,0,0:0:0:70:kick1.wav
329,192,98773,1,0,0:0:0:70:LR_CymbalSSD.wav
36,192,98773,1,0,0:0:0:70:bass.wav
475,192,98945,1,0,0:0:0:70:LR_CymbalSSD.wav
256,192,99116,1,0,0:0:0:70:kick1.wav
402,192,99288,1,0,0:0:0:70:LR_CymbalSSD.wav
182,192,99459,1,0,0:0:0:70:bass.wav
329,192,99630,1,0,0:0:0:70:LR_CymbalSSD.wav
475,192,99802,1,0,0:0:0:70:LR_CymbalSSD.wav
36,192,99802,1,0,0:0:0:70:kick1.wav
329,192,99973,1,0,0:0:0:70:LR_CymbalSSD.wav
182,192,99973,1,0,0:0:0:70:kick1.wav
475,192,100145,1,0,0:0:0:70:LR_CymbalRDW.wav
36,192,100145,1,0,0:0:0:0:
256,192,100488,1,0,0:0:0:70:kick1.wav
109,192,100488,1,0,0:0:0:0:
36,192,100830,1,0,0:0:0:70:bass.wav
475,192,101173,1,0,0:0:0:70:kick1.wav
329,192,101173,1,0,0:0:0:0:
256,192,101345,1,0,0:0:0:0:
182,192,101516,1,0,0:0:0:70:bass.wav
36,192,101516,1,0,0:0:0:0:
402,192,101859,1,0,0:0:0:70:kick1.wav
256,192,101859,1,0,0:0:0:0:
475,192,102202,1,0,0:0:0:70:bass.wav
36,192,102545,1,0,0:0:0:0:
182,192,102545,1,0,0:0:0:70:kick1.wav
256,192,102716,1,0,0:0:0:0:
329,192,102888,1,0,0:0:0:70:bass.wav
475,192,102888,1,0,0:0:0:0:
109,192,103230,1,0,0:0:0:0:
256,192,103230,1,0,0:0:0:70:kick1.wav
402,192,103573,1,0,0:0:0:70:bass.wav
182,192,103916,1,0,0:0:0:0:
329,192,103916,1,0,0:0:0:70:kick1.wav
475,192,104259,1,0,0:0:0:70:bass.wav
256,192,104602,1,0,0:0:0:0:
402,192,104602,1,0,0:0:0:70:kick1.wav
36,192,104945,1,0,0:0:0:70:bass.wav
182,192,105116,1,0,0:0:0:0:
329,192,105288,1,0,0:0:0:70:kick1.wav
182,192,105459,1,0,0:0:0:0:
36,192,105630,1,0,0:0:0:70:LR_CymbalRDW.wav
475,192,105630,1,0,0:0:0:70:bass.wav
329,192,105802,1,0,0:0:0:0:
256,192,105973,1,0,0:0:0:70:kick1.wav
182,192,106145,1,0,0:0:0:0:
475,192,106316,1,0,0:0:0:0:
36,192,106316,1,0,0:0:0:70:bass.wav
182,192,106659,1,0,0:0:0:70:kick1.wav
256,192,106830,1,0,0:0:0:0:
329,192,107002,1,0,0:0:0:70:bass.wav
36,192,107002,1,0,0:0:0:70:LR_CymbalRDW.wav
182,192,107173,1,0,0:0:0:0:
329,192,107345,1,0,0:0:0:0:
475,192,107516,1,0,0:0:0:0:
475,192,107859,1,0,0:0:0:0:
329,192,108030,1,0,0:0:0:0:
182,192,108202,1,0,0:0:0:0:
475,192,108373,1,0,0:0:0:70:LR_CymbalRDW.wav
36,192,108373,1,0,0:0:0:0:
256,192,108545,1,0,0:0:0:0:
109,192,108716,1,0,0:0:0:0:
329,192,108888,1,0,0:0:0:0:
182,192,109059,1,0,0:0:0:0:
36,192,109059,1,0,0:0:0:70:LR_CymbalRDW.wav
402,192,109230,1,0,0:0:0:0:
256,192,109402,1,0,0:0:0:0:
475,192,109573,1,0,0:0:0:0:
329,192,109745,1,0,0:0:0:70:LR_CymbalRDW.wav
182,192,109745,1,0,0:0:0:0:
36,192,109916,1,0,0:0:0:0:
256,192,110088,1,0,0:0:0:0:
475,192,110259,1,0,0:0:0:0:
329,192,110430,1,0,0:0:0:0:
182,192,110430,1,0,0:0:0:70:bass.wav
402,192,110602,1,0,0:0:0:0:
109,192,110602,1,0,0:0:0:70:bass.wav
182,192,110773,1,0,0:0:0:70:bass.wav
329,192,110773,1,0,0:0:0:0:
402,192,110945,1,0,0:0:0:0:
109,192,110945,1,0,0:0:0:70:bass.wav
36,192,111116,1,0,0:0:0:70:LR_CymbalRDW.wav
475,192,111116,1,0,0:0:0:70:soft-hitnormal.wav
