osu file format v11

[General]
AudioFilename: SaikaR.mp3
AudioLeadIn: 1500
PreviewTime: 15263
Countdown: 0
SampleSet: Soft
StackLeniency: 0.4
Mode: 0
LetterboxInBreaks: 0

[Editor]
Bookmarks: 16041,30259,58703,87148,94255,115592,144037
DistanceSpacing: 1
BeatDivisor: 4
GridSize: 4

[Metadata]
Title:Saika (Another Style Remix)
TitleUnicode:彩華 (Another Style Remix)
Artist:himmeltengoku
ArtistUnicode:himmeltengoku
Creator:LKs
Version:Spinboxer
Source:
Tags:Cytus Rabpit spboxer3 Kiiwa AmamiyaYuko
BeatmapID:175430
BeatmapSetID:57923

[Difficulty]
HPDrainRate:7
CircleSize:4
OverallDifficulty:7
ApproachRate:9
SliderMultiplier:1.8
SliderTickRate:1

[Events]
//Background and Video events
0,0,"bg.jpg"
//Break Periods
2,87340,93651
//Storyboard Layer 0 (Background)
//Storyboard Layer 1 (Fail)
//Storyboard Layer 2 (Pass)
//Storyboard Layer 3 (Foreground)
//Storyboard Sound Samples
//Background Colour Transformations
3,100,163,162,255

[TimingPoints]
1808,444.444444444444,4,2,1,70,1,0
12474,-100,4,2,2,70,0,0
12919,-100,4,2,1,70,0,0
13030,-100,4,2,2,70,0,0
13807,-100,4,2,1,70,0,0
14585,-50,4,2,1,70,0,0
15363,-100,4,2,2,70,0,0
15807,-100,4,2,0,70,0,0
16030,-66.6666666666667,4,2,2,70,0,0
16141,-66.6666666666667,4,2,1,70,0,0
22474,-66.6666666666667,4,2,2,70,0,0
22696,-66.6666666666667,4,2,1,70,0,0
28474,-50,4,2,1,70,0,0
29363,-66.6666666666667,4,2,1,70,0,0
30252,-100,4,2,1,70,0,0
42696,-100,4,2,1,50,0,0
43029,-50,4,2,1,50,0,0
43474,-50,4,2,1,50,0,0
43807,-100,4,2,1,50,0,0
44474,-100,4,2,2,70,0,0
51585,-100,4,2,1,50,0,0
51696,-100,4,2,2,70,0,0
53363,-100,4,2,1,50,0,0
53474,-100,4,2,2,70,0,0
56918,-100,4,2,2,50,0,0
57807,-100,4,2,2,60,0,0
58251,-100,4,2,2,70,0,0
58696,-100,4,1,1,70,0,0
58918,-100,4,2,2,70,0,0
60474,-100,4,1,1,70,0,0
60585,-100,4,2,2,70,0,0
69363,-100,4,2,1,70,0,0
69807,-100,4,2,2,70,0,0
70251,-100,4,2,2,75,0,0
70696,-100,4,2,2,80,0,0
71140,-100,4,2,1,70,0,0
71585,-100,4,2,2,70,0,0
72029,-100,4,2,1,70,0,0
72140,-100,4,2,2,70,0,0
72474,-100,4,2,1,70,0,0
72696,-100,4,2,2,70,0,0
72918,-66.6666666666667,4,1,1,70,0,0
76474,-66.6666666666667,4,2,2,70,0,0
83585,-66.6666666666667,4,1,2,70,0,0
85363,-66.6666666666667,4,1,2,75,0,0
86252,-66.6666666666667,4,1,2,65,0,0
87141,-66.6666666666667,4,1,2,75,0,0
94251,-100,4,2,2,70,0,0
101363,-100,4,1,1,70,0,0
101474,-100,4,2,2,70,0,0
103140,-100,4,1,1,70,0,0
103251,-100,4,2,2,70,0,0
104918,-100,4,1,1,70,0,0
105029,-100,4,2,2,70,0,0
106696,-100,4,1,1,70,0,0
106807,-100,4,2,2,70,0,0
108474,-100,4,2,1,70,0,0
112474,-100,4,1,1,70,0,0
112918,-100,4,2,2,70,0,0
113807,-100,4,1,1,70,0,0
115585,-66.6666666666667,4,1,1,70,0,0
115696,-66.6666666666667,4,2,1,70,0,0
119140,-66.6666666666667,4,1,1,70,0,0
119251,-66.6666666666667,4,2,1,70,0,0
126251,-66.6666666666667,4,1,1,70,0,0
126363,-66.6666666666667,4,2,1,70,0,0
129807,-66.6666666666667,4,1,1,70,0,0
129918,-66.6666666666667,4,2,2,70,0,0
136918,-66.6666666666667,4,2,1,70,0,0
137140,-66.6666666666667,4,2,2,70,0,0
140474,-66.6666666666667,4,1,2,70,0,0
142251,-66.6666666666667,4,1,2,70,0,0
143585,-66.6666666666667,4,1,2,65,0,0
144029,-66.6666666666667,4,2,2,75,0,0

[Colours]
Combo1 : 165,153,249
Combo2 : 255,96,255
Combo3 : 133,250,194
SliderBorder : 255,250,228

[HitObjects]
392,112,1141,2,0,B|488:88,2,90
432,216,1808,1,2,0:0:0
344,232,2030,1,0,0:0:0
256,264,2252,1,8,0:0:0
168,232,2474,1,0,0:0:0
366,240,2919,5,0,0:0:0
256,280,3141,1,8,0:0:0
146,240,3363,1,0,0:0:0
256,320,3585,5,2,0:0:0
200,248,3807,1,0,0:0:0
112,216,4030,1,8,0:0:0
24,240,4252,1,0,0:0:0
211,215,4696,5,0,0:0:0
117,172,4919,1,8,0:0:0
17,189,5141,1,0,0:0:0
184,96,5363,6,0,B|232:88|272:48,1,90,2|0,0:0|0:0,0:0:0
216,168,5807,2,0,B|198:213|213:268,1,90,8|0,0:0|0:0,0:0:0
304,344,6474,6,0,B|321:298|306:243,2,90,0|8|0,0:0|0:0|0:0,0:0:0
384,192,7141,1,2,0:0:0
424,112,7363,1,0,0:0:0
384,104,7474,1,0,0:0:0
344,96,7585,1,8,0:0:0
88,160,7807,1,0,0:0:0
168,144,8029,1,0,0:0:0
376,232,8252,1,0,0:0:0
296,216,8474,1,8,0:0:0
136,304,8696,1,0,0:0:0
176,296,8807,1,0,0:0:0
216,288,8918,5,2,0:0:0
304,304,9141,1,0,0:0:0
392,288,9363,2,0,B|488:312,1,90,8|0,0:0|0:0,0:0:0
232,192,10030,5,0,0:0:0
152,144,10252,2,0,B|112:120|80:64,1,90,8|0,0:0|0:0,0:0:0
40,152,10696,5,2,0:0:0
32,240,10919,1,0,0:0:0
64,320,11141,1,8,0:0:0
144,360,11363,1,0,0:0:0
71,188,11807,5,0,0:0:0
112,288,12030,1,8,0:0:0
212,338,12252,1,0,0:0:0
320,320,12474,2,0,B|432:288,2,90,2|0|8,0:0|0:0|0:0,0:0:0
224,264,13141,1,2,0:0:0
184,240,13252,1,8,0:0:0
144,216,13363,2,0,B|48:200,2,90,2|8|8,0:0|0:0|0:0,0:0:0
216,168,14030,1,0,0:0:0
432,80,14252,5,4,0:0:0
80,72,14585,6,0,B|170:86,1,90,0|4,0:0|0:0,0:0:0
428,176,15030,2,0,B|338:190,1,90,0|4,0:0|0:0,0:0:0
256,352,15363,5,8,0:0:0
256,352,15585,1,2,0:0:0
256,304,15696,1,0,0:0:0
256,256,15807,1,2,0:0:0
176,176,16030,5,4,0:0:0
72,200,16252,1,2,0:0:0
32,96,16474,2,0,B|64:64|120:56|176:80,1,135.000005149842,8|0,0:0|0:0,0:0:0
256,128,16919,1,0,0:0:0
344,192,17141,2,0,B|382:209|438:201|470:169,2,135.000005149842,0|8|0,0:0|0:0|0:0,0:0:0
368,88,17807,5,0,0:0:0
256,128,18030,1,2,0:0:0
240,232,18252,1,8,0:0:0
320,304,18474,1,0,0:0:0
128,224,18696,1,0,0:0:0
40,280,18919,1,0,0:0:0
64,184,19141,2,0,B|96:120|64:48,1,135.000005149842,8|0,0:0|0:0,0:0:0
176,56,19585,5,0,0:0:0
256,128,19807,1,2,0:0:0
336,56,20030,1,8,0:0:0
256,128,20252,1,0,0:0:0
256,184,20363,1,0,0:0:0
256,240,20474,1,0,0:0:0
360,272,20696,1,0,0:0:0
256,184,20919,1,8,0:0:0
304,64,21141,1,0,0:0:0
400,112,21363,6,0,B|456:160|448:232,1,135.000005149842,0|2,0:0|0:0,0:0:0
472,104,21807,2,0,B|402:128|344:85,1,135.000005149842,8|0,0:0|0:0,0:0:0
304,64,22104,2,0,B|248:64,2,45.0000017166138,0|0|0,0:0|0:0|0:0,0:0:0
400,112,22474,1,8,0:0:0
424,216,22696,1,8,0:0:0
392,320,22919,1,0,0:0:0
288,336,23141,6,0,B|260:320|221:323|221:323|202:299|165:289,1,135.000005149842,4|0,0:0|0:0,0:0:0
88,312,23474,1,0,0:0:0
160,344,23585,2,0,B|216:320|224:264|200:216,1,135.000005149842,8|0,0:0|0:0,0:0:0
192,184,23919,1,0,0:0:0
152,144,24030,1,0,0:0:0
304,224,24252,1,0,0:0:0
359,239,24363,1,0,0:0:0
407,228,24475,2,0,B|443:226|487:192|480:131,1,135.000005149842,8|8,0:0|0:0,0:0:0
472,120,24807,6,0,B|512:200,1,67.5000025749208
464,352,25141,2,0,B|424:272,1,67.5000025749208
424,272,25363,2,0,B|400:328|344:335|312:318,2,135.000005149842,8|0|0,0:0|0:0|0:0,0:0:0
376,176,26030,1,0,0:0:0
324,164,26141,1,0,0:0:0
272,152,26252,1,8,0:0:0
168,128,26474,6,0,B|104:112,2,67.5000025749208,8|0|0,0:0|0:0|0:0,0:0:0
168,256,26919,2,0,B|104:272,2,67.5000025749208,0|0|8,0:0|0:0|0:0,0:0:0
288,192,27363,1,0,0:0:0
352,192,27474,1,0,0:0:0
416,192,27585,1,0,0:0:0
400,88,27807,2,0,B|448:72,3,45.0000017166138,0|0|0|8,0:0|0:0|0:0|0:0,0:0:0
400,296,28252,1,0,0:0:0
256,320,28474,5,4,0:0:0
72,272,28807,5,0,0:0:0
72,272,28919,1,4,0:0:0
440,176,29252,1,0,0:0:0
440,176,29363,1,4,0:0:0
256,80,29585,5,0,0:0:0
256,136,29696,1,0,0:0:0
256,192,29807,1,4,0:0:0
256,80,30030,1,4,0:0:0
256,320,30252,5,4,0:0:0
344,296,30474,1,2,0:0:0
384,216,30696,1,0,0:0:0
376,128,30918,1,2,0:0:0
344,296,31363,5,8,0:0:0
384,216,31585,1,0,0:0:0
376,128,31807,1,8,0:0:0
448,72,32029,5,0,0:0:0
376,128,32251,1,2,0:0:0
288,136,32474,1,0,0:0:0
200,120,32696,1,2,0:0:0
376,128,33140,5,8,0:0:0
288,136,33363,1,0,0:0:0
200,120,33585,1,8,0:0:0
160,96,33696,1,0,0:0:0
136,56,33807,5,0,0:0:0
168,136,34029,1,2,0:0:0
168,224,34251,1,0,0:0:0
128,304,34474,1,2,0:0:0
216,336,34696,2,0,B|256:352|304:345,1,90,0|2,0:0|0:0,0:0:0
88,224,35140,2,0,B|48:208|0:214,1,90,0|2,0:0|0:0,0:0:0
248,184,35585,6,0,B|352:160,2,90,0|8|0,0:0|0:0|0:0,0:0:0
168,152,36251,1,8,0:0:0
128,136,36363,1,0,0:0:0
88,120,36474,1,8,0:0:0
176,120,36696,1,8,0:0:0
264,96,36918,1,8,0:0:0
328,40,37140,1,8,0:0:0
400,88,37363,5,4,0:0:0
440,168,37585,1,2,0:0:0
424,256,37807,1,0,0:0:0
360,320,38029,1,2,0:0:0
440,168,38474,5,8,0:0:0
424,256,38696,1,0,0:0:0
360,320,38918,1,8,0:0:0
272,288,39140,5,0,0:0:0
184,272,39363,1,2,0:0:0
96,280,39585,1,0,0:0:0
16,328,39807,1,2,0:0:0
184,272,40251,5,8,0:0:0
96,280,40473,1,0,0:0:0
16,328,40695,1,8,0:0:0
40,288,40807,1,0,0:0:0
40,240,40918,6,0,B|40:192|20:152,1,90,0|2,0:0|0:0,0:0:0
104,32,41363,2,0,B|104:80|123:119,1,90,0|2,0:0|0:0,0:0:0
152,160,41696,5,0,0:0:0
184,192,41807,2,0,B|232:240|308:239,1,135,0|8,0:0|0:0,0:0:0
336,224,42251,2,0,B|288:240|264:304,1,90,0|8,0:0|0:0,0:0:0
256,376,42696,5,4,0:0:0
440,72,43029,6,0,B|348:101,1,90,0|4,0:0|0:0,0:0:0
91,133,43474,2,0,B|183:162,1,90,0|4,0:0|0:0,0:0:0
384,320,43807,6,0,B|408:272|380:220,1,90,0|4,0:0|0:0,0:0:0
296,288,44251,1,0,0:0:0
336,312,44363,1,0,0:0:0
384,320,44474,5,4,0:0:0
448,256,44696,1,8,0:0:0
416,168,44918,1,0,0:0:0
440,80,45140,1,8,0:0:0
352,104,45363,2,0,B|312:120|263:119,1,90
224,104,45696,1,8,0:0:0
248,144,45807,2,0,B|272:192|248:240,1,90,2|0,0:0|0:0,0:0:0
168,272,46251,6,0,B|80:264,1,90,0|8,0:0|0:0,0:0:0
352,232,46696,2,0,B|440:224,1,90,0|8,0:0|0:0,0:0:0
256,328,47140,1,0,0:0:0
183,173,47363,1,0,0:0:0
160,136,47474,1,8,0:0:0
169,94,47585,1,2,0:0:0
342,33,47807,1,2,0:0:0
351,75,47918,1,0,0:0:0
328,112,48029,6,0,B|440:136,1,90,0|8,0:0|0:0,0:0:0
170,93,48474,2,0,B|58:69,2,90,8|8|0,0:0|0:0|0:0,0:0:0
224,168,49140,1,8,0:0:0
256,256,49363,1,0,0:0:0
256,344,49585,1,8,0:0:0
288,168,49807,6,0,B|296:160|296:160|296:176|296:176|304:160|304:160|304:176|304:176|312:160|312:160|312:176|312:176|320:160|320:160|320:176|320:176|328:160|328:160|328:176|328:176|336:168|336:168|392:184|448:152,1,270,0|8,0:0|0:0,0:0:0
456,120,50585,1,0,0:0:0
480,80,50696,2,0,B|472:176,1,90,2|2,0:0|0:0,0:0:0
384,328,51140,2,0,B|392:232,1,90,2|2,0:0|0:0,0:0:0
280,272,51585,6,0,B|208:248|120:264|120:264|208:296|264:272,1,270,4|0,0:0|0:0,0:0:0
260,192,52363,1,0,0:0:0
320,256,52474,2,0,B|368:240|400:200,2,90,0|0|2,0:0|0:0|0:0,0:0:0
384,320,53140,1,0,0:0:0
394,207,53363,6,0,B|450:156|480:72|480:72|409:132|402:193,1,270,4|0,0:0|0:0,0:0:0
476,228,54141,1,0,0:0:0
387,249,54252,2,0,B|376:298|395:346,2,90,0|0|2,0:0|0:0|0:0,0:0:0
300,273,54918,1,0,0:0:0
212,231,55140,6,0,B|169:216|140:178,1,90,2|0,0:0|0:0,0:0:0
329,187,55585,2,0,B|371:201|400:239,1,90,2|0,0:0|0:0,0:0:0
249,150,56029,2,0,B|287:120|301:78,1,90,2|2,0:0|0:0,0:0:0
299,272,56474,2,0,B|260:301|246:343,1,90,2|2,0:0|0:0,0:0:0
172,316,56807,1,0,0:0:0
128,256,56918,5,8,0:0:0
118,246,57029,1,8,0:0:0
110,235,57140,1,8,0:0:0
104,223,57251,1,8,0:0:0
152,144,57363,1,2,0:0:0
155,130,57474,1,2,0:0:0
157,116,57585,1,2,0:0:0
156,103,57696,1,2,0:0:0
152,92,57807,6,0,B|120:92,5,30
232,40,58251,2,0,B|272:40,6,22.5
328,80,58696,6,0,B|368:120|368:168,2,90,4|2|0,0:0|0:0|0:0,0:0:0
408,40,59363,1,8,0:0:0
404,84,59474,1,0,0:0:0
392,128,59585,2,0,B|366:178|320:193,2,90,0|8|0,0:0|0:0|0:0,0:0:0
472,168,60251,1,8,0:0:0
416,240,60474,2,0,B|432:328,1,90,4|2,0:0|0:0,0:0:0
328,272,60918,2,0,B|312:184,1,90,0|8,0:0|0:0,0:0:0
276,212,61252,1,0,0:0:0
240,240,61363,2,8,B|188:244|188:244|152:276|88:248,1,135,0|8,0:0|0:0,0:0:0
104,224,61807,2,0,B|120:312,1,90,0|8,0:0|0:0,0:0:0
40,64,62251,5,0,0:0:0
48,152,62474,1,2,0:0:0
209,69,62696,1,0,0:0:0
128,104,62919,1,8,0:0:0
258,226,63140,1,0,0:0:0
200,160,63363,1,2,0:0:0
118,321,63585,1,0,0:0:0
163,245,63808,1,8,0:0:0
216,320,64029,6,0,B|280:352|360:328,1,135,0|2,0:0|0:0,0:0:0
488,248,64474,6,0,B|424:216|344:240,1,135,0|8,0:0|0:0,0:0:0
216,216,64918,2,0,B|200:168,1,45
200,224,65140,2,0,B|175:179,1,45,8|8,0:0|0:0,0:0:0
176,232,65363,2,0,B|144:192,1,45
163,244,65585,2,0,B|125:210,1,45,8|10,0:0|0:0,0:0:0
152,256,65807,6,0,B|104:272|56:256,2,90,4|0|2,0:0|0:0|0:0,0:0:0
232,296,66474,1,0,0:0:0
272,312,66585,2,0,B|320:328|368:312,2,90,0|8|8,0:0|0:0|0:0,0:0:0
232,296,67140,2,0,B|200:184,1,90,0|2,0:0|0:0,0:0:0
192,168,67474,1,0,0:0:0
176,128,67585,6,0,B|272:128,2,90,0|0|8,0:0|0:0|0:0,0:0:0
144,40,68251,1,0,0:0:0
104,64,68363,2,0,B|8:64,2,90,0|8|8,0:0|0:0|0:0,0:0:0
80,104,68918,2,0,B|56:144|80:216,1,90,0|8,0:0|0:0,0:0:0
88,232,69251,1,8,0:0:0
112,272,69363,6,0,B|136:312|112:384,1,90
232,232,69807,2,0,B|232:278|176:328,1,90,2|2,0:0|0:0,0:0:0
360,248,70251,2,0,B|337:288|263:304,1,90,2|2,0:0|0:0,0:0:0
454,331,70695,2,0,B|414:355|342:331,1,90,2|2,0:0|0:0,0:0:0
480,192,71140,5,4,0:0:0
336,160,71363,2,0,B|304:152,3,30,0|0|0|8,0:0|0:0|0:0|0:0,0:0:0
380,300,71807,1,2,0:0:0
420,124,72029,1,4,0:0:0
472,280,72251,2,0,B|496:288,4,22.5,0|0|0|0|12,0:0|0:0|0:0|0:0|0:0,0:0:0
316,244,72696,1,2,0:0:0
192,304,72918,5,4,0:0:0
64,256,73140,2,0,B|40:232|40:194,1,67.5000025749208,2|2,0:0|0:0,0:0:0
56,144,73363,2,0,B|120:144|185:111,1,135.000005149842,8|2,0:0|0:0,0:0:0
152,152,73696,2,0,B|224:152|268:210,2,135.000005149842,2|2|2,0:0|0:0|0:0,0:0:0
168,208,74251,2,0,B|176:256|176:256|200:288|200:288|208:344,1,135.000005149842,8|2,0:0|0:0,0:0:0
312,352,74696,5,4,0:0:0
408,304,74919,2,0,B|384:272|400:232,1,67.5000025749208,2|2,0:0|0:0,0:0:0
448,264,75140,2,0,B|327:203,1,135.000005149842,8|2,0:0|0:0,0:0:0
376,176,75474,2,0,B|432:136|424:56,2,135.000005149842,2|2|2,0:0|0:0|0:0,0:0:0
328,152,76029,2,0,B|207:91,1,135.000005149842,8|2,0:0|0:0,0:0:0
104,128,76474,5,0,0:0:0
144,232,76696,1,10,0:0:0
120,280,76807,1,10,0:0:0
96,328,76918,1,0,0:0:0
224,240,77140,1,2,0:0:0
219,279,77251,1,2,0:0:0
214,319,77362,1,0,0:0:0
304,224,77585,1,8,0:0:0
310,252,77696,1,8,0:0:0
317,282,77807,1,0,0:0:0
424,352,78029,5,10,0:0:0
418,324,78140,1,8,0:0:0
411,294,78251,1,0,0:0:0
472,224,78474,1,2,0:0:0
460,205,78585,1,0,0:0:0
447,185,78696,1,0,0:0:0
472,88,78918,1,2,0:0:0
458,77,79029,1,0,0:0:0
444,66,79140,1,0,0:0:0
336,72,79363,2,0,B|264:92,2,67.5000025749208
192,112,79807,1,8,0:0:0
88,104,80029,5,4,0:0:0
120,208,80251,1,0,0:0:0
136,264,80363,1,0,0:0:0
152,320,80474,1,8,0:0:0
196,101,80696,1,0,0:0:0
192,160,80808,1,0,0:0:0
187,218,80919,1,8,0:0:0
256,136,81140,2,0,B|288:80,3,45.0000017166138,0|0|0|8,0:0|0:0|0:0|0:0,0:0:0
288,248,81585,5,0,0:0:0
328,280,81696,1,0,0:0:0
384,288,81807,1,2,0:0:0
352,192,82029,1,0,0:0:0
400,208,82140,1,0,0:0:0
455,196,82251,1,2,0:0:0
392,112,82474,1,0,0:0:0
442,110,82585,1,0,0:0:0
490,80,82696,1,2,0:0:0
296,80,82918,1,0,0:0:0
246,78,83029,1,0,0:0:0
198,48,83140,1,2,0:0:0
88,48,83363,5,0,0:0:0
128,88,83474,1,0,0:0:0
144,136,83585,1,2,0:0:0
144,192,83696,1,0,0:0:0
120,240,83807,1,0,0:0:0
80,272,83918,1,0,0:0:0
176,296,84029,1,2,0:0:0
224,323,84140,1,0,0:0:0
277,327,84251,1,0,0:0:0
325,308,84362,1,0,0:0:0
415,330,84474,5,2,0:0:0
408,280,84585,1,0,0:0:0
432,230,84696,1,0,0:0:0
471,197,84807,1,0,0:0:0
447,112,84918,1,2,0:0:0
408,144,85029,1,0,0:0:0
352,148,85140,1,0,0:0:0
304,130,85251,1,0,0:0:0
192,104,85363,6,0,B|112:120,1,67.5000025749208,2|0,0:0|0:0,0:0:0
184,208,85585,2,0,B|264:192,1,67.5000025749208,2|0,0:0|0:0,0:0:0
177,116,85807,2,0,B|101:146,1,67.5000025749208,2|0,0:0|0:0,0:0:0
187,220,86029,2,0,B|263:190,1,67.5000025749208,2|0,0:0|0:0,0:0:0
106,167,86251,6,0,B|36:209,1,67.5000025749208,10|2,0:0|0:0,0:0:0
134,267,86473,2,0,B|203:224,1,67.5000025749208,10|2,0:0|0:0,0:0:0
96,183,86696,2,0,B|34:236,1,67.5000025749208,10|2,0:0|0:0,0:0:0
141,277,86918,2,0,B|202:223,1,67.5000025749208,10|2,0:0|0:0,0:0:0
54,324,87140,5,4,0:0:0
256,288,94251,5,0,0:0:0
168,264,94474,1,0,0:0:0
104,200,94696,1,8,0:0:0
88,112,94918,1,0,0:0:0
120,248,95140,1,0,0:0:0
119,156,95362,1,0,0:0:0
170,82,95584,1,8,0:0:0
104,200,95807,5,0,0:0:0
119,156,95918,1,8,0:0:0
152,128,96029,1,0,0:0:0
224,184,96251,1,8,0:0:0
272,176,96363,1,0,0:0:0
312,152,96474,1,0,0:0:0
368,80,96696,1,0,0:0:0
456,96,96918,1,8,0:0:0
488,184,97140,1,0,0:0:0
464,272,97363,1,0,0:0:0
392,320,97585,1,8,0:0:0
340,244,97807,6,0,B|310:207|264:197,1,90
173,172,98251,1,8,0:0:0
340,244,98474,6,0,B|310:207|264:197,1,90
89,192,98918,1,8,0:0:0
340,244,99140,6,0,B|310:207|264:197,1,90
23,250,99585,1,8,0:0:0
340,244,99807,6,0,B|310:207|264:197,1,90
0,336,100251,1,8,0:0:0
40,352,100363,1,0,0:0:0
88,352,100474,1,0,0:0:0
176,328,100696,1,0,0:0:0
256,280,100918,2,0,B|285:316|331:326,1,90,8|8,0:0|0:0,0:0:0
416,304,101363,5,4,0:0:0
448,216,101585,1,0,0:0:0
424,128,101807,1,0,0:0:0
344,72,102029,1,8,0:0:0
160,72,102474,2,0,B|104:72,2,45,0|0|8,0:0|0:0|0:0,0:0:0
200,152,102918,1,0,0:0:0
200,152,103140,5,4,0:0:0
160,232,103363,1,0,0:0:0
176,272,103474,1,0,0:0:0
192,312,103585,1,2,0:0:0
112,360,103807,1,0,0:0:0
280,280,104029,2,0,B|320:296|368:283,1,90,2|2,0:0|0:0,0:0:0
472,192,104474,2,0,B|432:176|383:188,1,90,8|8,0:0|0:0,0:0:0
304,144,104918,5,4,0:0:0
224,104,105140,1,0,0:0:0
144,64,105363,1,0,0:0:0
64,24,105585,1,8,0:0:0
224,104,106029,5,8,0:0:0
144,64,106252,1,0,0:0:0
64,24,106474,1,8,0:0:0
256,184,106696,6,0,B|264:232|231:268,1,90,4|8,0:0|0:0,0:0:0
192,288,107029,1,0,0:0:0
144,288,107140,2,0,B|56:288,1,90,0|8,0:0|0:0,0:0:0
256,352,107585,2,0,B|360:352,1,90,2|0,0:0|0:0,0:0:0
376,320,107918,1,0,0:0:0
408,288,108029,2,0,B|512:288,1,90,8|8,0:0|0:0,0:0:0
448,112,108474,5,4,0:0:0
360,128,108696,1,0,0:0:0
312,136,108807,1,0,0:0:0
264,144,108918,2,0,B|168:144,2,90,8|0|0,0:0|0:0|0:0,0:0:0
208,216,109585,2,0,B|88:216,1,90,0|8,0:0|0:0,0:0:0
288,232,110029,1,0,0:0:0
336,240,110140,1,0,0:0:0
384,248,110251,2,0,B|480:248,2,90,0|8|0,0:0|0:0|0:0,0:0:0
504,336,110918,6,0,B|432:336|432:336|390:352|390:352|328:352,1,180,8|8,0:0|0:0,0:0:0
240,352,111585,1,0,0:0:0
160,312,111807,1,0,0:0:0
120,288,111918,1,0,0:0:0
88,256,112029,2,0,B|64:224|50:175,1,90,8|0,0:0|0:0,0:0:0
120,80,112474,2,0,B|144:112|157:160,1,90,2|0,0:0|0:0,0:0:0
393,243,112918,2,0,B|353:247|304:234,1,90,2|0,0:0|0:0,0:0:0
256,128,113363,2,0,B|295:123|344:136,1,90,8|8,0:0|0:0,0:0:0
384,152,113696,1,8,0:0:0
424,176,113807,1,4,0:0:0
256,192,113918,12,0,115363,0:0:0
256,304,115585,6,0,B|224:232|280:184|256:88,1,202.500007724762,4|0,0:0|0:0,0:0:0
320,72,116029,2,0,B|392:56|456:72,1,135.000005149842,8|0,0:0|0:0,0:0:0
200,128,116474,2,0,B|128:144|64:128,2,135.000005149842,0|0|8,0:0|0:0|0:0,0:0:0
368,128,117140,1,0,0:0:0
392,192,117251,1,0,0:0:0
384,256,117363,2,0,B|432:304|512:320,1,135.000005149842
328,312,117807,2,0,B|310:246|249:192,1,135.000005149842,8|0,0:0|0:0,0:0:0
192,192,118140,2,0,B|257:209|334:183,2,135.000005149842,0|0|0,0:0|0:0|0:0,0:0:0
168,128,118696,2,0,B|120:80|40:64,1,135.000005149842,8|0,0:0|0:0,0:0:0
72,128,119029,1,0,0:0:0
80,192,119140,6,0,B|88:264|40:320,2,135.000005149842,4|0|8,0:0|0:0|0:0,0:0:0
160,304,119807,1,0,0:0:0
224,312,119918,1,0,0:0:0
280,344,120029,1,0,0:0:0
400,280,120251,1,0,0:0:0
440,152,120474,1,8,0:0:0
392,24,120696,1,0,0:0:0
248,32,120918,6,0,B|113:46,2,135.000005149842,0|8|8,0:0|0:0|0:0,0:0:0
368,104,121585,2,0,B|280:128,1,67.5000025749208
320,56,121807,2,0,B|280:208,1,135.000005149842,8|0,0:0|0:0,0:0:0
312,192,122251,5,8,0:0:0
320,159,122363,1,0,0:0:0
329,126,122474,1,8,0:0:0
337,94,122585,1,8,0:0:0
346,61,122696,6,0,B|288:96|215:82,1,135.000005149842,4|0,0:0|0:0,0:0:0
81,31,123140,2,0,B|116:89|102:161,1,135.000005149842,8|0,0:0|0:0,0:0:0
88,232,123474,2,0,B|86:299|134:356,2,135.000005149842,0|8|0,0:0|0:0|0:0,0:0:0
152,216,124029,2,0,B|240:224,1,67.5000025749208,0|0,0:0|0:0,0:0:0
280,256,124251,2,0,B|368:248,1,67.5000025749208,8|0,0:0|0:0,0:0:0
408,280,124474,6,0,B|392:176|456:89,1,202.500007724762
480,72,124918,2,0,B|451:134|372:143,1,135.000005149842,8|0,0:0|0:0,0:0:0
352,144,125251,2,0,B|192:144,2,135.000005149842,0|8|8,0:0|0:0|0:0,0:0:0
416,176,125807,2,0,B|456:240|416:304,1,135.000005149842,0|8,0:0|0:0,0:0:0
280,304,126251,5,4,0:0:0
144,288,126474,1,0,0:0:0
56,184,126696,1,8,0:0:0
144,288,126918,1,0,0:0:0
96,240,127029,1,0,0:0:0
56,184,127140,1,0,0:0:0
64,48,127363,1,0,0:0:0
152,152,127585,1,8,0:0:0
64,48,127807,1,0,0:0:0
128,56,127918,1,0,0:0:0
192,64,128029,6,0,B|336:80,1,135.000005149842,8|0,0:0|0:0,0:0:0
392,88,128363,1,0,0:0:0
456,96,128474,2,0,B|312:112,1,135.000005149842,8|0,0:0|0:0,0:0:0
256,120,128807,1,0,0:0:0
334,224,128919,6,0,P|272:200,1,67.5000025749208
272,280,129141,2,0,P|334:304,1,67.5000025749208
232,231,129363,2,0,P|170:256,1,67.5000025749208
169,336,129585,2,0,P|232:312,1,67.5000025749208
272,352,129807,6,0,B|288:284|229:226,1,135.000005149842,4|0,0:0|0:0,0:0:0
240,32,130252,2,0,B|224:100|283:158,1,135.000005149842,4|0,0:0|0:0,0:0:0
231,230,130585,2,0,B|178:232|178:232|154:224|154:224|74:224,2,135.000005149842,0|8|0,0:0|0:0|0:0,0:0:0
296,248,131140,2,0,B|400:224,1,67.5000025749208
424,144,131363,2,0,B|358:159,1,67.5000025749208,8|8,0:0|0:0,0:0:0
296,144,131585,6,0,B|152:112,2,135.000005149842,0|2|2,0:0|0:0|0:0,0:0:0
168,192,132251,1,0,0:0:0
120,240,132363,2,0,B|88:304|120:376,2,135.000005149842,0|8|0,0:0|0:0|0:0,0:0:0
96,176,132918,2,0,B|64:104,1,67.5000025749208
104,24,133140,2,0,B|136:96,1,67.5000025749208,2|2,0:0|0:0,0:0:0
200,96,133363,5,0,0:0:0
328,56,133585,1,10,0:0:0
392,48,133696,1,10,0:0:0
456,40,133807,1,0,0:0:0
368,128,134029,1,2,0:0:0
414,138,134140,1,2,0:0:0
461,149,134251,1,0,0:0:0
376,208,134474,1,10,0:0:0
405,226,134585,1,8,0:0:0
436,246,134696,1,0,0:0:0
403,344,134918,1,8,0:0:0
381,314,135029,1,8,0:0:0
360,288,135140,5,0,0:0:0
224,296,135363,2,0,B|144:320,2,67.5000025749208,0|8|0,0:0|0:0|0:0,0:0:0
272,136,135807,2,0,B|291:54,2,67.5000025749208,0|8|0,0:0|0:0|0:0,0:0:0
384,264,136251,2,0,B|440:312,3,45.0000017166138,0|0|0|8,0:0|0:0|0:0|0:0,0:0:0
296,240,136696,1,8,0:0:0
224,296,136918,5,10,0:0:0
192,192,137140,1,0,0:0:0
152,136,137251,1,0,0:0:0
112,80,137363,1,8,0:0:0
132,268,137585,1,0,0:0:0
125,199,137696,1,0,0:0:0
118,132,137808,1,8,0:0:0
56,328,138029,2,0,B|88:384,3,45.0000017166138,0|0|0|8,0:0|0:0|0:0|0:0,0:0:0
200,312,138474,5,0,0:0:0
264,304,138585,1,0,0:0:0
328,296,138696,1,2,0:0:0
424,200,138918,1,0,0:0:0
360,192,139029,1,0,0:0:0
296,184,139140,1,2,0:0:0
128,96,139363,1,0,0:0:0
192,88,139474,1,0,0:0:0
256,80,139585,1,2,0:0:0
424,200,139807,5,0,0:0:0
360,192,139918,1,0,0:0:0
296,184,140029,1,2,0:0:0
232,176,140140,1,0,0:0:0
168,168,140251,1,0,0:0:0
80,272,140474,5,2,0:0:0
136,312,140585,1,0,0:0:0
200,320,140696,1,0,0:0:0
264,312,140807,1,0,0:0:0
256,376,140918,1,2,0:0:0
318,346,141029,1,0,0:0:0
382,349,141140,1,0,0:0:0
444,368,141251,1,0,0:0:0
480,312,141363,5,2,0:0:0
499,250,141474,1,0,0:0:0
502,186,141585,1,0,0:0:0
472,124,141696,1,0,0:0:0
432,176,141807,1,2,0:0:0
384,132,141918,1,0,0:0:0
350,77,142029,1,0,0:0:0
344,9,142140,1,0,0:0:0
280,24,142251,6,0,B|192:40,1,67.5000025749208,2|0,0:0|0:0,0:0:0
256,128,142474,2,0,B|168:144,1,67.5000025749208,2|0,0:0|0:0,0:0:0
213,37,142696,6,0,B|125:53,1,67.5000025749208,2|0,0:0|0:0,0:0:0
189,141,142919,2,0,B|101:157,1,67.5000025749208,2|0,0:0|0:0,0:0:0
146,50,143140,6,0,B|58:66,1,67.5000025749208,2|2,0:0|0:0,0:0:0
122,154,143363,2,0,B|34:170,1,67.5000025749208,2|2,0:0|0:0,0:0:0
79,62,143585,6,8,B|32:72,3,33.7500012874604
57,167,143807,2,8,B|9:176,3,33.7500012874604
120,248,144029,5,4,0:0:0
