osu file format v11

[General]
AudioFilename: SaikaR.mp3
AudioLeadIn: 1500
PreviewTime: 15263
Countdown: 0
SampleSet: Normal
StackLeniency: 0.4
Mode: 0
LetterboxInBreaks: 0

[Editor]
Bookmarks: 16041,30259,58703,87148,94255,115592,129805,144037
DistanceSpacing: 0.8
BeatDivisor: 2
GridSize: 32

[Metadata]
Title:Saika (Another Style Remix)
TitleUnicode:彩華 (Another Style Remix)
Artist:himmeltengoku
ArtistUnicode:himmeltengoku
Creator:LKs
Version:Hard
Source:
Tags:Cytus Rabpit spboxer3 Kiiwa AmamiyaYuko
BeatmapID:175000
BeatmapSetID:57923

[Difficulty]
HPDrainRate:6
CircleSize:4
OverallDifficulty:7
ApproachRate:8
SliderMultiplier:1.28
SliderTickRate:1

[Events]
//Background and Video events
0,0,"bg.jpg"
//Break Periods
2,87340,93501
//Storyboard Layer 0 (Background)
//Storyboard Layer 1 (Fail)
//Storyboard Layer 2 (Pass)
//Storyboard Layer 3 (Foreground)
//Storyboard Sound Samples
//Background Colour Transformations
3,100,163,162,255

[TimingPoints]
1808,444.444444444444,4,1,1,64,1,0
2030,-100,4,2,1,64,0,0
8252,-100,4,2,1,34,0,0
8474,-100,4,2,1,44,0,0
8696,-100,4,2,1,54,0,0
8919,-100,4,1,1,70,0,0
9141,-100,4,2,1,64,0,0
12474,-100,4,1,2,64,0,0
12919,-100,4,2,1,64,0,0
13141,-100,4,2,2,44,0,0
13363,-100,4,1,2,64,0,0
13585,-100,4,2,2,64,0,0
13807,-100,4,2,1,57,0,0
14030,-100,4,2,2,64,0,0
14252,-100,4,1,2,64,0,0
16030,-66.6666666666667,4,1,1,64,0,0
16252,-66.6666666666667,4,1,2,64,0,0
16696,-66.6666666666667,4,2,0,64,0,0
17363,-66.6666666666667,4,1,2,64,0,0
17585,-66.6666666666667,4,2,0,64,0,0
17807,-66.6666666666667,4,1,2,47,0,0
18030,-66.6666666666667,4,1,2,64,0,0
18474,-66.6666666666667,4,2,0,59,0,0
19141,-66.6666666666667,4,1,2,64,0,0
19363,-66.6666666666667,4,2,0,64,0,0
19585,-66.6666666666667,4,1,1,64,0,0
20030,-66.6666666666667,4,1,2,64,0,0
20252,-66.6666666666667,4,2,1,57,0,0
20474,-66.6666666666667,4,2,1,64,0,0
20807,-66.6666666666667,4,2,0,51,0,0
20919,-66.6666666666667,4,1,2,64,0,0
21141,-66.6666666666667,4,2,0,64,0,0
21363,-66.6666666666667,4,1,2,64,0,0
21585,-66.6666666666667,4,2,0,57,0,0
21807,-66.6666666666667,4,1,2,64,0,0
22141,-66.6666666666667,4,1,2,54,0,0
22252,-66.6666666666667,4,2,0,40,0,0
22474,-66.6666666666667,4,2,1,64,0,0
23141,-66.6666666666667,4,1,1,64,0,0
23585,-66.6666666666667,4,1,2,64,0,0
23807,-66.6666666666667,4,2,0,57,0,0
24030,-66.6666666666667,4,2,0,54,0,0
24474,-66.6666666666667,4,1,2,64,0,0
24696,-66.6666666666667,4,2,0,64,0,0
24919,-66.6666666666667,4,1,2,50,0,0
25363,-66.6666666666667,4,1,2,63,0,0
25585,-66.6666666666667,4,2,0,56,0,0
26252,-66.6666666666667,4,1,2,63,0,0
26474,-66.6666666666667,4,2,0,63,0,0
26585,-66.6666666666667,4,1,2,61,0,0
26696,-66.6666666666667,4,1,2,55,0,0
27363,-66.6666666666667,4,2,2,45,0,0
27807,-66.6666666666667,4,1,2,44,0,0
28252,-66.6666666666667,4,1,2,40,0,0
28919,-66.6666666666667,4,1,2,35,0,0
29363,-66.6666666666667,4,1,2,25,0,0
29807,-66.6666666666667,4,1,2,15,0,0
30252,-100,4,1,2,65,0,0
30696,-100,4,2,2,65,0,0
31141,-100,4,1,2,31,0,0
31585,-100,4,2,2,65,0,0
32030,-100,4,1,2,44,0,0
32252,-100,4,2,2,65,0,0
32919,-100,4,1,2,31,0,0
33141,-100,4,2,1,65,0,0
33363,-100,4,2,2,65,0,0
33807,-100,4,1,2,37,0,0
34030,-100,4,2,2,66,0,0
34474,-100,4,2,1,66,0,0
34696,-100,4,1,2,37,0,0
34919,-100,4,2,2,66,0,0
35363,-100,4,2,2,56,0,0
35585,-100,4,1,2,42,0,0
35807,-100,4,2,1,56,0,0
36030,-100,4,2,2,66,0,0
36252,-100,4,2,1,56,0,0
36474,-100,4,1,2,33,0,0
36696,-100,4,2,1,46,0,0
36919,-100,4,1,2,36,0,0
37141,-100,4,2,1,47,0,0
37807,-100,4,2,2,64,0,0
38252,-100,4,1,2,37,0,0
38474,-100,4,2,1,37,0,0
38696,-100,4,2,2,61,0,0
39140,-100,4,1,2,41,0,0
39585,-100,4,2,2,50,0,0
39807,-100,4,2,2,63,0,0
40029,-100,4,2,1,63,0,0
40474,-100,4,2,2,55,0,0
40696,-100,4,2,1,62,0,0
40918,-100,4,1,2,36,0,0
41363,-100,4,2,2,51,0,0
41585,-100,4,2,1,64,0,0
42251,-100,4,2,2,64,0,0
42474,-100,4,2,1,64,0,0
42696,-100,4,2,2,60,0,0
43585,-100,4,2,2,39,0,0
43807,-100,4,2,2,40,0,0
44029,-100,4,2,2,43,0,0
44251,-100,4,2,2,62,0,0
44918,-100,4,1,2,41,0,0
45140,-100,4,2,2,60,0,0
45807,-100,4,1,2,40,0,0
46029,-100,4,2,2,60,0,0
46474,-100,4,2,1,60,0,0
46696,-100,4,1,2,40,0,0
46918,-100,4,2,1,60,0,0
47585,-100,4,1,2,50,0,0
47807,-100,4,2,2,60,0,0
48029,-100,4,2,1,60,0,0
48474,-100,4,1,2,50,0,0
48696,-100,4,2,1,60,0,0
49363,-100,4,1,2,50,0,0
49585,-100,4,2,1,60,0,0
49807,-100,4,2,2,60,0,0
50251,-100,4,1,2,50,0,0
50474,-100,4,2,1,36,0,0
50696,-100,4,2,2,43,0,0
51140,-100,4,1,2,51,0,0
51363,-100,4,2,2,59,0,0
52029,-100,4,1,2,49,0,0
52251,-100,4,2,1,40,0,0
52474,-100,4,2,2,62,0,0
52918,-100,4,1,2,49,0,0
53140,-100,4,2,2,62,0,0
53807,-100,4,1,2,52,0,0
54029,-100,4,2,1,44,0,0
54251,-100,4,2,1,63,0,0
54696,-100,4,1,2,53,0,0
54918,-100,4,2,2,60,0,0
55585,-100,4,2,2,34,0,0
56029,-100,4,2,2,43,0,0
56474,-100,4,2,2,50,0,0
56918,-100,4,2,1,5,0,0
58029,-100,4,2,1,60,0,0
58696,-100,4,1,1,60,0,0
59140,-100,4,2,1,60,0,0
62251,-100,4,2,2,50,0,0
62696,-100,4,2,1,60,0,0
64029,-100,4,2,1,60,0,0
65807,-100,4,1,1,60,0,0
66029,-100,4,2,1,60,0,0
69363,-100,4,1,2,50,0,0
70029,-100,4,2,0,50,0,0
70251,-100,4,1,2,40,0,0
71140,-100,4,2,2,50,0,0
72029,-100,4,2,1,60,0,0
72918,-66.6666666666667,4,1,1,52,0,0
73363,-66.6666666666667,4,1,2,63,0,0
73585,-66.6666666666667,4,2,1,67,0,0
74029,-66.6666666666667,4,2,0,63,0,0
74251,-66.6666666666667,4,1,2,63,0,0
74474,-100,4,2,1,63,0,0
75140,-100,4,1,2,63,0,0
75363,-100,4,2,1,63,0,0
76029,-100,4,1,2,63,0,0
76251,-66.6666666666667,4,2,1,63,0,0
77363,-66.6666666666667,4,1,2,52,0,0
77557,-66.6666666666667,4,2,1,63,0,0
79140,-66.6666666666667,4,1,2,63,0,0
79335,-66.6666666666667,4,2,1,63,0,0
79474,-66.6666666666667,4,1,2,52,0,0
79668,-66.6666666666667,4,2,1,63,0,0
79696,-66.6666666666667,4,1,2,53,0,0
79807,-66.6666666666667,4,2,1,63,0,0
80029,-66.6666666666667,4,1,1,63,0,0
80251,-66.6666666666667,4,2,1,63,0,0
87140,-66.6666666666667,4,2,2,63,0,0
96696,-76.9230769230769,4,2,2,63,0,0
97140,-90.9090909090909,4,2,2,63,0,0
97807,-66.6666666666667,4,2,2,63,0,0
101363,-66.6666666666667,4,1,2,63,0,0
101585,-66.6666666666667,4,2,0,33,0,0
103140,-62.5,4,1,2,23,0,0
103363,-62.5,4,2,0,23,0,0
104918,-58.8235294117647,4,1,2,23,0,0
105140,-58.8235294117647,4,2,0,23,0,0
106696,-55.5555555555556,4,1,2,23,0,0
106918,-55.5555555555556,4,2,0,23,0,0
108029,-66.6666666666667,4,1,2,46,0,0
108251,-66.6666666666667,4,1,2,54,0,0
108474,-66.6666666666667,4,1,2,63,0,0
108696,-66.6666666666667,4,2,1,63,0,0
110251,-66.6666666666667,4,2,1,56,0,0
112029,-66.6666666666667,4,2,2,63,0,0
114029,-66.6666666666667,4,2,2,56,0,0
114696,-66.6666666666667,4,2,2,63,0,0
115585,-66.6666666666667,4,1,1,63,0,0
115807,-66.6666666666667,4,2,0,63,0,0
116251,-66.6666666666667,4,2,1,63,0,0
116918,-66.6666666666667,4,1,2,63,0,0
117363,-66.6666666666667,4,1,2,43,0,0
117807,-66.6666666666667,4,2,0,63,0,0
118029,-66.6666666666667,4,2,1,63,0,0
118251,-66.6666666666667,4,2,0,63,0,0
118474,-66.6666666666667,4,2,1,63,0,0
118696,-66.6666666666667,4,1,2,63,0,0
118918,-66.6666666666667,4,2,0,63,0,0
119140,-66.6666666666667,4,1,1,63,0,0
119585,-66.6666666666667,4,2,0,63,0,0
119807,-66.6666666666667,4,2,1,63,0,0
120474,-66.6666666666667,4,1,2,63,0,0
120807,-66.6666666666667,4,2,0,63,0,0
120918,-66.6666666666667,4,2,1,63,0,0
122696,-66.6666666666667,4,1,1,63,0,0
123140,-66.6666666666667,4,2,0,63,0,0
123363,-66.6666666666667,4,2,1,63,0,0
124029,-66.6666666666667,4,1,2,63,0,0
124251,-66.6666666666667,4,2,0,63,0,0
124474,-66.6666666666667,4,1,2,44,0,0
124918,-66.6666666666667,4,2,0,63,0,0
125140,-66.6666666666667,4,2,1,63,0,0
125363,-66.6666666666667,4,2,0,63,0,0
125585,-66.6666666666667,4,2,1,63,0,0
125807,-66.6666666666667,4,1,2,63,0,0
126029,-66.6666666666667,4,2,0,63,0,0
126251,-76.9230769230769,4,1,2,53,0,0
126474,-76.9230769230769,4,2,0,63,0,0
126696,-76.9230769230769,4,2,1,63,0,0
126918,-76.9230769230769,4,2,1,63,0,0
127585,-76.9230769230769,4,1,2,63,0,0
127807,-76.9230769230769,4,2,0,63,0,0
128029,-76.9230769230769,4,2,1,63,0,0
129807,-66.6666666666667,4,1,1,63,0,0
130251,-66.6666666666667,4,2,1,63,0,0
132029,-66.6666666666667,4,2,1,49,0,0
132251,-66.6666666666667,4,2,1,63,0,0
132918,-66.6666666666667,4,2,1,50,0,0
133140,-66.6666666666667,4,2,1,63,0,0
134251,-66.6666666666667,4,1,2,63,0,0
134474,-66.6666666666667,4,2,1,63,0,0
136029,-66.6666666666667,4,1,2,63,0,0
136251,-66.6666666666667,4,2,1,63,0,0
136363,-66.6666666666667,4,1,2,63,0,0
136548,-66.6666666666667,4,2,1,63,0,0
136585,-66.6666666666667,4,1,2,63,0,0
136696,-66.6666666666667,4,2,1,63,0,0
136849,-66.6666666666667,4,1,1,63,0,0
137140,-66.6666666666667,4,2,1,63,0,0
141585,-66.6666666666667,4,2,1,47,0,0
141696,-66.6666666666667,4,2,1,63,0,0
142251,-66.6666666666667,4,2,1,48,0,0
142363,-66.6666666666667,4,2,1,63,0,0

[Colours]
Combo1 : 165,153,249
Combo2 : 255,96,255
Combo3 : 133,250,194
SliderBorder : 255,250,228

[HitObjects]
96,120,1141,2,0,B|32:112,1,64,2|2,0:0|0:0,0:0:0
96,264,1585,2,0,B|32:272,1,64,2|4,0:0|0:0,0:0:0
400,120,2252,6,0,B|464:112,1,64,2|0,0:0|0:0,0:0:0
400,264,3141,2,0,B|464:272,1,64,2|0,0:0|0:0,0:0:0
384,120,4030,6,0,B|448:112,1,64,2|0,0:0|0:0,0:0:0
384,264,4919,2,0,B|448:272,1,64,2|0,0:0|0:0,0:0:0
416,120,8252,6,0,B|480:112,1,64
416,264,8696,2,0,B|480:272,1,64,0|4,0:0|0:0,0:0:0
112,120,9363,6,0,B|48:112,1,64,2|0,0:0|0:0,0:0:0
112,264,10252,2,0,B|48:272,1,64,2|0,0:0|0:0,0:0:0
128,120,11141,6,0,B|64:112,1,64,2|0,0:0|0:0,0:0:0
128,264,12030,2,0,B|64:272,1,64,2|0,0:0|0:0,0:0:0
64,271,12474,5,2,0:0:0
128,120,12919,1,2,0:0:0
160,48,13141,2,0,B|144:0,2,32,8|8|2,0:0|0:0|0:0,0:0:0
224,144,13585,1,8,0:0:0
288,48,13807,1,10,0:0:0
352,144,14029,1,8,0:0:0
416,48,14252,6,0,B|480:48,1,64,2|2,0:0|0:0,0:0:0
408,256,14696,2,0,B|340:248,1,64,2|2,0:0|0:0,0:0:0
96,48,15141,6,0,B|32:48,1,64,2|2,0:0|0:0,0:0:0
104,256,15585,2,0,B|172:248,1,64,2|2,0:0|0:0,0:0:0
256,320,16030,5,4,0:0:0
256,104,16474,1,8,0:0:0
344,168,16696,1,0,0:0:0
168,256,16919,1,2,0:0:0
168,168,17141,1,2,0:0:0
344,256,17363,1,8,0:0:0
256,104,17585,1,0,0:0:0
168,256,17807,6,0,B|128:316|48:320|0:272,1,192.000007324219,2|8,0:0|0:0,0:0:0
76,200,18474,1,2,0:0:0
256,104,18919,1,2,0:0:0
352,48,19141,2,0,B|400:32|448:48,1,96.0000036621095,8|0,0:0|0:0,0:0:0
446,47,19585,5,4,0:0:0
504,224,20030,1,8,0:0:0
432,304,20252,1,0,0:0:0
432,304,20363,1,0,0:0:0
432,304,20474,2,0,B|376:360|296:328,1,144.000005493164,8|0,0:0|0:0,0:0:0
270,319,20919,2,0,B|262:223,1,96.0000036621095,8|0,0:0|0:0,0:0:0
152,48,21363,5,2,0:0:0
16,144,21585,1,2,0:0:0
168,208,21807,1,8,0:0:0
32,304,22029,1,2,0:0:0
56,312,22141,1,2,0:0:0
80,320,22252,1,0,0:0:0
184,368,22474,5,2,0:0:0
320,272,22696,1,2,0:0:0
168,208,22918,1,2,0:0:0
304,112,23140,5,4,0:0:0
390,380,23585,1,8,0:0:0
271,342,23807,1,0,0:0:0
271,217,24030,1,2,0:0:0
390,179,24252,1,2,0:0:0
464,280,24474,1,8,0:0:0
390,380,24696,1,0,0:0:0
271,342,24919,6,0,B|208:320|144:320|80:352,1,192.000007324219,2|8,0:0|0:0,0:0:0
84,349,25585,1,2,0:0:0
16,160,26030,1,2,0:0:0
104,104,26252,2,0,B|88:8,1,96.0000036621095,8|2,0:0|0:0,0:0:0
88,9,26585,1,2,0:0:0
88,9,26696,5,2,0:0:0
228,76,26919,2,0,B|212:140,2,48.0000018310548,2|2|2,0:0|0:0|0:0,0:0:0
368,112,27363,2,0,B|373:170,2,48.0000018310548
488,216,27807,5,2,0:0:0
464,240,27919,1,2,0:0:0
433,253,28030,1,2,0:0:0
344,331,28252,1,10,0:0:0
314,315,28364,1,2,0:0:0
280,312,28475,1,10,0:0:0
256,192,28585,12,4,30252,0:0:0
48,336,30696,5,2,0:0:0
144,184,31141,1,2,0:0:0
240,336,31585,1,2,0:0:0
336,336,31807,1,0,0:0:0
288,256,32030,5,2,0:0:0
144,184,32252,1,0,0:0:0
280,96,32474,1,2,0:0:0
280,96,32919,5,2,0:0:0
377,104,33141,1,0,0:0:0
472,80,33363,1,2,0:0:0
390,247,33585,1,0,0:0:0
280,96,33807,6,0,B|213:107|153:91,1,128,2|2,0:0|0:0,0:0:0
56,192,34474,1,0,0:0:0
153,293,34696,2,0,B|213:277|280:288,1,128,2|2,0:0|0:0,0:0:0
384,320,35363,1,8,0:0:0
384,320,35474,1,0,0:0:0
384,320,35585,5,2,0:0:0
472,192,35807,1,2,0:0:0
269,123,36030,1,0,0:0:0
424,112,36252,1,2,0:0:0
384,192,36474,5,2,0:0:0
256,304,36696,1,2,0:0:0
128,192,36919,1,2,0:0:0
256,304,37141,1,2,0:0:0
160,344,37363,6,0,B|89:364|46:310,1,128,0|2,0:0|0:0,0:0:0
0,136,38252,1,2,0:0:0
74,88,38474,1,0,0:0:0
160,72,38696,1,2,0:0:0
220,209,38918,1,0,0:0:0
304,232,39140,6,0,B|410:271|480:192,1,192,2|0,0:0|0:0,0:0:0
478,193,40029,1,8,0:0:0
368,104,40251,1,0,0:0:0
304,232,40474,1,2,0:0:0
208,160,40696,1,8,0:0:0
104,112,40918,6,0,B|48:200|96:304,1,192,2|0,0:0|0:0,0:0:0
105,317,41696,1,0,0:0:0
120,336,41807,1,8,0:0:0
210,284,42029,1,8,0:0:0
292,352,42251,1,0,0:0:0
376,288,42474,1,8,0:0:0
464,368,42696,6,0,B|400:376,1,64,8|8,0:0|0:0,0:0:0
312,200,43140,2,0,B|376:208,1,64,0|8,0:0|0:0,0:0:0
375,207,43474,1,0,0:0:0
375,207,43585,5,0,0:0:0
288,112,43807,1,2,0:0:0
192,200,44029,1,2,0:0:0
279,295,44251,1,2,0:0:0
376,208,44474,6,0,B|400:80,1,128,4|8,0:0|0:0,0:0:0
272,24,45140,2,0,B|256:96|184:104,1,128,8|8,0:0|0:0,0:0:0
80,88,45807,1,8,0:0:0
24,176,46029,1,8,0:0:0
28,200,46140,1,0,0:0:0
32,224,46251,5,0,0:0:0
56,344,46474,1,8,0:0:0
176,320,46696,1,8,0:0:0
152,200,46918,2,0,B|208:176|278:191,1,128,0|0,0:0|0:0,0:0:0
387,217,47585,1,8,0:0:0
480,278,47807,1,0,0:0:0
376,360,48029,6,0,B|382:293,1,64,8|0,0:0|0:0,0:0:0
463,132,48474,2,0,B|468:195,1,64,8|8,0:0|0:0,0:0:0
280,144,49140,1,8,0:0:0
256,120,49251,1,0,0:0:0
235,100,49363,2,0,B|224:32,1,64,8|0,0:0|0:0,0:0:0
144,112,49807,6,0,B|72:96|26:147,1,128,0|8,0:0|0:0,0:0:0
16,256,50474,1,2,0:0:0
32,280,50585,1,2,0:0:0
48,304,50696,1,0,0:0:0
144,352,50918,1,0,0:0:0
195,173,51140,1,8,0:0:0
232,280,51363,1,0,0:0:0
328,336,51585,6,0,B|388:376|448:336,1,128,0|8,0:0|0:0,0:0:0
496,216,52251,2,0,B|504:264,2,32,2|2|0,0:0|0:0|0:0,0:0:0
408,160,52696,1,0,0:0:0
304,144,52918,1,8,0:0:0
208,184,53140,1,0,0:0:0
149,278,53363,6,0,B|100:330|25:305,1,128,0|8,0:0|0:0,0:0:0
0,198,54029,2,0,B|-6:156,2,32,0|0|0,0:0|0:0|0:0,0:0:0
104,152,54474,1,0,0:0:0
216,176,54696,1,8,0:0:0
320,130,54918,1,0,0:0:0
320,240,55140,5,4,0:0:0
256,192,55251,12,0,56918,0:0:0
112,232,58029,6,0,B|61:271,1,64,0|0,0:0|0:0,0:0:0
213,333,58473,2,0,B|173:383,1,64,0|4,0:0|0:0,0:0:0
400,152,59140,6,0,B|451:113,1,64,8|0,0:0|0:0,0:0:0
299,51,60029,2,0,B|339:1,1,64,0|0,0:0|0:0,0:0:0
376,176,60918,6,0,B|427:137,1,64,8|0,0:0|0:0,0:0:0
275,75,61807,2,0,B|315:25,1,64,0|0,0:0|0:0,0:0:0
176,72,62251,6,0,B|147:141|209:203|281:176,1,192,8|0,0:0|0:0,0:0:0
376,200,63140,2,0,B|409:267|344:336|273:304,1,192,8|0,0:0|0:0,0:0:0
176,344,64029,6,0,B|168:280,1,64,2|0,0:0|0:0,0:0:0
48,360,64474,2,0,B|40:296,1,64,2|0,0:0|0:0,0:0:0
400,232,65141,6,0,B|451:271,1,64,2|0,0:0|0:0,0:0:0
299,333,65585,2,0,B|339:383,1,64,2|4,0:0|0:0,0:0:0
112,152,66252,6,0,B|61:113,1,64,8|0,0:0|0:0,0:0:0
213,51,67141,2,0,B|173:1,1,64,0|0,0:0|0:0,0:0:0
136,176,68030,6,0,B|85:137,1,64,8|0,0:0|0:0,0:0:0
237,75,68919,2,0,B|197:25,1,64,0|0,0:0|0:0,0:0:0
232,168,69363,6,0,B|304:176|352:112|328:40,1,192,8|0,0:0|0:0,0:0:0
328,41,70251,1,2,0:0:0
424,49,70474,1,10,0:0:0
447,142,70696,1,0,0:0:0
366,193,70918,1,8,0:0:0
293,132,71140,6,0,B|216:128,1,64,8|0,0:0|0:0,0:0:0
160,216,71585,2,0,B|83:212,1,64,8|8,0:0|0:0,0:0:0
296,272,72029,6,0,B|219:268,1,64,8|8,0:0|0:0,0:0:0
163,356,72474,2,0,B|86:352,1,64,8|8,0:0|0:0,0:0:0
16,280,72918,6,0,B|-24:184|32:96,1,192.000007324219,4|8,0:0|0:0,0:0:0
87,16,73585,2,0,B|175:64|279:32,1,192.000007324219,2|2,0:0|0:0,0:0:0
320,120,74251,1,8,0:0:0
416,136,74474,6,0,B|224:160,1,192.000007324219,8|8,0:0|0:0,0:0:0
152,232,75363,2,0,B|128:304|176:352,1,128,2|2,0:0|0:0,0:0:0
276,376,76029,1,8,0:0:0
376,352,76251,6,0,B|403:256|390:153,1,192.000007324219,2|2,0:0|0:0,0:0:0
136,32,77140,2,2,B|109:128|122:231,1,192.000007324219,2|2,0:0|0:0,0:0:0
416,72,78029,6,0,B|320:45|217:58,1,192.000007324219,2|2,0:0|0:0,0:0:0
96,312,78918,2,2,B|192:339|295:326,2,192.000007324219,2|2|2,0:0|0:0|0:0,0:0:0
40,216,80029,5,4,0:0:0
48,104,80251,1,2,0:0:0
71,79,80363,1,0,0:0:0
104,72,80474,1,0,0:0:0
202,126,80696,1,2,0:0:0
212,158,80808,1,0,0:0:0
201,190,80919,1,0,0:0:0
160,294,81140,1,2,0:0:0
190,312,81251,1,0,0:0:0
223,323,81363,1,0,0:0:0
258,328,81474,1,2,0:0:0
292,323,81585,1,0,0:0:0
326,312,81696,1,0,0:0:0
354,293,81807,6,0,B|400:272|452:294,1,96.0000036621095,0|2,0:0|0:0,0:0:0
478,305,82140,2,0,B|477:251,1,48.0000018310548,0|0,0:0|0:0,0:0:0
416,80,82474,2,0,B|417:134,1,48.0000018310548,2|0,0:0|0:0,0:0:0
392,152,82696,2,0,B|346:173|294:151,1,96.0000036621095,0|2,0:0|0:0,0:0:0
268,140,83029,1,0,0:0:0
236,128,83140,2,0,B|188:107|142:128,1,96.0000036621095,0|2,0:0|0:0,0:0:0
113,146,83474,1,0,0:0:0
92,172,83585,6,0,B|44:164,3,48.0000018310548,0|0|2|0,0:0|0:0|0:0|0:0,0:0:0
136,240,84029,6,0,B|128:288,3,48.0000018310548,8|0|0|0,0:0|0:0|0:0|0:0,0:0:0
200,192,84474,22,0,B|248:200,3,48.0000018310548,0|0|0|0,0:0|0:0|0:0|0:0,0:0:0
156,128,84918,6,0,B|164:80,3,48.0000018310548,8|0|0|0,0:0|0:0|0:0|0:0,0:0:0
200,192,85363,5,0,0:0:0
221,218,85474,1,0,0:0:0
249,235,85585,1,8,0:0:0
283,242,85696,1,0,0:0:0
317,238,85807,1,8,0:0:0
349,225,85918,1,0,0:0:0
373,200,86029,1,0,0:0:0
388,170,86140,1,0,0:0:0
385,134,86252,6,0,P|374:81,3,48.0000018310548,8|0|8|0,0:0|0:0|0:0|0:0,0:0:0
415,79,86696,2,0,P|426:26,3,48.0000018310548,8|0|8|0,0:0|0:0|0:0|0:0,0:0:0
464,19,87140,5,4,0:0:0
125,221,94251,5,0,0:0:0
43,195,94474,1,0,0:0:0
43,108,94696,1,0,0:0:0
125,82,94918,1,0,0:0:0
176,152,95140,1,0,0:0:0
252,196,95363,1,0,0:0:0
338,201,95585,1,0,0:0:0
418,168,95807,1,0,0:0:0
455,344,96029,6,0,B|472:239,1,96.0000036621095
471,250,96363,1,0,0:0:0
471,250,96474,1,0,0:0:0
348,282,96696,2,0,B|357:376,1,83.1999961914064
238,381,97140,2,0,B|242:304,2,70.4000021484376
140,359,97807,5,0,0:0:0
40,364,98029,1,0,0:0:0
28,256,98251,5,0,0:0:0
129,256,98474,1,0,0:0:0
232,252,98696,1,0,0:0:0
260,148,98918,5,0,0:0:0
364,148,99140,1,0,0:0:0
468,148,99363,1,0,0:0:0
484,44,99585,5,0,0:0:0
414,130,99807,1,0,0:0:0
344,216,100029,1,0,0:0:0
280,96,100251,5,0,0:0:0
224,184,100474,2,0,B|152:196|80:196,1,144.000005493164
80,195,100918,1,0,0:0:0
120,100,101140,1,0,0:0:0
200,36,101363,6,0,B|216:147,1,96.0000036621095,2|0,0:0|0:0,0:0:0
200,36,103140,6,0,B|216:148,1,102.4,8|0,0:0|0:0,0:0:0
200,36,104918,6,0,B|220:164,1,108.800002075195,8|0,0:0|0:0,0:0:0
200,36,106696,6,0,B|220:160,1,115.199996484375,8|2,0:0|0:0,0:0:0
200,36,108029,1,2,0:0:0
280,80,108251,1,2,0:0:0
372,92,108474,1,6,0:0:0
464,68,108696,6,0,B|480:124,2,48.0000018310548,0|0|0,0:0|0:0|0:0,0:0:0
408,192,109140,2,0,B|400:248,2,48.0000018310548,0|0|0,0:0|0:0|0:0,0:0:0
300,252,109585,2,0,B|280:300,2,48.0000018310548,0|0|0,0:0|0:0|0:0,0:0:0
192,332,110029,5,0,0:0:0
184,328,110140,1,0,0:0:0
176,324,110251,1,0,0:0:0
76,284,110474,1,2,0:0:0
176,232,110696,1,2,0:0:0
76,192,110919,1,0,0:0:0
260,164,111140,5,0,0:0:0
160,124,111363,1,2,0:0:0
260,72,111585,1,0,0:0:0
160,32,111808,1,2,0:0:0
152,36,111918,1,0,0:0:0
144,40,112029,6,0,B|204:56|268:28|336:44,1,192.000007324219,0|4,0:0|0:0,0:0:0
480,184,112918,1,0,0:0:0
348,336,113363,1,0,0:0:0
376,324,113585,6,0,B|328:304|280:320,1,96.0000036621095,0|0,0:0|0:0,0:0:0
186,353,114029,1,8,0:0:0
160,256,114251,1,8,0:0:0
128,160,114474,1,0,0:0:0
96,64,114696,1,8,0:0:0
64,160,114918,1,8,0:0:0
160,128,115140,1,8,0:0:0
256,96,115363,1,8,0:0:0
352,64,115585,6,0,B|396:68|448:72,1,96.0000036621095,4|0,0:0|0:0,0:0:0
496,160,116029,1,2,0:0:0
504,260,116251,2,0,B|413:305|316:264,1,192.000007324219,8|8,0:0|0:0,0:0:0
220,240,116918,2,0,B|173:219|124:236,1,96.0000036621095,8|0,0:0|0:0,0:0:0
88,328,117363,6,0,B|72:228|92:136,1,192.000007324219,2|2,0:0|0:0,0:0:0
48,48,118029,1,8,0:0:0
148,56,118251,1,0,0:0:0
236,108,118474,1,8,0:0:0
336,116,118696,2,0,B|392:120|440:112,1,96.0000036621095,8|0,0:0|0:0,0:0:0
431,113,119140,5,4,0:0:0
508,300,119585,1,2,0:0:0
416,336,119807,2,0,B|424:384,2,48.0000018310548,8|0|0,0:0|0:0|0:0,0:0:0
320,308,120251,1,8,0:0:0
268,220,120474,2,0,B|248:140|304:84,1,144.000005493164,8|0,0:0|0:0,0:0:0
316,72,120918,6,0,B|208:80,1,96.0000036621095,2|2,0:0|0:0,0:0:0
84,60,121363,2,0,B|75:113|104:149,1,96.0000036621095,2|2,0:0|0:0,0:0:0
120,168,121696,1,2,0:0:0
132,188,121807,2,0,B|161:224|153:278,1,96.0000036621095,2|2,0:0|0:0,0:0:0
72,352,122251,1,2,0:0:0
46,247,122474,1,2,0:0:0
232,304,122696,6,0,B|324:344|420:304,1,192.000007324219,4|2,0:0|0:0,0:0:0
504,248,123363,2,0,B|500:144|492:52,1,192.000007324219,8|8,0:0|0:0,0:0:0
400,96,124029,1,8,0:0:0
304,128,124251,1,0,0:0:0
208,164,124474,6,0,B|232:240|208:292|132:312,1,192.000007324219,2|2,0:0|0:0,0:0:0
32,324,125140,1,8,0:0:0
128,288,125363,1,0,0:0:0
219,322,125585,1,8,0:0:0
315,291,125807,1,8,0:0:0
407,330,126029,1,0,0:0:0
469,127,126251,6,0,B|478:214,1,83.1999961914064,2|0,0:0|0:0,0:0:0
378,67,126696,2,0,B|372:150,1,83.1999961914064,2|8,0:0|0:0,0:0:0
372,149,127029,1,0,0:0:0
372,149,127140,1,0,0:0:0
280,184,127363,1,8,0:0:0
192,144,127585,1,8,0:0:0
108,192,127807,1,0,0:0:0
24,152,128029,5,2,0:0:0
104,104,128251,1,2,0:0:0
24,152,128474,1,2,0:0:0
104,104,128696,1,2,0:0:0
125,354,129140,2,0,B|147:273,2,83.1999961914064,2|2|2,0:0|0:0|0:0,0:0:0
62,278,129807,6,0,B|113:227|197:248|221:310,1,192.000007324219,4|12,0:0|0:0,0:0:0
304,352,130474,1,2,0:0:0
392,320,130696,1,0,0:0:0
480,288,130918,1,2,0:0:0
480,264,131029,1,0,0:0:0
480,240,131140,1,12,0:0:0
392,208,131363,6,0,B|304:160|296:272|208:216,1,192.000007324219,2|2,0:0|0:0,0:0:0
128,168,132029,2,0,B|120:216|120:264,1,96.0000036621095,12|0,0:0|0:0,0:0:0
32,304,132474,1,0,0:0:0
16,208,132696,1,2,0:0:0
16,208,132807,1,0,0:0:0
16,208,132918,1,12,0:0:0
24,112,133140,6,0,B|88:24|200:72,1,192.000007324219,2|2,0:0|0:0,0:0:0
256,192,133807,1,0,0:0:0
488,272,134029,2,2,B|424:360|312:312,1,192.000007324219,2|2,0:0|0:0,0:0:0
256,192,134696,1,0,0:0:0
40,136,134918,6,0,B|104:48|216:96,1,192.000007324219,2|2,0:0|0:0,0:0:0
256,192,135585,1,0,0:0:0
472,248,135807,2,2,B|408:336|296:288,2,192.000007324219,2|0|2,0:0|0:0|0:0,0:0:0
504,160,136918,5,4,0:0:0
456,80,137140,1,2,0:0:0
448,52,137251,1,0,0:0:0
440,24,137363,1,0,0:0:0
352,56,137585,1,2,0:0:0
344,84,137696,1,0,0:0:0
336,112,137808,1,0,0:0:0
248,144,138029,1,2,0:0:0
240,116,138140,1,0,0:0:0
232,88,138252,1,0,0:0:0
156,264,138474,5,2,0:0:0
164,236,138585,1,0,0:0:0
172,208,138697,1,0,0:0:0
260,240,138919,1,2,0:0:0
268,268,139030,1,0,0:0:0
276,296,139140,1,0,0:0:0
364,328,139363,1,2,0:0:0
372,300,139474,1,0,0:0:0
380,272,139586,1,0,0:0:0
472,264,139807,5,2,0:0:0
472,264,139918,1,0,0:0:0
472,264,140029,1,0,0:0:0
416,188,140251,1,2,0:0:0
416,188,140363,1,0,0:0:0
416,188,140474,6,0,B|412:132,3,48.0000018310548,0|0|2|0,0:0|0:0|0:0|0:0,0:0:0
320,176,140918,6,0,B|316:232,3,48.0000018310548,8|0|0|0,0:0|0:0|0:0|0:0,0:0:0
224,176,141363,22,0,B|220:120,3,48.0000018310548,2|0|2|0,0:0|0:0|0:0|0:0,0:0:0
128,164,141807,6,0,B|124:220,3,48.0000018310548,8|0|0|0,0:0|0:0|0:0|0:0,0:0:0
32,176,142251,5,2,0:0:0
52,193,142362,1,0,0:0:0
76,207,142473,1,8,0:0:0
101,217,142584,1,0,0:0:0
129,221,142695,1,8,0:0:0
156,221,142806,1,0,0:0:0
183,217,142919,1,0,0:0:0
209,210,143030,1,0,0:0:0
208,256,143140,5,8,0:0:0
215,229,143251,1,0,0:0:0
225,204,143362,1,8,0:0:0
238,179,143473,1,0,0:0:0
254,157,143584,1,8,0:0:0
273,137,143695,1,0,0:0:0
294,120,143806,1,8,0:0:0
317,105,143919,1,0,0:0:0
342,96,144030,5,4,0:0:0
