osu file format v14

[General]
AudioFilename: 1773253191.mp3
AudioLeadIn: 0
PreviewTime: 227663
Countdown: 0
SampleSet: Normal
StackLeniency: 1
Mode: 1
LetterboxInBreaks: 0
WidescreenStoryboard: 0

[Editor]
Bookmarks: 2747,82291,138520,204349,260577,282520
DistanceSpacing: 2
BeatDivisor: 4
GridSize: 32
TimelineZoom: 2.5

[Metadata]
Title:Seraphim
TitleUnicode:Seraphim
Artist:himmel feat. YooSanHyakurei
ArtistUnicode:himmel feat. 瑶山百霊
Creator:xfraczynho
Version:Celestial Oni
Source:
Tags:himmeltengoku Yonder Voice Empyrean musync Trancecore DarkVortex Collab
BeatmapID:1382550
BeatmapSetID:651998

[Difficulty]
HPDrainRate:5
CircleSize:2
OverallDifficulty:6
ApproachRate:10
SliderMultiplier:1.4
SliderTickRate:1

[Events]
//Background and Video events
0,0,"bg.jpg",0,-100
//Break Periods
//Storyboard Layer 0 (Background)
//Storyboard Layer 1 (Fail)
//Storyboard Layer 2 (Pass)
//Storyboard Layer 3 (Foreground)
//Storyboard Sound Samples

[TimingPoints]
2749,342.857142857143,4,1,0,50,1,0
2749,-111.111111111111,4,1,0,50,0,0
12349,-111.111111111111,4,1,0,52,0,0
12691,-111.111111111111,4,1,0,54,0,0
13034,-111.111111111111,4,1,0,56,0,0
13377,-111.111111111111,4,1,0,58,0,0
13720,-111.111111111111,4,1,0,60,0,0
24349,-111.111111111111,4,1,0,65,0,0
25377,-111.111111111111,4,1,0,70,0,0
26406,-111.111111111111,4,1,0,75,0,0
27434,-100,4,1,0,80,0,0
60349,-100,4,1,0,85,0,0
93263,-100,4,1,0,80,0,0
104234,-100,4,1,0,85,0,0
126177,-100,4,1,0,80,0,0
137491,-104.166666666667,4,1,0,60,0,0
137834,-108.695652173913,4,1,0,50,0,0
138006,-108.695652173913,4,1,0,55,0,0
138091,-105.263157894737,4,1,0,60,0,0
138177,-102.040816326531,4,1,0,65,0,0
138263,-99.009900990099,4,1,0,70,0,0
138349,-96.1538461538461,4,1,0,75,0,0
138434,-93.4579439252336,4,1,0,80,0,0
138520,-90.9090909090909,4,1,0,90,0,1
159691,-91.743119266055,4,1,0,90,0,1
159777,-92.5925925925926,4,1,0,90,0,1
159863,-93.4579439252336,4,1,0,90,0,1
159949,-94.3396226415094,4,1,0,90,0,1
160034,-95.2380952380952,4,1,0,90,0,1
160120,-96.1538461538461,4,1,0,90,0,1
160206,-97.0873786407767,4,1,0,90,0,1
160291,-98.0392156862745,4,1,0,90,0,1
160463,-100,4,1,0,80,0,0
182406,-111.111111111111,4,1,0,80,0,0
183777,-125,4,1,0,80,0,0
204349,-100,4,1,0,80,0,0
215320,-100,4,1,0,70,0,0
226634,-104.166666666667,4,1,0,60,0,0
226977,-108.695652173913,4,1,0,50,0,0
227149,-108.695652173913,4,1,0,55,0,0
227234,-105.263157894737,4,1,0,60,0,0
227320,-102.040816326531,4,1,0,65,0,0
227406,-99.009900990099,4,1,0,70,0,0
227491,-96.1538461538461,4,1,0,75,0,0
227577,-93.4579439252336,4,1,0,80,0,0
227663,-90.9090909090909,4,1,0,90,0,1
249263,-90.9090909090909,4,1,0,90,0,1
249434,-90.9090909090909,4,1,0,90,0,1
249606,-90.9090909090909,4,1,0,80,0,0
249949,-100,4,1,0,80,0,0
260234,-98.0392156862745,4,1,0,80,0,0
260320,-96.1538461538461,4,1,0,80,0,0
260406,-94.3396226415094,4,1,0,80,0,0
260491,-92.5925925925926,4,1,0,80,0,0
260577,-90.9090909090909,4,1,0,90,0,1
298977,-90.9090909090909,4,1,0,70,0,0
299149,-100,4,1,0,70,0,0

[HitObjects]
256,192,2749,5,4,0:0:0:0:
256,192,3948,1,8,0:0:0:0:
256,192,4806,1,0,0:0:0:0:
256,192,5491,1,8,0:0:0:0:
256,192,6691,1,8,0:0:0:0:
256,192,7720,1,0,0:0:0:0:
256,192,8234,1,0,0:0:0:0:
256,192,9434,1,8,0:0:0:0:
256,192,10120,1,8,0:0:0:0:
256,192,10977,1,0,0:0:0:0:
256,192,11320,1,0,0:0:0:0:
256,192,11491,1,8,0:0:0:0:
256,192,11834,1,0,0:0:0:0:
256,192,12006,1,0,0:0:0:0:
256,192,12177,1,8,0:0:0:0:
256,192,12349,12,0,13377,0:0:0:0:
256,192,13720,5,4,0:0:0:0:
256,192,14406,1,0,0:0:0:0:
256,192,14749,1,0,0:0:0:0:
256,192,14920,1,8,0:0:0:0:
256,192,15434,1,0,0:0:0:0:
256,192,16120,1,0,0:0:0:0:
256,192,16291,1,8,0:0:0:0:
256,192,16634,1,8,0:0:0:0:
256,192,16806,1,8,0:0:0:0:
256,192,16977,1,0,0:0:0:0:
256,192,17320,1,0,0:0:0:0:
256,192,17491,1,0,0:0:0:0:
256,192,17663,1,8,0:0:0:0:
256,192,18006,1,0,0:0:0:0:
256,192,18177,1,8,0:0:0:0:
256,192,18349,1,0,0:0:0:0:
256,192,18691,1,0,0:0:0:0:
256,192,18863,1,0,0:0:0:0:
256,192,19034,1,8,0:0:0:0:
256,192,19206,1,8,0:0:0:0:
256,192,19377,1,0,0:0:0:0:
256,192,19549,1,0,0:0:0:0:
256,192,19720,1,8,0:0:0:0:
256,192,20063,1,0,0:0:0:0:
256,192,20234,1,0,0:0:0:0:
256,192,20406,1,8,0:0:0:0:
256,192,20749,1,8,0:0:0:0:
256,192,20920,1,0,0:0:0:0:
256,192,21777,1,8,0:0:0:0:
256,192,21949,1,8,0:0:0:0:
256,192,22120,1,0,0:0:0:0:
256,192,22291,1,0,0:0:0:0:
256,192,22463,1,8,0:0:0:0:
256,192,22977,1,0,0:0:0:0:
256,192,23149,1,8,0:0:0:0:
256,192,23320,12,0,24606,0:0:0:0:
256,192,24691,12,0,25977,0:0:0:0:
256,192,26063,12,0,27091,0:0:0:0:
256,192,27434,5,12,0:0:0:0:
256,192,27949,1,0,0:0:0:0:
256,192,28463,1,0,0:0:0:0:
256,192,28806,1,8,0:0:0:0:
256,192,29320,1,0,0:0:0:0:
256,192,29834,1,0,0:0:0:0:
256,192,30177,1,8,0:0:0:0:
256,192,30691,1,8,0:0:0:0:
256,192,31206,1,0,0:0:0:0:
256,192,31549,1,8,0:0:0:0:
256,192,32063,1,0,0:0:0:0:
256,192,32577,1,8,0:0:0:0:
256,192,32920,1,4,0:0:0:0:
256,192,33434,1,8,0:0:0:0:
256,192,33949,1,0,0:0:0:0:
256,192,34291,1,8,0:0:0:0:
256,192,34806,1,8,0:0:0:0:
256,192,35320,1,0,0:0:0:0:
256,192,35663,1,8,0:0:0:0:
256,192,36177,1,0,0:0:0:0:
256,192,36691,1,0,0:0:0:0:
256,192,37034,1,8,0:0:0:0:
256,192,37549,1,8,0:0:0:0:
256,192,38063,1,8,0:0:0:0:
256,192,38406,1,4,0:0:0:0:
256,192,38749,1,0,0:0:0:0:
256,192,38920,1,8,0:0:0:0:
256,192,39263,1,0,0:0:0:0:
256,192,39434,1,0,0:0:0:0:
256,192,39606,1,8,0:0:0:0:
256,192,39777,1,0,0:0:0:0:
256,192,40120,1,8,0:0:0:0:
256,192,40291,1,0,0:0:0:0:
256,192,40634,1,0,0:0:0:0:
256,192,40806,1,8,0:0:0:0:
256,192,40977,1,8,0:0:0:0:
256,192,41149,1,0,0:0:0:0:
256,192,41491,1,8,0:0:0:0:
256,192,41663,1,0,0:0:0:0:
256,192,42006,1,0,0:0:0:0:
256,192,42177,1,8,0:0:0:0:
256,192,42349,1,8,0:0:0:0:
256,192,42520,1,0,0:0:0:0:
256,192,42863,1,8,0:0:0:0:
256,192,43034,1,8,0:0:0:0:
256,192,43377,1,0,0:0:0:0:
256,192,43549,1,8,0:0:0:0:
256,192,43720,1,0,0:0:0:0:
256,192,43891,1,12,0:0:0:0:
256,192,44234,1,0,0:0:0:0:
256,192,44405,1,8,0:0:0:0:
256,192,44748,1,0,0:0:0:0:
256,192,44919,1,0,0:0:0:0:
256,192,45091,1,8,0:0:0:0:
256,192,45262,1,0,0:0:0:0:
256,192,45605,1,8,0:0:0:0:
256,192,45776,1,0,0:0:0:0:
256,192,46119,1,0,0:0:0:0:
256,192,46291,1,8,0:0:0:0:
256,192,46462,1,8,0:0:0:0:
256,192,46634,1,0,0:0:0:0:
256,192,46976,1,8,0:0:0:0:
256,192,47148,1,0,0:0:0:0:
256,192,47491,1,0,0:0:0:0:
256,192,47662,1,8,0:0:0:0:
256,192,47834,1,0,0:0:0:0:
256,192,48005,1,0,0:0:0:0:
256,192,48349,1,8,0:0:0:0:
256,192,48519,1,8,0:0:0:0:
256,192,48863,1,0,0:0:0:0:
256,192,49034,1,0,0:0:0:0:
256,192,49120,1,8,0:0:0:0:
256,192,49205,1,8,0:0:0:0:
256,192,49291,1,8,0:0:0:0:
256,192,49376,1,0,0:0:0:0:
256,192,49720,1,8,0:0:0:0:
256,192,49891,1,0,0:0:0:0:
256,192,50063,1,8,0:0:0:0:
256,192,50234,1,8,0:0:0:0:
256,192,50749,1,0,0:0:0:0:
256,192,51091,1,8,0:0:0:0:
256,192,51263,1,8,0:0:0:0:
256,192,51434,1,0,0:0:0:0:
256,192,51606,1,0,0:0:0:0:
256,192,51777,1,0,0:0:0:0:
256,192,51863,1,0,0:0:0:0:
256,192,51949,1,8,0:0:0:0:
256,192,52120,1,0,0:0:0:0:
256,192,52463,1,8,0:0:0:0:
256,192,52634,1,0,0:0:0:0:
256,192,52806,1,8,0:0:0:0:
256,192,52977,1,8,0:0:0:0:
256,192,53492,1,0,0:0:0:0:
256,192,53834,1,8,0:0:0:0:
256,192,54006,1,8,0:0:0:0:
256,192,54177,1,0,0:0:0:0:
256,192,54349,1,0,0:0:0:0:
256,192,54520,1,8,0:0:0:0:
256,192,54606,1,8,0:0:0:0:
256,192,54692,1,8,0:0:0:0:
256,192,54863,1,8,0:0:0:0:
256,192,55034,1,0,0:0:0:0:
256,192,55206,1,8,0:0:0:0:
256,192,55377,1,0,0:0:0:0:
256,192,55549,1,8,0:0:0:0:
256,192,55891,1,0,0:0:0:0:
256,192,56063,1,8,0:0:0:0:
256,192,56234,1,0,0:0:0:0:
256,192,56406,1,8,0:0:0:0:
256,192,56577,1,0,0:0:0:0:
256,192,56749,1,0,0:0:0:0:
256,192,56920,1,8,0:0:0:0:
256,192,57263,1,0,0:0:0:0:
256,192,57434,1,0,0:0:0:0:
256,192,57606,1,8,0:0:0:0:
256,192,57949,1,8,0:0:0:0:
256,192,58034,1,8,0:0:0:0:
256,192,58120,1,0,0:0:0:0:
256,192,58291,1,8,0:0:0:0:
256,192,58634,1,8,0:0:0:0:
256,192,58719,1,0,0:0:0:0:
256,192,58805,1,8,0:0:0:0:
256,192,58977,1,0,0:0:0:0:
256,192,59320,1,0,0:0:0:0:
256,192,59663,1,8,0:0:0:0:
256,192,60006,1,8,0:0:0:0:
256,192,60177,1,0,0:0:0:0:
256,192,60349,1,12,0:0:0:0:
256,192,60691,1,8,0:0:0:0:
256,192,60777,1,8,0:0:0:0:
256,192,60863,1,0,0:0:0:0:
256,192,61034,1,0,0:0:0:0:
256,192,61206,1,0,0:0:0:0:
256,192,61291,1,0,0:0:0:0:
256,192,61377,1,8,0:0:0:0:
256,192,61549,1,8,0:0:0:0:
256,192,61720,1,0,0:0:0:0:
256,192,61891,1,8,0:0:0:0:
256,192,61977,1,8,0:0:0:0:
256,192,62063,1,8,0:0:0:0:
256,192,62234,1,0,0:0:0:0:
256,192,62406,1,8,0:0:0:0:
256,192,62491,1,8,0:0:0:0:
256,192,62577,1,0,0:0:0:0:
256,192,62749,1,8,0:0:0:0:
256,192,63091,1,12,0:0:0:0:
256,192,63434,1,8,0:0:0:0:
256,192,63606,1,0,0:0:0:0:
256,192,63691,1,0,0:0:0:0:
256,192,63777,1,8,0:0:0:0:
256,192,63949,1,0,0:0:0:0:
256,192,64120,1,8,0:0:0:0:
256,192,64206,1,0,0:0:0:0:
256,192,64291,1,8,0:0:0:0:
256,192,64463,1,0,0:0:0:0:
256,192,64634,1,8,0:0:0:0:
256,192,64720,1,8,0:0:0:0:
256,192,64806,1,0,0:0:0:0:
256,192,64891,1,0,0:0:0:0:
256,192,64977,1,8,0:0:0:0:
256,192,65149,1,0,0:0:0:0:
256,192,65320,1,8,0:0:0:0:
256,192,65406,1,8,0:0:0:0:
256,192,65491,1,0,0:0:0:0:
256,192,65663,1,0,0:0:0:0:
256,192,65834,1,12,0:0:0:0:
256,192,66176,1,8,0:0:0:0:
256,192,66262,1,8,0:0:0:0:
256,192,66348,1,0,0:0:0:0:
256,192,66519,1,0,0:0:0:0:
256,192,66691,1,0,0:0:0:0:
256,192,66776,1,0,0:0:0:0:
256,192,66862,1,8,0:0:0:0:
256,192,67034,1,8,0:0:0:0:
256,192,67205,1,0,0:0:0:0:
256,192,67377,1,8,0:0:0:0:
256,192,67462,1,8,0:0:0:0:
256,192,67549,1,0,0:0:0:0:
256,192,67719,1,0,0:0:0:0:
256,192,67891,1,8,0:0:0:0:
256,192,68062,1,0,0:0:0:0:
256,192,68148,1,0,0:0:0:0:
256,192,68234,1,8,0:0:0:0:
256,192,68406,1,8,0:0:0:0:
256,192,68577,1,12,0:0:0:0:
256,192,68920,1,8,0:0:0:0:
256,192,69092,1,0,0:0:0:0:
256,192,69263,1,8,0:0:0:0:
256,192,69349,1,8,0:0:0:0:
256,192,69435,1,0,0:0:0:0:
256,192,69606,1,8,0:0:0:0:
256,192,69777,1,8,0:0:0:0:
256,192,69949,1,0,0:0:0:0:
256,192,70034,1,0,0:0:0:0:
256,192,70120,1,8,0:0:0:0:
256,192,70291,1,0,0:0:0:0:
256,192,70377,1,0,0:0:0:0:
256,192,70463,1,8,0:0:0:0:
256,192,70634,1,0,0:0:0:0:
256,192,70720,1,0,0:0:0:0:
256,192,70806,1,8,0:0:0:0:
256,192,70891,1,0,0:0:0:0:
256,192,70977,1,8,0:0:0:0:
256,192,71149,1,0,0:0:0:0:
256,192,71320,1,12,0:0:0:0:
256,192,71491,1,0,0:0:0:0:
256,192,71663,1,8,0:0:0:0:
256,192,71749,1,0,0:0:0:0:
256,192,71834,1,0,0:0:0:0:
256,192,72006,1,8,0:0:0:0:
256,192,72177,1,0,0:0:0:0:
256,192,72263,1,8,0:0:0:0:
256,192,72349,1,0,0:0:0:0:
256,192,72434,1,0,0:0:0:0:
256,192,72520,1,8,0:0:0:0:
256,192,72691,1,0,0:0:0:0:
256,192,72863,1,0,0:0:0:0:
256,192,72949,1,0,0:0:0:0:
256,192,73034,1,8,0:0:0:0:
256,192,73206,1,8,0:0:0:0:
256,192,73291,1,0,0:0:0:0:
256,192,73377,1,8,0:0:0:0:
256,192,73549,1,0,0:0:0:0:
256,192,73720,1,8,0:0:0:0:
256,192,74063,1,12,0:0:0:0:
256,192,74234,1,0,0:0:0:0:
256,192,74320,1,0,0:0:0:0:
256,192,74406,1,8,0:0:0:0:
256,192,74577,1,0,0:0:0:0:
256,192,74749,1,8,0:0:0:0:
256,192,74834,1,8,0:0:0:0:
256,192,74920,1,0,0:0:0:0:
256,192,75006,1,8,0:0:0:0:
256,192,75091,1,0,0:0:0:0:
256,192,75263,1,8,0:0:0:0:
256,192,75434,1,0,0:0:0:0:
256,192,75520,1,0,0:0:0:0:
256,192,75606,1,8,0:0:0:0:
256,192,75777,1,8,0:0:0:0:
256,192,75863,1,0,0:0:0:0:
256,192,75949,1,0,0:0:0:0:
256,192,76034,1,0,0:0:0:0:
256,192,76120,1,8,0:0:0:0:
256,192,76292,1,0,0:0:0:0:
256,192,76463,1,8,0:0:0:0:
256,192,76806,1,12,0:0:0:0:
256,192,76977,1,0,0:0:0:0:
256,192,77149,1,8,0:0:0:0:
256,192,77235,1,0,0:0:0:0:
256,192,77320,1,8,0:0:0:0:
256,192,77492,1,0,0:0:0:0:
256,192,77663,1,0,0:0:0:0:
256,192,77749,1,0,0:0:0:0:
256,192,77835,1,8,0:0:0:0:
256,192,77920,1,0,0:0:0:0:
256,192,78006,1,8,0:0:0:0:
256,192,78177,1,0,0:0:0:0:
256,192,78349,1,0,0:0:0:0:
256,192,78434,1,0,0:0:0:0:
256,192,78520,1,8,0:0:0:0:
256,192,78606,1,8,0:0:0:0:
256,192,78692,1,0,0:0:0:0:
256,192,78863,1,8,0:0:0:0:
256,192,79034,1,0,0:0:0:0:
256,192,79120,1,8,0:0:0:0:
256,192,79206,1,0,0:0:0:0:
256,192,79377,1,8,0:0:0:0:
256,192,79549,1,12,0:0:0:0:
256,192,79720,1,0,0:0:0:0:
256,192,79806,1,0,0:0:0:0:
256,192,79892,1,8,0:0:0:0:
256,192,80063,1,0,0:0:0:0:
256,192,80235,1,8,0:0:0:0:
256,192,80320,1,8,0:0:0:0:
256,192,80406,1,0,0:0:0:0:
256,192,80492,1,8,0:0:0:0:
256,192,80577,1,0,0:0:0:0:
256,192,80749,1,8,0:0:0:0:
256,192,80920,1,8,0:0:0:0:
256,192,81006,1,0,0:0:0:0:
256,192,81092,1,8,0:0:0:0:
256,192,81263,1,8,0:0:0:0:
256,192,81349,1,0,0:0:0:0:
256,192,81434,1,8,0:0:0:0:
256,192,81606,1,8,0:0:0:0:
256,192,81691,1,0,0:0:0:0:
256,192,81777,1,8,0:0:0:0:
256,192,81863,1,8,0:0:0:0:
256,192,81949,1,0,0:0:0:0:
256,192,82034,1,0,0:0:0:0:
256,192,82120,1,8,0:0:0:0:
256,192,82291,5,12,0:0:0:0:
256,192,82634,1,0,0:0:0:0:
256,192,82806,1,0,0:0:0:0:
256,192,82891,1,0,0:0:0:0:
256,192,82977,1,8,0:0:0:0:
256,192,83149,1,0,0:0:0:0:
256,192,83320,1,8,0:0:0:0:
256,192,83406,1,0,0:0:0:0:
256,192,83491,1,8,0:0:0:0:
256,192,83577,1,8,0:0:0:0:
256,192,83663,1,0,0:0:0:0:
256,192,83834,1,8,0:0:0:0:
256,192,84006,1,0,0:0:0:0:
256,192,84091,1,0,0:0:0:0:
256,192,84177,1,8,0:0:0:0:
256,192,84263,1,0,0:0:0:0:
256,192,84349,1,8,0:0:0:0:
256,192,84520,1,0,0:0:0:0:
256,192,84691,1,8,0:0:0:0:
256,192,84777,1,0,0:0:0:0:
256,192,84863,1,0,0:0:0:0:
256,192,85034,1,12,0:0:0:0:
256,192,85377,1,0,0:0:0:0:
256,192,85549,1,0,0:0:0:0:
256,192,85634,1,0,0:0:0:0:
256,192,85720,1,8,0:0:0:0:
256,192,85891,1,0,0:0:0:0:
256,192,86063,1,8,0:0:0:0:
256,192,86149,1,0,0:0:0:0:
256,192,86234,1,8,0:0:0:0:
256,192,86406,1,0,0:0:0:0:
256,192,86577,1,8,0:0:0:0:
256,192,86663,1,8,0:0:0:0:
256,192,86749,1,0,0:0:0:0:
256,192,86834,1,0,0:0:0:0:
256,192,86920,1,8,0:0:0:0:
256,192,87006,1,0,0:0:0:0:
256,192,87091,1,8,0:0:0:0:
256,192,87263,1,0,0:0:0:0:
256,192,87434,1,8,0:0:0:0:
256,192,87520,1,8,0:0:0:0:
256,192,87606,1,8,0:0:0:0:
256,192,87691,1,8,0:0:0:0:
256,192,87777,1,0,0:0:0:0:
256,192,88120,1,8,0:0:0:0:
256,192,88463,1,8,0:0:0:0:
256,192,88806,1,8,0:0:0:0:
256,192,88977,1,8,0:0:0:0:
256,192,89149,1,0,0:0:0:0:
256,192,89320,1,8,0:0:0:0:
256,192,89663,1,8,0:0:0:0:
256,192,89834,1,8,0:0:0:0:
256,192,90177,1,0,0:0:0:0:
256,192,90349,1,0,0:0:0:0:
256,192,90520,1,8,0:0:0:0:
256,192,90691,1,0,0:0:0:0:
256,192,90777,1,0,0:0:0:0:
256,192,90863,1,8,0:0:0:0:
256,192,91034,1,0,0:0:0:0:
256,192,91120,1,0,0:0:0:0:
256,192,91206,1,8,0:0:0:0:
256,192,91377,1,0,0:0:0:0:
256,192,91463,1,0,0:0:0:0:
256,192,91549,1,8,0:0:0:0:
256,192,91720,1,0,0:0:0:0:
256,192,91806,1,0,0:0:0:0:
256,192,91891,1,8,0:0:0:0:
256,192,91977,1,0,0:0:0:0:
256,192,92063,1,8,0:0:0:0:
256,192,92149,1,8,0:0:0:0:
256,192,92234,1,0,0:0:0:0:
256,192,92406,1,8,0:0:0:0:
256,192,92577,1,0,0:0:0:0:
256,192,92663,1,0,0:0:0:0:
256,192,92749,1,0,0:0:0:0:
256,192,92834,1,0,0:0:0:0:
256,192,92920,1,8,0:0:0:0:
256,192,93006,1,8,0:0:0:0:
256,192,93091,1,8,0:0:0:0:
256,192,93263,1,4,0:0:0:0:
256,192,94291,1,0,0:0:0:0:
256,192,94463,1,0,0:0:0:0:
256,192,94634,1,8,0:0:0:0:
256,192,94806,1,8,0:0:0:0:
256,192,95149,1,0,0:0:0:0:
256,192,95491,1,8,0:0:0:0:
256,192,95834,1,0,0:0:0:0:
256,192,96006,1,8,0:0:0:0:
256,192,97034,1,0,0:0:0:0:
256,192,97206,1,0,0:0:0:0:
256,192,97377,1,8,0:0:0:0:
256,192,97549,1,8,0:0:0:0:
256,192,97891,1,0,0:0:0:0:
256,192,98234,1,8,0:0:0:0:
256,192,98406,1,0,0:0:0:0:
256,192,98491,1,0,0:0:0:0:
256,192,98577,1,0,0:0:0:0:
256,192,98663,1,0,0:0:0:0:
256,192,98749,1,8,0:0:0:0:
256,192,99777,1,0,0:0:0:0:
256,192,99949,1,8,0:0:0:0:
256,192,100120,1,8,0:0:0:0:
256,192,100291,1,8,0:0:0:0:
256,192,100634,1,8,0:0:0:0:
256,192,100977,1,0,0:0:0:0:
256,192,101320,1,0,0:0:0:0:
256,192,101491,1,8,0:0:0:0:
256,192,101834,1,0,0:0:0:0:
256,192,102177,1,8,0:0:0:0:
256,192,102520,1,8,0:0:0:0:
256,192,102691,1,8,0:0:0:0:
256,192,103034,1,8,0:0:0:0:
256,192,103377,1,8,0:0:0:0:
256,192,103549,1,8,0:0:0:0:
256,192,103720,1,8,0:0:0:0:
256,192,103891,1,0,0:0:0:0:
256,192,104063,1,0,0:0:0:0:
256,192,104234,1,12,0:0:0:0:
256,192,104577,1,0,0:0:0:0:
256,192,104749,1,0,0:0:0:0:
256,192,104920,1,8,0:0:0:0:
256,192,105091,1,0,0:0:0:0:
256,192,105263,1,8,0:0:0:0:
256,192,105349,1,0,0:0:0:0:
256,192,105434,1,8,0:0:0:0:
256,192,105606,1,0,0:0:0:0:
256,192,105777,1,0,0:0:0:0:
256,192,105863,1,0,0:0:0:0:
256,192,105949,1,8,0:0:0:0:
256,192,106120,1,8,0:0:0:0:
256,192,106206,1,8,0:0:0:0:
256,192,106291,1,0,0:0:0:0:
256,192,106463,1,0,0:0:0:0:
256,192,106634,1,8,0:0:0:0:
256,192,106720,1,0,0:0:0:0:
256,192,106806,1,8,0:0:0:0:
256,192,106977,1,8,0:0:0:0:
256,192,107149,1,0,0:0:0:0:
256,192,107234,1,0,0:0:0:0:
256,192,107320,1,8,0:0:0:0:
256,192,107491,1,8,0:0:0:0:
256,192,107577,1,8,0:0:0:0:
256,192,107663,1,0,0:0:0:0:
256,192,107834,1,0,0:0:0:0:
256,192,108006,1,8,0:0:0:0:
256,192,108177,1,0,0:0:0:0:
256,192,108263,1,8,0:0:0:0:
256,192,108349,1,0,0:0:0:0:
256,192,108434,1,0,0:0:0:0:
256,192,108520,1,8,0:0:0:0:
256,192,108691,1,8,0:0:0:0:
256,192,108777,1,8,0:0:0:0:
256,192,108863,1,0,0:0:0:0:
256,192,108949,1,0,0:0:0:0:
256,192,109034,1,8,0:0:0:0:
256,192,109206,1,0,0:0:0:0:
256,192,109377,1,8,0:0:0:0:
256,192,109549,1,8,0:0:0:0:
256,192,109720,1,0,0:0:0:0:
256,192,110063,1,8,0:0:0:0:
256,192,110234,1,0,0:0:0:0:
256,192,110320,1,0,0:0:0:0:
256,192,110406,1,8,0:0:0:0:
256,192,110577,1,0,0:0:0:0:
256,192,110749,1,8,0:0:0:0:
256,192,110920,1,8,0:0:0:0:
256,192,111091,1,8,0:0:0:0:
256,192,111177,1,8,0:0:0:0:
256,192,111263,1,0,0:0:0:0:
256,192,111349,1,0,0:0:0:0:
256,192,111434,1,8,0:0:0:0:
256,192,111606,1,8,0:0:0:0:
256,192,111691,1,0,0:0:0:0:
256,192,111777,1,8,0:0:0:0:
256,192,111949,1,0,0:0:0:0:
256,192,112120,1,8,0:0:0:0:
256,192,112206,1,8,0:0:0:0:
256,192,112291,1,0,0:0:0:0:
256,192,112463,1,8,0:0:0:0:
256,192,112806,1,0,0:0:0:0:
256,192,112977,1,0,0:0:0:0:
256,192,113149,1,8,0:0:0:0:
256,192,113491,1,8,0:0:0:0:
256,192,113663,1,8,0:0:0:0:
256,192,113834,1,0,0:0:0:0:
256,192,114006,1,8,0:0:0:0:
256,192,114177,1,0,0:0:0:0:
256,192,114349,1,8,0:0:0:0:
256,192,114520,1,8,0:0:0:0:
256,192,114691,1,0,0:0:0:0:
256,192,114863,1,8,0:0:0:0:
256,192,115034,1,8,0:0:0:0:
256,192,115206,1,4,0:0:0:0:
256,192,115549,1,0,0:0:0:0:
256,192,115720,1,8,0:0:0:0:
256,192,115891,1,0,0:0:0:0:
256,192,116063,1,0,0:0:0:0:
256,192,116149,1,0,0:0:0:0:
256,192,116234,1,8,0:0:0:0:
256,192,116406,1,0,0:0:0:0:
256,192,116577,1,8,0:0:0:0:
256,192,116749,1,0,0:0:0:0:
256,192,116920,1,0,0:0:0:0:
256,192,117091,1,8,0:0:0:0:
256,192,117434,1,0,0:0:0:0:
256,192,117606,1,8,0:0:0:0:
256,192,117949,1,8,0:0:0:0:
256,192,118120,1,0,0:0:0:0:
256,192,118206,1,0,0:0:0:0:
256,192,118291,1,8,0:0:0:0:
256,192,118463,1,8,0:0:0:0:
256,192,118634,1,0,0:0:0:0:
256,192,118806,1,0,0:0:0:0:
256,192,118977,1,8,0:0:0:0:
256,192,119063,1,8,0:0:0:0:
256,192,119149,1,0,0:0:0:0:
256,192,119320,1,8,0:0:0:0:
256,192,119491,1,0,0:0:0:0:
256,192,119577,1,0,0:0:0:0:
256,192,119663,1,8,0:0:0:0:
256,192,119834,1,0,0:0:0:0:
256,192,120006,1,8,0:0:0:0:
256,192,120091,1,8,0:0:0:0:
256,192,120177,1,0,0:0:0:0:
256,192,120349,1,8,0:0:0:0:
256,192,120691,1,8,0:0:0:0:
256,192,120863,1,0,0:0:0:0:
256,192,120949,1,0,0:0:0:0:
256,192,121034,1,8,0:0:0:0:
256,192,121206,1,8,0:0:0:0:
256,192,121377,1,0,0:0:0:0:
256,192,121549,1,8,0:0:0:0:
256,192,121634,1,0,0:0:0:0:
256,192,121720,1,8,0:0:0:0:
256,192,121891,1,0,0:0:0:0:
256,192,122063,1,8,0:0:0:0:
256,192,122234,1,0,0:0:0:0:
256,192,122320,1,0,0:0:0:0:
256,192,122406,1,8,0:0:0:0:
256,192,122577,1,8,0:0:0:0:
256,192,122749,1,0,0:0:0:0:
256,192,122920,1,8,0:0:0:0:
256,192,123263,1,8,0:0:0:0:
256,192,123349,1,8,0:0:0:0:
256,192,123434,1,0,0:0:0:0:
256,192,123606,1,0,0:0:0:0:
256,192,123691,1,0,0:0:0:0:
256,192,123777,1,8,0:0:0:0:
256,192,123949,1,0,0:0:0:0:
256,192,124120,1,8,0:0:0:0:
256,192,124291,1,0,0:0:0:0:
256,192,124377,1,0,0:0:0:0:
256,192,124463,1,8,0:0:0:0:
256,192,124549,1,0,0:0:0:0:
256,192,124634,1,8,0:0:0:0:
256,192,124806,1,0,0:0:0:0:
256,192,124977,1,0,0:0:0:0:
256,192,125149,1,8,0:0:0:0:
256,192,125320,1,8,0:0:0:0:
256,192,125491,1,0,0:0:0:0:
256,192,125834,1,8,0:0:0:0:
256,192,126006,1,8,0:0:0:0:
256,192,126177,1,4,0:0:0:0:
256,192,126520,1,8,0:0:0:0:
256,192,126863,1,0,0:0:0:0:
256,192,127206,1,0,0:0:0:0:
256,192,127377,1,0,0:0:0:0:
256,192,127549,1,8,0:0:0:0:
256,192,127891,1,0,0:0:0:0:
256,192,128234,1,8,0:0:0:0:
256,192,128577,1,8,0:0:0:0:
256,192,128749,1,8,0:0:0:0:
256,192,128920,1,0,0:0:0:0:
256,192,129263,1,8,0:0:0:0:
256,192,129606,1,0,0:0:0:0:
256,192,129949,1,0,0:0:0:0:
256,192,130120,1,0,0:0:0:0:
256,192,130291,1,8,0:0:0:0:
256,192,130634,1,8,0:0:0:0:
256,192,130977,1,8,0:0:0:0:
256,192,131320,1,8,0:0:0:0:
256,192,131406,1,8,0:0:0:0:
256,192,131491,1,8,0:0:0:0:
256,192,131577,1,8,0:0:0:0:
256,192,131663,1,0,0:0:0:0:
256,192,131834,1,0,0:0:0:0:
256,192,132006,1,8,0:0:0:0:
256,192,132349,1,8,0:0:0:0:
256,192,132691,1,0,0:0:0:0:
256,192,132863,1,8,0:0:0:0:
256,192,133034,1,0,0:0:0:0:
256,192,133206,1,8,0:0:0:0:
256,192,133377,1,0,0:0:0:0:
256,192,133549,1,0,0:0:0:0:
256,192,133720,1,8,0:0:0:0:
256,192,134063,1,0,0:0:0:0:
256,192,134234,1,0,0:0:0:0:
256,192,134406,1,8,0:0:0:0:
256,192,134577,1,0,0:0:0:0:
256,192,134663,1,0,0:0:0:0:
256,192,134749,1,8,0:0:0:0:
256,192,134920,1,0,0:0:0:0:
256,192,135091,1,8,0:0:0:0:
256,192,135177,1,8,0:0:0:0:
256,192,135263,1,0,0:0:0:0:
256,192,135349,1,0,0:0:0:0:
256,192,135434,1,8,0:0:0:0:
256,192,135606,1,8,0:0:0:0:
256,192,135777,1,0,0:0:0:0:
256,192,135949,1,0,0:0:0:0:
256,192,136034,1,0,0:0:0:0:
256,192,136120,1,8,0:0:0:0:
256,192,136206,1,0,0:0:0:0:
256,192,136291,1,8,0:0:0:0:
256,192,136377,1,8,0:0:0:0:
256,192,136463,1,0,0:0:0:0:
256,192,136634,1,0,0:0:0:0:
256,192,136806,1,8,0:0:0:0:
256,192,136977,1,8,0:0:0:0:
256,192,137149,1,12,0:0:0:0:
256,192,137491,1,4,0:0:0:0:
256,192,137834,1,12,0:0:0:0:
256,192,138006,1,0,0:0:0:0:
256,192,138091,1,0,0:0:0:0:
256,192,138177,1,0,0:0:0:0:
256,192,138263,1,0,0:0:0:0:
256,192,138349,1,0,0:0:0:0:
256,192,138434,1,0,0:0:0:0:
256,192,138520,1,8,0:0:0:0:
256,192,138691,1,0,0:0:0:0:
256,192,138863,1,8,0:0:0:0:
256,192,138949,1,0,0:0:0:0:
256,192,139034,1,8,0:0:0:0:
256,192,139120,1,8,0:0:0:0:
256,192,139206,1,0,0:0:0:0:
256,192,139377,1,0,0:0:0:0:
256,192,139549,1,8,0:0:0:0:
256,192,139634,1,0,0:0:0:0:
256,192,139720,1,8,0:0:0:0:
256,192,139806,1,8,0:0:0:0:
256,192,139891,1,0,0:0:0:0:
256,192,139977,1,0,0:0:0:0:
256,192,140063,1,8,0:0:0:0:
256,192,140234,1,0,0:0:0:0:
256,192,140406,1,8,0:0:0:0:
256,192,140491,1,0,0:0:0:0:
256,192,140577,1,8,0:0:0:0:
256,192,140749,1,0,0:0:0:0:
256,192,140920,1,8,0:0:0:0:
256,192,141263,1,8,0:0:0:0:
256,192,141349,1,8,0:0:0:0:
256,192,141434,1,0,0:0:0:0:
256,192,141606,1,8,0:0:0:0:
256,192,141777,1,0,0:0:0:0:
256,192,141949,1,8,0:0:0:0:
256,192,142034,1,0,0:0:0:0:
256,192,142120,1,8,0:0:0:0:
256,192,142206,1,8,0:0:0:0:
256,192,142291,1,0,0:0:0:0:
256,192,142463,1,8,0:0:0:0:
256,192,142634,1,8,0:0:0:0:
256,192,142720,1,0,0:0:0:0:
256,192,142806,1,0,0:0:0:0:
256,192,142977,1,8,0:0:0:0:
256,192,143149,1,0,0:0:0:0:
256,192,143234,1,0,0:0:0:0:
256,192,143320,1,8,0:0:0:0:
256,192,143406,1,0,0:0:0:0:
256,192,143491,1,8,0:0:0:0:
256,192,143663,1,8,0:0:0:0:
256,192,143749,1,8,0:0:0:0:
256,192,143834,1,0,0:0:0:0:
256,192,144006,1,8,0:0:0:0:
256,192,144177,1,0,0:0:0:0:
256,192,144349,1,8,0:0:0:0:
256,192,144435,1,0,0:0:0:0:
256,192,144520,1,0,0:0:0:0:
256,192,144606,1,0,0:0:0:0:
256,192,144692,1,8,0:0:0:0:
256,192,144863,1,0,0:0:0:0:
256,192,145035,1,8,0:0:0:0:
256,192,145120,1,0,0:0:0:0:
256,192,145206,1,8,0:0:0:0:
256,192,145292,1,8,0:0:0:0:
256,192,145377,1,0,0:0:0:0:
256,192,145463,1,0,0:0:0:0:
256,192,145549,1,8,0:0:0:0:
256,192,145720,1,0,0:0:0:0:
256,192,145892,1,8,0:0:0:0:
256,192,145977,1,8,0:0:0:0:
256,192,146063,1,8,0:0:0:0:
256,192,146235,1,0,0:0:0:0:
256,192,146406,1,8,0:0:0:0:
256,192,146749,1,8,0:0:0:0:
256,192,146835,1,8,0:0:0:0:
256,192,146920,1,0,0:0:0:0:
256,192,147092,1,8,0:0:0:0:
256,192,147263,1,0,0:0:0:0:
256,192,147435,1,8,0:0:0:0:
256,192,147520,1,8,0:0:0:0:
256,192,147606,1,8,0:0:0:0:
256,192,147692,1,8,0:0:0:0:
256,192,147777,1,0,0:0:0:0:
256,192,147949,1,8,0:0:0:0:
256,192,148120,1,0,0:0:0:0:
256,192,148206,1,8,0:0:0:0:
256,192,148292,1,0,0:0:0:0:
256,192,148463,1,0,0:0:0:0:
256,192,148635,1,0,0:0:0:0:
256,192,148720,1,8,0:0:0:0:
256,192,148806,1,0,0:0:0:0:
256,192,148892,1,0,0:0:0:0:
256,192,148977,1,8,0:0:0:0:
256,192,149063,1,8,0:0:0:0:
256,192,149149,1,0,0:0:0:0:
256,192,149235,1,0,0:0:0:0:
256,192,149320,1,8,0:0:0:0:
256,192,149491,1,8,0:0:0:0:
256,192,149577,1,8,0:0:0:0:
256,192,149662,1,0,0:0:0:0:
256,192,149834,1,8,0:0:0:0:
256,192,149920,1,0,0:0:0:0:
256,192,150005,1,8,0:0:0:0:
256,192,150091,1,8,0:0:0:0:
256,192,150177,1,0,0:0:0:0:
256,192,150348,1,0,0:0:0:0:
256,192,150520,1,8,0:0:0:0:
256,192,150605,1,0,0:0:0:0:
256,192,150691,1,8,0:0:0:0:
256,192,150777,1,8,0:0:0:0:
256,192,150862,1,0,0:0:0:0:
256,192,150948,1,0,0:0:0:0:
256,192,151034,1,8,0:0:0:0:
256,192,151205,1,0,0:0:0:0:
256,192,151377,1,8,0:0:0:0:
256,192,151462,1,0,0:0:0:0:
256,192,151548,1,8,0:0:0:0:
256,192,151634,1,8,0:0:0:0:
256,192,151720,1,8,0:0:0:0:
256,192,151891,1,8,0:0:0:0:
256,192,152063,1,0,0:0:0:0:
256,192,152234,1,8,0:0:0:0:
256,192,152320,1,8,0:0:0:0:
256,192,152405,1,0,0:0:0:0:
256,192,152577,1,8,0:0:0:0:
256,192,152663,1,0,0:0:0:0:
256,192,152748,1,8,0:0:0:0:
256,192,152920,1,8,0:0:0:0:
256,192,153005,1,0,0:0:0:0:
256,192,153091,1,8,0:0:0:0:
256,192,153177,1,8,0:0:0:0:
256,192,153262,1,0,0:0:0:0:
256,192,153434,1,0,0:0:0:0:
256,192,153520,1,0,0:0:0:0:
256,192,153605,1,8,0:0:0:0:
256,192,153777,1,0,0:0:0:0:
256,192,153948,1,8,0:0:0:0:
256,192,154120,1,0,0:0:0:0:
256,192,154205,1,8,0:0:0:0:
256,192,154291,1,8,0:0:0:0:
256,192,154377,1,0,0:0:0:0:
256,192,154462,1,8,0:0:0:0:
256,192,154548,1,0,0:0:0:0:
256,192,154634,1,8,0:0:0:0:
256,192,154720,1,8,0:0:0:0:
256,192,154805,1,0,0:0:0:0:
256,192,154977,1,8,0:0:0:0:
256,192,155148,1,0,0:0:0:0:
256,192,155320,1,8,0:0:0:0:
256,192,155406,1,8,0:0:0:0:
256,192,155491,1,0,0:0:0:0:
256,192,155577,1,0,0:0:0:0:
256,192,155663,1,8,0:0:0:0:
256,192,155834,1,0,0:0:0:0:
256,192,156006,1,8,0:0:0:0:
256,192,156091,1,0,0:0:0:0:
256,192,156177,1,8,0:0:0:0:
256,192,156263,1,0,0:0:0:0:
256,192,156348,1,0,0:0:0:0:
256,192,156434,1,0,0:0:0:0:
256,192,156520,1,8,0:0:0:0:
256,192,156691,1,0,0:0:0:0:
256,192,156863,1,8,0:0:0:0:
256,192,156948,1,8,0:0:0:0:
256,192,157034,1,8,0:0:0:0:
256,192,157206,1,0,0:0:0:0:
256,192,157377,1,8,0:0:0:0:
256,192,157549,1,0,0:0:0:0:
256,192,157720,1,8,0:0:0:0:
256,192,157806,1,8,0:0:0:0:
256,192,157891,1,0,0:0:0:0:
256,192,158063,1,8,0:0:0:0:
256,192,158149,1,0,0:0:0:0:
256,192,158234,1,8,0:0:0:0:
256,192,158406,1,8,0:0:0:0:
256,192,158491,1,0,0:0:0:0:
256,192,158577,1,8,0:0:0:0:
256,192,158663,1,8,0:0:0:0:
256,192,158748,1,0,0:0:0:0:
256,192,158920,1,0,0:0:0:0:
256,192,159091,1,8,0:0:0:0:
256,192,159177,1,0,0:0:0:0:
256,192,159263,1,8,0:0:0:0:
256,192,159434,1,8,0:0:0:0:
256,192,159606,1,8,0:0:0:0:
256,192,159691,1,0,0:0:0:0:
256,192,159777,1,8,0:0:0:0:
256,192,159863,1,0,0:0:0:0:
256,192,159948,1,8,0:0:0:0:
256,192,160034,1,8,0:0:0:0:
256,192,160120,1,0,0:0:0:0:
256,192,160206,1,0,0:0:0:0:
256,192,160291,1,8,0:0:0:0:
256,192,160377,1,0,0:0:0:0:
256,192,160463,1,8,0:0:0:0:
256,192,160806,1,8,0:0:0:0:
256,192,160891,1,8,0:0:0:0:
256,192,160977,1,0,0:0:0:0:
256,192,161149,1,8,0:0:0:0:
256,192,161320,1,0,0:0:0:0:
256,192,161406,1,0,0:0:0:0:
256,192,161491,1,0,0:0:0:0:
256,192,161663,1,0,0:0:0:0:
256,192,161834,1,8,0:0:0:0:
256,192,161920,1,8,0:0:0:0:
256,192,162006,1,0,0:0:0:0:
256,192,162177,1,0,0:0:0:0:
256,192,162349,1,0,0:0:0:0:
256,192,162434,1,0,0:0:0:0:
256,192,162520,1,8,0:0:0:0:
256,192,162691,1,8,0:0:0:0:
256,192,162863,1,0,0:0:0:0:
256,192,163034,1,0,0:0:0:0:
256,192,163206,1,8,0:0:0:0:
256,192,163549,1,8,0:0:0:0:
256,192,163720,1,0,0:0:0:0:
256,192,163806,1,0,0:0:0:0:
256,192,163892,1,8,0:0:0:0:
256,192,164063,1,0,0:0:0:0:
256,192,164234,1,0,0:0:0:0:
256,192,164320,1,0,0:0:0:0:
256,192,164406,1,0,0:0:0:0:
256,192,164577,1,8,0:0:0:0:
256,192,164663,1,8,0:0:0:0:
256,192,164749,1,0,0:0:0:0:
256,192,164920,1,0,0:0:0:0:
256,192,165092,1,0,0:0:0:0:
256,192,165177,1,0,0:0:0:0:
256,192,165263,1,8,0:0:0:0:
256,192,165349,1,0,0:0:0:0:
256,192,165434,1,0,0:0:0:0:
256,192,165606,1,8,0:0:0:0:
256,192,165777,1,0,0:0:0:0:
256,192,165949,1,12,0:0:0:0:
256,192,166292,1,8,0:0:0:0:
256,192,166377,1,0,0:0:0:0:
256,192,166463,1,8,0:0:0:0:
256,192,166635,1,8,0:0:0:0:
256,192,166806,1,0,0:0:0:0:
256,192,166892,1,0,0:0:0:0:
256,192,166977,1,8,0:0:0:0:
256,192,167149,1,0,0:0:0:0:
256,192,167320,1,8,0:0:0:0:
256,192,167406,1,8,0:0:0:0:
256,192,167492,1,8,0:0:0:0:
256,192,167663,1,0,0:0:0:0:
256,192,167835,1,0,0:0:0:0:
256,192,167920,1,0,0:0:0:0:
256,192,168006,1,8,0:0:0:0:
256,192,168177,1,0,0:0:0:0:
256,192,168349,1,0,0:0:0:0:
256,192,168520,1,8,0:0:0:0:
256,192,168692,1,8,0:0:0:0:
256,192,169035,1,8,0:0:0:0:
256,192,169206,1,0,0:0:0:0:
256,192,169292,1,0,0:0:0:0:
256,192,169378,1,8,0:0:0:0:
256,192,169549,1,0,0:0:0:0:
256,192,169720,1,8,0:0:0:0:
256,192,169891,1,8,0:0:0:0:
256,192,170063,1,0,0:0:0:0:
256,192,170406,1,8,0:0:0:0:
256,192,170749,1,0,0:0:0:0:
256,192,170806,1,0,0:0:0:0:
256,192,170863,1,0,0:0:0:0:
256,192,170920,1,0,0:0:0:0:
256,192,171091,1,0,0:0:0:0:
256,192,171149,1,0,0:0:0:0:
256,192,171206,1,0,0:0:0:0:
256,192,171263,1,0,0:0:0:0:
256,192,171434,1,12,0:0:0:0:
256,192,171777,1,8,0:0:0:0:
256,192,171862,1,8,0:0:0:0:
256,192,171948,1,0,0:0:0:0:
256,192,172120,1,8,0:0:0:0:
256,192,172291,1,0,0:0:0:0:
256,192,172377,1,0,0:0:0:0:
256,192,172463,1,8,0:0:0:0:
256,192,172549,1,8,0:0:0:0:
256,192,172634,1,0,0:0:0:0:
256,192,172805,1,8,0:0:0:0:
256,192,172891,1,8,0:0:0:0:
256,192,172977,1,0,0:0:0:0:
256,192,173148,1,0,0:0:0:0:
256,192,173320,1,0,0:0:0:0:
256,192,173405,1,0,0:0:0:0:
256,192,173491,1,8,0:0:0:0:
256,192,173662,1,0,0:0:0:0:
256,192,173834,1,8,0:0:0:0:
256,192,173920,1,0,0:0:0:0:
256,192,174005,1,0,0:0:0:0:
256,192,174091,1,0,0:0:0:0:
256,192,174177,1,8,0:0:0:0:
256,192,174348,1,0,0:0:0:0:
256,192,174520,1,8,0:0:0:0:
256,192,174691,1,8,0:0:0:0:
256,192,174777,1,0,0:0:0:0:
256,192,174863,1,8,0:0:0:0:
256,192,174949,1,8,0:0:0:0:
256,192,175034,1,0,0:0:0:0:
256,192,175205,1,0,0:0:0:0:
256,192,175377,1,8,0:0:0:0:
256,192,175548,1,8,0:0:0:0:
256,192,175634,1,8,0:0:0:0:
256,192,175720,1,0,0:0:0:0:
256,192,175891,1,0,0:0:0:0:
256,192,176063,1,0,0:0:0:0:
256,192,176148,1,0,0:0:0:0:
256,192,176234,1,8,0:0:0:0:
256,192,176320,1,0,0:0:0:0:
256,192,176405,1,0,0:0:0:0:
256,192,176577,1,8,0:0:0:0:
256,192,176748,1,0,0:0:0:0:
256,192,176920,1,8,0:0:0:0:
256,192,177263,1,8,0:0:0:0:
256,192,177434,1,8,0:0:0:0:
256,192,177606,1,0,0:0:0:0:
256,192,177777,1,8,0:0:0:0:
256,192,177949,1,0,0:0:0:0:
256,192,178120,1,0,0:0:0:0:
256,192,178291,1,8,0:0:0:0:
256,192,178634,1,8,0:0:0:0:
256,192,178806,1,8,0:0:0:0:
256,192,178977,1,0,0:0:0:0:
256,192,179149,1,0,0:0:0:0:
256,192,179320,1,0,0:0:0:0:
256,192,179491,1,0,0:0:0:0:
256,192,179663,1,8,0:0:0:0:
256,192,180006,1,0,0:0:0:0:
256,192,180177,1,0,0:0:0:0:
256,192,180349,1,8,0:0:0:0:
256,192,180691,1,0,0:0:0:0:
256,192,180863,1,0,0:0:0:0:
256,192,181034,1,8,0:0:0:0:
256,192,181120,1,8,0:0:0:0:
256,192,181206,1,0,0:0:0:0:
256,192,181291,1,0,0:0:0:0:
256,192,181377,1,8,0:0:0:0:
256,192,181720,1,8,0:0:0:0:
256,192,181806,1,8,0:0:0:0:
256,192,181891,1,0,0:0:0:0:
256,192,181977,1,0,0:0:0:0:
256,192,182063,1,0,0:0:0:0:
256,192,182406,1,4,0:0:0:0:
256,192,184463,1,8,0:0:0:0:
256,192,184806,1,8,0:0:0:0:
256,192,185149,1,0,0:0:0:0:
256,192,185663,1,8,0:0:0:0:
256,192,186177,1,0,0:0:0:0:
256,192,187206,1,0,0:0:0:0:
256,192,187549,1,0,0:0:0:0:
256,192,187891,1,8,0:0:0:0:
256,192,188406,1,8,0:0:0:0:
256,192,188920,1,0,0:0:0:0:
256,192,189263,1,8,0:0:0:0:
256,192,189606,1,0,0:0:0:0:
256,192,189949,1,0,0:0:0:0:
256,192,190291,1,0,0:0:0:0:
256,192,190634,1,8,0:0:0:0:
256,192,191149,1,8,0:0:0:0:
256,192,191663,1,8,0:0:0:0:
256,192,192691,1,8,0:0:0:0:
256,192,192863,1,0,0:0:0:0:
256,192,193034,1,8,0:0:0:0:
256,192,193206,1,8,0:0:0:0:
256,192,193377,1,0,0:0:0:0:
256,192,193720,1,8,0:0:0:0:
256,192,193891,1,8,0:0:0:0:
256,192,194406,1,0,0:0:0:0:
256,192,194749,1,8,0:0:0:0:
256,192,195434,1,8,0:0:0:0:
256,192,195777,1,0,0:0:0:0:
256,192,196120,1,0,0:0:0:0:
256,192,196634,1,8,0:0:0:0:
256,192,197149,1,0,0:0:0:0:
256,192,197491,1,8,0:0:0:0:
256,192,198177,1,0,0:0:0:0:
256,192,198520,1,0,0:0:0:0:
256,192,198863,1,8,0:0:0:0:
256,192,199377,1,0,0:0:0:0:
256,192,199891,1,0,0:0:0:0:
256,192,200234,1,8,0:0:0:0:
256,192,200577,1,0,0:0:0:0:
256,192,200920,1,0,0:0:0:0:
256,192,201263,1,0,0:0:0:0:
256,192,201606,1,8,0:0:0:0:
256,192,202120,1,8,0:0:0:0:
256,192,202634,1,8,0:0:0:0:
256,192,202977,12,8,204006,0:0:0:0:
256,192,204349,5,12,0:0:0:0:
256,192,204520,1,0,0:0:0:0:
256,192,204606,1,0,0:0:0:0:
256,192,204691,1,8,0:0:0:0:
256,192,204863,1,8,0:0:0:0:
256,192,205034,1,0,0:0:0:0:
256,192,205206,1,8,0:0:0:0:
256,192,205291,1,8,0:0:0:0:
256,192,205377,1,0,0:0:0:0:
256,192,205549,1,0,0:0:0:0:
256,192,205720,1,8,0:0:0:0:
256,192,205891,1,0,0:0:0:0:
256,192,205977,1,0,0:0:0:0:
256,192,206063,1,8,0:0:0:0:
256,192,206234,1,8,0:0:0:0:
256,192,206320,1,8,0:0:0:0:
256,192,206406,1,0,0:0:0:0:
256,192,206491,1,0,0:0:0:0:
256,192,206577,1,8,0:0:0:0:
256,192,206749,1,8,0:0:0:0:
256,192,207091,1,0,0:0:0:0:
256,192,207263,1,0,0:0:0:0:
256,192,207349,1,0,0:0:0:0:
256,192,207434,1,8,0:0:0:0:
256,192,207606,1,8,0:0:0:0:
256,192,207777,1,0,0:0:0:0:
256,192,207949,1,8,0:0:0:0:
256,192,208034,1,8,0:0:0:0:
256,192,208120,1,0,0:0:0:0:
256,192,208291,1,0,0:0:0:0:
256,192,208377,1,0,0:0:0:0:
256,192,208463,1,8,0:0:0:0:
256,192,208634,1,0,0:0:0:0:
256,192,208806,1,8,0:0:0:0:
256,192,208977,1,0,0:0:0:0:
256,192,209063,1,0,0:0:0:0:
256,192,209149,1,8,0:0:0:0:
256,192,209234,1,8,0:0:0:0:
256,192,209320,1,0,0:0:0:0:
256,192,209491,1,8,0:0:0:0:
256,192,209834,1,8,0:0:0:0:
256,192,209920,1,8,0:0:0:0:
256,192,210006,1,0,0:0:0:0:
256,192,210177,1,8,0:0:0:0:
256,192,210349,1,8,0:0:0:0:
256,192,210520,1,0,0:0:0:0:
256,192,210691,1,8,0:0:0:0:
256,192,210863,1,0,0:0:0:0:
256,192,210949,1,8,0:0:0:0:
256,192,211034,1,0,0:0:0:0:
256,192,211120,1,0,0:0:0:0:
256,192,211206,1,8,0:0:0:0:
256,192,211377,1,0,0:0:0:0:
256,192,211549,1,8,0:0:0:0:
256,192,211634,1,0,0:0:0:0:
256,192,211720,1,8,0:0:0:0:
256,192,211891,1,0,0:0:0:0:
256,192,212063,1,8,0:0:0:0:
256,192,212234,1,8,0:0:0:0:
256,192,212577,1,8,0:0:0:0:
256,192,212749,1,0,0:0:0:0:
256,192,212834,1,0,0:0:0:0:
256,192,212920,1,8,0:0:0:0:
256,192,213091,1,0,0:0:0:0:
256,192,213263,1,8,0:0:0:0:
256,192,213434,1,0,0:0:0:0:
256,192,213520,1,0,0:0:0:0:
256,192,213606,1,8,0:0:0:0:
256,192,213777,1,8,0:0:0:0:
256,192,213863,1,0,0:0:0:0:
256,192,213949,1,8,0:0:0:0:
256,192,214034,1,0,0:0:0:0:
256,192,214120,1,8,0:0:0:0:
256,192,214206,1,8,0:0:0:0:
256,192,214291,1,0,0:0:0:0:
256,192,214377,1,0,0:0:0:0:
256,192,214463,1,8,0:0:0:0:
256,192,214634,1,8,0:0:0:0:
256,192,214806,1,8,0:0:0:0:
256,192,214977,1,0,0:0:0:0:
256,192,215149,1,0,0:0:0:0:
256,192,215320,1,12,0:0:0:0:
256,192,215663,1,8,0:0:0:0:
256,192,216006,1,0,0:0:0:0:
256,192,216349,1,0,0:0:0:0:
256,192,216520,1,0,0:0:0:0:
256,192,216691,1,8,0:0:0:0:
256,192,217034,1,0,0:0:0:0:
256,192,217377,1,8,0:0:0:0:
256,192,217720,1,8,0:0:0:0:
256,192,217891,1,8,0:0:0:0:
256,192,218063,1,0,0:0:0:0:
256,192,218406,1,8,0:0:0:0:
256,192,218749,1,0,0:0:0:0:
256,192,219091,1,0,0:0:0:0:
256,192,219263,1,0,0:0:0:0:
256,192,219434,1,8,0:0:0:0:
256,192,219777,1,8,0:0:0:0:
256,192,220120,1,8,0:0:0:0:
256,192,220463,1,8,0:0:0:0:
256,192,220549,1,8,0:0:0:0:
256,192,220634,1,0,0:0:0:0:
256,192,220720,1,0,0:0:0:0:
256,192,220806,1,8,0:0:0:0:
256,192,221149,1,8,0:0:0:0:
256,192,221491,1,8,0:0:0:0:
256,192,221834,1,0,0:0:0:0:
256,192,222006,1,8,0:0:0:0:
256,192,222177,1,0,0:0:0:0:
256,192,222349,1,0,0:0:0:0:
256,192,222520,1,8,0:0:0:0:
256,192,222691,1,0,0:0:0:0:
256,192,222863,1,8,0:0:0:0:
256,192,223206,1,8,0:0:0:0:
256,192,223377,1,0,0:0:0:0:
256,192,223549,1,8,0:0:0:0:
256,192,223720,1,0,0:0:0:0:
256,192,223806,1,0,0:0:0:0:
256,192,223891,1,8,0:0:0:0:
256,192,224063,1,0,0:0:0:0:
256,192,224149,1,0,0:0:0:0:
256,192,224234,1,8,0:0:0:0:
256,192,224406,1,0,0:0:0:0:
224,192,224491,1,0,0:0:0:0:
256,192,224577,1,8,0:0:0:0:
256,192,224749,1,8,0:0:0:0:
256,192,224834,1,8,0:0:0:0:
256,192,224920,1,0,0:0:0:0:
256,192,225091,1,8,0:0:0:0:
256,192,225263,1,0,0:0:0:0:
256,192,225434,1,8,0:0:0:0:
256,192,225520,1,8,0:0:0:0:
256,192,225606,1,0,0:0:0:0:
256,192,225691,1,0,0:0:0:0:
256,192,225777,1,8,0:0:0:0:
256,192,225949,1,8,0:0:0:0:
256,192,226120,1,0,0:0:0:0:
256,192,226291,1,12,0:0:0:0:
256,192,226634,1,4,0:0:0:0:
256,192,226977,1,12,0:0:0:0:
256,192,227149,1,0,0:0:0:0:
256,192,227234,1,0,0:0:0:0:
256,192,227320,1,0,0:0:0:0:
256,192,227406,1,0,0:0:0:0:
256,192,227491,1,0,0:0:0:0:
256,192,227577,1,0,0:0:0:0:
256,192,227663,1,8,0:0:0:0:
256,192,227834,1,0,0:0:0:0:
256,192,227920,1,0,0:0:0:0:
256,192,228006,1,8,0:0:0:0:
256,192,228177,1,0,0:0:0:0:
256,192,228349,1,8,0:0:0:0:
256,192,228434,1,8,0:0:0:0:
256,192,228520,1,0,0:0:0:0:
256,192,228606,1,0,0:0:0:0:
256,192,228691,1,8,0:0:0:0:
256,192,228863,1,8,0:0:0:0:
256,192,229034,1,0,0:0:0:0:
256,192,229120,1,0,0:0:0:0:
256,192,229206,1,8,0:0:0:0:
256,192,229377,1,0,0:0:0:0:
256,192,229549,1,8,0:0:0:0:
256,192,229634,1,8,0:0:0:0:
256,192,229720,1,0,0:0:0:0:
256,192,229806,1,8,0:0:0:0:
256,192,229891,1,0,0:0:0:0:
256,192,230063,1,8,0:0:0:0:
256,192,230406,1,8,0:0:0:0:
256,192,230491,1,8,0:0:0:0:
256,192,230577,1,0,0:0:0:0:
256,192,230663,1,0,0:0:0:0:
256,192,230749,1,8,0:0:0:0:
256,192,230920,1,0,0:0:0:0:
256,192,231091,1,8,0:0:0:0:
256,192,231263,1,0,0:0:0:0:
256,192,231434,1,8,0:0:0:0:
256,192,231520,1,0,0:0:0:0:
256,192,231606,1,8,0:0:0:0:
256,192,231691,1,0,0:0:0:0:
256,192,231777,1,0,0:0:0:0:
256,192,231949,1,8,0:0:0:0:
256,192,232120,1,0,0:0:0:0:
256,192,232291,1,0,0:0:0:0:
256,192,232377,1,8,0:0:0:0:
256,192,232463,1,0,0:0:0:0:
256,192,232634,1,0,0:0:0:0:
256,192,232806,1,8,0:0:0:0:
256,192,232891,1,8,0:0:0:0:
256,192,232977,1,0,0:0:0:0:
256,192,233063,1,0,0:0:0:0:
256,192,233149,1,8,0:0:0:0:
256,192,233320,1,0,0:0:0:0:
256,192,233491,1,8,0:0:0:0:
256,192,233663,1,0,0:0:0:0:
256,192,233834,1,8,0:0:0:0:
256,192,233920,1,8,0:0:0:0:
256,192,234006,1,0,0:0:0:0:
256,192,234091,1,0,0:0:0:0:
256,192,234177,1,8,0:0:0:0:
256,192,234349,1,8,0:0:0:0:
256,192,234434,1,8,0:0:0:0:
256,192,234520,1,0,0:0:0:0:
256,192,234691,1,8,0:0:0:0:
256,192,234863,1,0,0:0:0:0:
256,192,235034,1,8,0:0:0:0:
256,192,235120,1,0,0:0:0:0:
256,192,235206,1,8,0:0:0:0:
256,192,235291,1,8,0:0:0:0:
256,192,235377,1,0,0:0:0:0:
256,192,235463,1,0,0:0:0:0:
256,192,235549,1,8,0:0:0:0:
256,192,235891,1,8,0:0:0:0:
256,192,236063,1,0,0:0:0:0:
256,192,236149,1,0,0:0:0:0:
256,192,236234,1,8,0:0:0:0:
256,192,236406,1,8,0:0:0:0:
256,192,236491,1,8,0:0:0:0:
256,192,236577,1,0,0:0:0:0:
256,192,236749,1,0,0:0:0:0:
256,192,236834,1,0,0:0:0:0:
256,192,236920,1,8,0:0:0:0:
256,192,237006,1,0,0:0:0:0:
256,192,237091,1,8,0:0:0:0:
256,192,237263,1,0,0:0:0:0:
256,192,237434,1,8,0:0:0:0:
256,192,237606,1,0,0:0:0:0:
256,192,237777,1,8,0:0:0:0:
256,192,237949,1,8,0:0:0:0:
256,192,238291,1,8,0:0:0:0:
256,192,238463,1,0,0:0:0:0:
256,192,238634,1,8,0:0:0:0:
256,192,238806,1,0,0:0:0:0:
256,192,238891,1,0,0:0:0:0:
256,192,238977,1,8,0:0:0:0:
256,192,239149,1,0,0:0:0:0:
256,192,239320,1,8,0:0:0:0:
256,192,239406,1,8,0:0:0:0:
256,192,239491,1,0,0:0:0:0:
256,192,239577,1,0,0:0:0:0:
256,192,239663,1,8,0:0:0:0:
256,192,239834,1,8,0:0:0:0:
256,192,239920,1,8,0:0:0:0:
256,192,240006,1,0,0:0:0:0:
256,192,240177,1,8,0:0:0:0:
256,192,240349,1,0,0:0:0:0:
256,192,240434,1,0,0:0:0:0:
256,192,240520,1,8,0:0:0:0:
256,192,240606,1,0,0:0:0:0:
256,192,240691,1,8,0:0:0:0:
256,192,240777,1,8,0:0:0:0:
256,192,240863,1,0,0:0:0:0:
256,192,240949,1,0,0:0:0:0:
256,192,241034,1,8,0:0:0:0:
256,192,241206,1,0,0:0:0:0:
256,192,241377,1,8,0:0:0:0:
256,192,241463,1,8,0:0:0:0:
256,192,241549,1,8,0:0:0:0:
256,192,241634,1,0,0:0:0:0:
256,192,241720,1,8,0:0:0:0:
256,192,241891,1,0,0:0:0:0:
256,192,241977,1,0,0:0:0:0:
256,192,242063,1,8,0:0:0:0:
256,192,242234,1,0,0:0:0:0:
256,192,242406,1,8,0:0:0:0:
256,192,242491,1,0,0:0:0:0:
256,192,242577,1,8,0:0:0:0:
256,192,242749,1,8,0:0:0:0:
256,192,242920,1,0,0:0:0:0:
256,192,243006,1,8,0:0:0:0:
256,192,243091,1,0,0:0:0:0:
256,192,243263,1,0,0:0:0:0:
256,192,243349,1,0,0:0:0:0:
256,192,243434,1,8,0:0:0:0:
256,192,243520,1,0,0:0:0:0:
256,192,243606,1,8,0:0:0:0:
256,192,243691,1,0,0:0:0:0:
256,192,243777,1,8,0:0:0:0:
256,192,243863,1,8,0:0:0:0:
256,192,243949,1,0,0:0:0:0:
256,192,244034,1,0,0:0:0:0:
256,192,244120,1,8,0:0:0:0:
256,192,244291,1,0,0:0:0:0:
256,192,244377,1,0,0:0:0:0:
256,192,244463,1,8,0:0:0:0:
256,192,244634,1,0,0:0:0:0:
256,192,244806,1,8,0:0:0:0:
256,192,244891,1,8,0:0:0:0:
256,192,244977,1,0,0:0:0:0:
256,192,245063,1,0,0:0:0:0:
256,192,245149,1,8,0:0:0:0:
256,192,245320,1,8,0:0:0:0:
256,192,245491,1,0,0:0:0:0:
256,192,245663,1,8,0:0:0:0:
256,192,245749,1,8,0:0:0:0:
256,192,245834,1,0,0:0:0:0:
256,192,246006,1,8,0:0:0:0:
256,192,246177,1,8,0:0:0:0:
256,192,246263,1,8,0:0:0:0:
256,192,246349,1,8,0:0:0:0:
256,192,246434,1,0,0:0:0:0:
256,192,246520,1,8,0:0:0:0:
256,192,246606,1,8,0:0:0:0:
256,192,246691,1,0,0:0:0:0:
256,192,246863,1,8,0:0:0:0:
256,192,246949,1,8,0:0:0:0:
256,192,247034,1,0,0:0:0:0:
256,192,247120,1,0,0:0:0:0:
256,192,247206,1,8,0:0:0:0:
256,192,247377,1,0,0:0:0:0:
256,192,247549,1,8,0:0:0:0:
256,192,247720,1,0,0:0:0:0:
256,192,247806,1,0,0:0:0:0:
256,192,247891,1,8,0:0:0:0:
256,192,247977,1,0,0:0:0:0:
256,192,248063,1,8,0:0:0:0:
256,192,248234,1,0,0:0:0:0:
256,192,248406,1,8,0:0:0:0:
256,192,248577,1,0,0:0:0:0:
256,192,248749,1,8,0:0:0:0:
256,192,248834,1,0,0:0:0:0:
256,192,248920,1,8,0:0:0:0:
256,192,249091,1,8,0:0:0:0:
256,192,249263,1,0,0:0:0:0:
256,192,249434,1,0,0:0:0:0:
256,192,249606,1,8,0:0:0:0:
256,192,249949,1,8,0:0:0:0:
256,192,250291,1,8,0:0:0:0:
256,192,250634,1,8,0:0:0:0:
256,192,250806,1,0,0:0:0:0:
256,192,251149,1,0,0:0:0:0:
256,192,251491,1,0,0:0:0:0:
256,192,251663,1,8,0:0:0:0:
256,192,252006,1,8,0:0:0:0:
256,192,252177,1,0,0:0:0:0:
256,192,252349,1,8,0:0:0:0:
256,192,252691,1,8,0:0:0:0:
256,192,253034,1,8,0:0:0:0:
256,192,253377,1,0,0:0:0:0:
256,192,253549,1,8,0:0:0:0:
256,192,253720,1,0,0:0:0:0:
256,192,253891,1,0,0:0:0:0:
256,192,254234,1,0,0:0:0:0:
256,192,254406,1,8,0:0:0:0:
256,192,254577,1,8,0:0:0:0:
256,192,254749,1,8,0:0:0:0:
256,192,254920,1,8,0:0:0:0:
256,192,255091,1,4,0:0:0:0:
256,192,255434,1,8,0:0:0:0:
256,192,255777,1,8,0:0:0:0:
256,192,256120,1,8,0:0:0:0:
256,192,256291,1,0,0:0:0:0:
256,192,256634,1,8,0:0:0:0:
256,192,256977,1,8,0:0:0:0:
256,192,257149,1,8,0:0:0:0:
256,192,257491,1,0,0:0:0:0:
256,192,257663,1,0,0:0:0:0:
256,192,257834,1,8,0:0:0:0:
256,192,258177,1,8,0:0:0:0:
256,192,258520,1,8,0:0:0:0:
256,192,258863,1,0,0:0:0:0:
256,192,259034,1,8,0:0:0:0:
256,192,259377,1,8,0:0:0:0:
256,192,259549,1,0,0:0:0:0:
256,192,259720,1,8,0:0:0:0:
256,192,259891,1,0,0:0:0:0:
256,192,259949,1,0,0:0:0:0:
256,192,260006,1,0,0:0:0:0:
256,192,260063,1,0,0:0:0:0:
256,192,260234,1,8,0:0:0:0:
256,192,260320,1,8,0:0:0:0:
256,192,260406,1,8,0:0:0:0:
256,192,260491,1,8,0:0:0:0:
256,192,260577,1,0,0:0:0:0:
256,192,260749,1,0,0:0:0:0:
256,192,260920,1,8,0:0:0:0:
256,192,261006,1,8,0:0:0:0:
256,192,261091,1,0,0:0:0:0:
256,192,261263,1,0,0:0:0:0:
256,192,261434,1,0,0:0:0:0:
256,192,261606,1,8,0:0:0:0:
256,192,261691,1,8,0:0:0:0:
256,192,261777,1,0,0:0:0:0:
256,192,261949,1,0,0:0:0:0:
256,192,262120,1,0,0:0:0:0:
256,192,262206,1,0,0:0:0:0:
256,192,262291,1,8,0:0:0:0:
256,192,262462,1,0,0:0:0:0:
256,192,262634,1,8,0:0:0:0:
256,192,262720,1,8,0:0:0:0:
256,192,262805,1,0,0:0:0:0:
256,192,262977,1,8,0:0:0:0:
256,192,263063,1,0,0:0:0:0:
256,192,263148,1,0,0:0:0:0:
256,192,263234,1,0,0:0:0:0:
256,192,263320,1,8,0:0:0:0:
256,192,263491,1,8,0:0:0:0:
256,192,263663,1,0,0:0:0:0:
256,192,263749,1,0,0:0:0:0:
256,192,263834,1,0,0:0:0:0:
256,192,264006,1,8,0:0:0:0:
256,192,264177,1,8,0:0:0:0:
256,192,264263,1,8,0:0:0:0:
256,192,264349,1,0,0:0:0:0:
256,192,264520,1,0,0:0:0:0:
256,192,264691,1,8,0:0:0:0:
256,192,264777,1,8,0:0:0:0:
256,192,264862,1,0,0:0:0:0:
256,192,264949,1,0,0:0:0:0:
256,192,265034,1,8,0:0:0:0:
256,192,265205,1,0,0:0:0:0:
256,192,265377,1,8,0:0:0:0:
256,192,265548,1,0,0:0:0:0:
256,192,265634,1,8,0:0:0:0:
256,192,265720,1,8,0:0:0:0:
256,192,265806,1,0,0:0:0:0:
256,192,265891,1,8,0:0:0:0:
256,192,265977,1,8,0:0:0:0:
256,192,266063,1,0,0:0:0:0:
256,192,266234,1,0,0:0:0:0:
256,192,266406,1,8,0:0:0:0:
256,192,266491,1,0,0:0:0:0:
256,192,266577,1,0,0:0:0:0:
256,192,266749,1,0,0:0:0:0:
256,192,266920,1,0,0:0:0:0:
256,192,267006,1,0,0:0:0:0:
256,192,267092,1,8,0:0:0:0:
256,192,267177,1,0,0:0:0:0:
256,192,267263,1,0,0:0:0:0:
256,192,267434,1,0,0:0:0:0:
256,192,267605,1,0,0:0:0:0:
256,192,267691,1,0,0:0:0:0:
256,192,267777,1,8,0:0:0:0:
256,192,267948,1,0,0:0:0:0:
256,192,268120,1,0,0:0:0:0:
256,192,268291,1,0,0:0:0:0:
256,192,268377,1,8,0:0:0:0:
256,192,268463,1,8,0:0:0:0:
256,192,268549,1,0,0:0:0:0:
256,192,268634,1,8,0:0:0:0:
256,192,268720,1,0,0:0:0:0:
256,192,268806,1,8,0:0:0:0:
256,192,268977,1,0,0:0:0:0:
256,192,269149,1,8,0:0:0:0:
256,192,269234,1,8,0:0:0:0:
256,192,269320,1,0,0:0:0:0:
256,192,269492,1,8,0:0:0:0:
256,192,269663,1,0,0:0:0:0:
256,192,269834,1,8,0:0:0:0:
256,192,269920,1,8,0:0:0:0:
256,192,270005,1,0,0:0:0:0:
256,192,270177,1,0,0:0:0:0:
256,192,270349,1,0,0:0:0:0:
256,192,270520,1,0,0:0:0:0:
256,192,270691,1,0,0:0:0:0:
256,192,270863,1,0,0:0:0:0:
256,192,271206,1,0,0:0:0:0:
256,192,271378,1,0,0:0:0:0:
256,192,271549,1,8,0:0:0:0:
256,192,271721,1,0,0:0:0:0:
256,192,271892,1,8,0:0:0:0:
256,192,271978,1,0,0:0:0:0:
256,192,272063,1,0,0:0:0:0:
256,192,272235,1,0,0:0:0:0:
256,192,272406,1,0,0:0:0:0:
256,192,272578,1,8,0:0:0:0:
256,192,272663,1,0,0:0:0:0:
256,192,272749,1,0,0:0:0:0:
256,192,272921,1,0,0:0:0:0:
256,192,273092,1,0,0:0:0:0:
256,192,273263,1,8,0:0:0:0:
256,192,273349,1,8,0:0:0:0:
256,192,273434,1,0,0:0:0:0:
256,192,273606,1,8,0:0:0:0:
256,192,273692,1,0,0:0:0:0:
256,192,273777,1,8,0:0:0:0:
256,192,273949,1,8,0:0:0:0:
256,192,274035,1,8,0:0:0:0:
256,192,274120,1,0,0:0:0:0:
256,192,274206,1,0,0:0:0:0:
256,192,274292,1,8,0:0:0:0:
256,192,274463,1,8,0:0:0:0:
256,192,274635,1,0,0:0:0:0:
256,192,274721,1,8,0:0:0:0:
256,192,274806,1,0,0:0:0:0:
256,192,274978,1,8,0:0:0:0:
256,192,275149,1,8,0:0:0:0:
256,192,275235,1,8,0:0:0:0:
256,192,275321,1,0,0:0:0:0:
256,192,275492,1,0,0:0:0:0:
256,192,275663,1,8,0:0:0:0:
256,192,275749,1,0,0:0:0:0:
256,192,275834,1,0,0:0:0:0:
256,192,275921,1,0,0:0:0:0:
256,192,276006,1,8,0:0:0:0:
256,192,276177,1,0,0:0:0:0:
256,192,276349,1,8,0:0:0:0:
256,192,276520,1,0,0:0:0:0:
256,192,276606,1,0,0:0:0:0:
256,192,276692,1,8,0:0:0:0:
256,192,276778,1,0,0:0:0:0:
256,192,276863,1,8,0:0:0:0:
256,192,276949,1,8,0:0:0:0:
256,192,277035,1,0,0:0:0:0:
256,192,277206,1,0,0:0:0:0:
256,192,277378,1,8,0:0:0:0:
256,192,277463,1,0,0:0:0:0:
256,192,277549,1,0,0:0:0:0:
256,192,277721,1,0,0:0:0:0:
256,192,277892,1,0,0:0:0:0:
256,192,277978,1,8,0:0:0:0:
256,192,278064,1,8,0:0:0:0:
256,192,278149,1,0,0:0:0:0:
256,192,278235,1,0,0:0:0:0:
256,192,278406,1,0,0:0:0:0:
256,192,278577,1,0,0:0:0:0:
256,192,278663,1,8,0:0:0:0:
256,192,278749,1,8,0:0:0:0:
256,192,278920,1,0,0:0:0:0:
256,192,279092,1,0,0:0:0:0:
256,192,279263,1,0,0:0:0:0:
256,192,279349,1,0,0:0:0:0:
256,192,279435,1,8,0:0:0:0:
256,192,279521,1,0,0:0:0:0:
256,192,279606,1,0,0:0:0:0:
256,192,279692,1,0,0:0:0:0:
256,192,279778,1,8,0:0:0:0:
256,192,279949,1,0,0:0:0:0:
256,192,280121,1,8,0:0:0:0:
256,192,280206,1,0,0:0:0:0:
256,192,280291,1,8,0:0:0:0:
256,192,280464,1,8,0:0:0:0:
256,192,280635,1,0,0:0:0:0:
256,192,280806,1,8,0:0:0:0:
256,192,280892,1,0,0:0:0:0:
256,192,280977,1,8,0:0:0:0:
256,192,281149,1,0,0:0:0:0:
256,192,281321,1,0,0:0:0:0:
256,192,281492,1,0,0:0:0:0:
256,192,281663,1,0,0:0:0:0:
256,192,281835,1,0,0:0:0:0:
256,192,282178,1,0,0:0:0:0:
256,192,282350,1,0,0:0:0:0:
256,192,282520,1,0,0:0:0:0:
256,192,282691,1,0,0:0:0:0:
256,192,282777,1,0,0:0:0:0:
256,192,282863,1,8,0:0:0:0:
256,192,283034,1,0,0:0:0:0:
256,192,283206,1,8,0:0:0:0:
256,192,283291,1,8,0:0:0:0:
256,192,283377,1,0,0:0:0:0:
256,192,283549,1,8,0:0:0:0:
256,192,283720,1,8,0:0:0:0:
256,192,283891,1,0,0:0:0:0:
256,192,284063,1,8,0:0:0:0:
256,192,284234,1,0,0:0:0:0:
256,192,284406,1,0,0:0:0:0:
256,192,284491,1,8,0:0:0:0:
256,192,284577,1,8,0:0:0:0:
256,192,284749,1,0,0:0:0:0:
256,192,284920,1,8,0:0:0:0:
256,192,285006,1,8,0:0:0:0:
256,192,285091,1,0,0:0:0:0:
256,192,285263,1,8,0:0:0:0:
256,192,285434,1,0,0:0:0:0:
256,192,285520,1,0,0:0:0:0:
256,192,285606,1,8,0:0:0:0:
256,192,285777,1,0,0:0:0:0:
256,192,285949,1,8,0:0:0:0:
256,192,286034,1,0,0:0:0:0:
256,192,286120,1,8,0:0:0:0:
256,192,286291,1,8,0:0:0:0:
256,192,286377,1,8,0:0:0:0:
256,192,286463,1,0,0:0:0:0:
256,192,286549,1,8,0:0:0:0:
256,192,286634,1,0,0:0:0:0:
256,192,286806,1,8,0:0:0:0:
256,192,286977,1,0,0:0:0:0:
256,192,287149,1,8,0:0:0:0:
256,192,287234,1,0,0:0:0:0:
256,192,287320,1,8,0:0:0:0:
256,192,287406,1,8,0:0:0:0:
256,192,287491,1,0,0:0:0:0:
256,192,287577,1,8,0:0:0:0:
256,192,287663,1,8,0:0:0:0:
256,192,287749,1,0,0:0:0:0:
256,192,287834,1,8,0:0:0:0:
256,192,288006,1,0,0:0:0:0:
256,192,288177,1,0,0:0:0:0:
256,192,288263,1,0,0:0:0:0:
256,192,288349,1,8,0:0:0:0:
256,192,288520,1,0,0:0:0:0:
256,192,288691,1,8,0:0:0:0:
256,192,288777,1,8,0:0:0:0:
256,192,288863,1,0,0:0:0:0:
256,192,288949,1,0,0:0:0:0:
256,192,289034,1,8,0:0:0:0:
256,192,289206,1,0,0:0:0:0:
256,192,289291,1,0,0:0:0:0:
256,192,289377,1,0,0:0:0:0:
256,192,289549,1,8,0:0:0:0:
256,192,289720,1,0,0:0:0:0:
256,192,289891,1,0,0:0:0:0:
256,192,289977,1,8,0:0:0:0:
256,192,290063,1,8,0:0:0:0:
256,192,290149,1,8,0:0:0:0:
256,192,290234,1,0,0:0:0:0:
256,192,290406,1,8,0:0:0:0:
256,192,290491,1,8,0:0:0:0:
256,192,290577,1,0,0:0:0:0:
256,192,290749,1,0,0:0:0:0:
256,192,290920,1,0,0:0:0:0:
256,192,291006,1,0,0:0:0:0:
256,192,291091,1,8,0:0:0:0:
256,192,291263,1,8,0:0:0:0:
256,192,291349,1,8,0:0:0:0:
256,192,291434,1,0,0:0:0:0:
256,192,291606,1,0,0:0:0:0:
256,192,291691,1,0,0:0:0:0:
256,192,291777,1,8,0:0:0:0:
256,192,291863,1,0,0:0:0:0:
256,192,291949,1,8,0:0:0:0:
256,192,292120,1,0,0:0:0:0:
256,192,292291,1,0,0:0:0:0:
256,192,292463,1,0,0:0:0:0:
256,192,292634,1,0,0:0:0:0:
256,192,292806,1,0,0:0:0:0:
256,192,293149,1,0,0:0:0:0:
256,192,293320,1,0,0:0:0:0:
256,192,293491,1,4,0:0:0:0:
256,192,293663,1,0,0:0:0:0:
256,192,293749,1,0,0:0:0:0:
256,192,293834,1,8,0:0:0:0:
256,192,294006,1,0,0:0:0:0:
256,192,294177,1,8,0:0:0:0:
256,192,294263,1,8,0:0:0:0:
256,192,294349,1,0,0:0:0:0:
256,192,294520,1,8,0:0:0:0:
256,192,294691,1,8,0:0:0:0:
256,192,294863,1,0,0:0:0:0:
256,192,295034,1,8,0:0:0:0:
256,192,295206,1,0,0:0:0:0:
256,192,295377,1,0,0:0:0:0:
256,192,295463,1,0,0:0:0:0:
256,192,295549,1,8,0:0:0:0:
256,192,295634,1,8,0:0:0:0:
256,192,295720,1,0,0:0:0:0:
256,192,295891,1,8,0:0:0:0:
256,192,295977,1,0,0:0:0:0:
256,192,296063,1,0,0:0:0:0:
256,192,296234,1,8,0:0:0:0:
256,192,296320,1,8,0:0:0:0:
256,192,296406,1,0,0:0:0:0:
256,192,296577,1,8,0:0:0:0:
256,192,296749,1,0,0:0:0:0:
256,192,296834,1,0,0:0:0:0:
256,192,296920,1,8,0:0:0:0:
256,192,297091,1,0,0:0:0:0:
256,192,297263,1,8,0:0:0:0:
256,192,297349,1,0,0:0:0:0:
256,192,297434,1,8,0:0:0:0:
256,192,297606,1,0,0:0:0:0:
256,192,297777,1,0,0:0:0:0:
256,192,297863,1,0,0:0:0:0:
256,192,297949,1,8,0:0:0:0:
256,192,298120,1,0,0:0:0:0:
256,192,298206,1,0,0:0:0:0:
256,192,298291,1,8,0:0:0:0:
256,192,298377,1,8,0:0:0:0:
256,192,298463,1,0,0:0:0:0:
256,192,298549,1,0,0:0:0:0:
256,192,298634,1,8,0:0:0:0:
256,192,298720,1,0,0:0:0:0:
256,192,298806,1,8,0:0:0:0:
256,192,298891,1,8,0:0:0:0:
256,192,298977,1,0,0:0:0:0:
256,192,299149,1,0,0:0:0:0:
256,192,299234,1,0,0:0:0:0:
256,192,299320,1,8,0:0:0:0:
256,192,299663,1,0,0:0:0:0:
256,192,299834,1,0,0:0:0:0:
256,192,300006,1,8,0:0:0:0:
256,192,300177,1,8,0:0:0:0:
256,192,300349,1,0,0:0:0:0:
256,192,300691,1,8,0:0:0:0:
256,192,300863,1,0,0:0:0:0:
256,192,300949,1,0,0:0:0:0:
256,192,301034,1,8,0:0:0:0:
256,192,301206,1,0,0:0:0:0:
256,192,301377,1,8,0:0:0:0:
256,192,301549,1,8,0:0:0:0:
256,192,301634,1,8,0:0:0:0:
256,192,301720,1,0,0:0:0:0:
256,192,301891,1,0,0:0:0:0:
256,192,301977,1,0,0:0:0:0:
256,192,302063,1,8,0:0:0:0:
256,192,302234,1,0,0:0:0:0:
256,192,302320,1,0,0:0:0:0:
256,192,302406,1,0,0:0:0:0:
256,192,302577,1,0,0:0:0:0:
256,192,302663,1,0,0:0:0:0:
256,192,302749,1,8,0:0:0:0:
256,192,302920,1,8,0:0:0:0:
256,192,303006,1,8,0:0:0:0:
256,192,303091,1,0,0:0:0:0:
256,192,303263,1,0,0:0:0:0:
256,192,303434,1,0,0:0:0:0:
256,192,303606,1,0,0:0:0:0:
256,192,303777,1,0,0:0:0:0:
256,192,304120,1,0,0:0:0:0:
256,192,304206,1,0,0:0:0:0:
256,192,304291,1,0,0:0:0:0:
256,192,304377,1,0,0:0:0:0:
