osu file format v13

[General]
AudioFilename: 1773253191.mp3
AudioLeadIn: 0
PreviewTime: 138520
Countdown: 0
SampleSet: Soft
StackLeniency: 0.2
Mode: 0
LetterboxInBreaks: 0
WidescreenStoryboard: 0

[Editor]
Bookmarks: 13388,38245,81960,301045
DistanceSpacing: 1.6
BeatDivisor: 4
GridSize: 4
TimelineZoom: 3.2

[Metadata]
Title:Seraphim
TitleUnicode:Seraphim
Artist:himmel feat. YooSanHyakurei
ArtistUnicode:himmel feat. 瑶山百霊
Creator:Macuilxochitl
Version:Heaven
Source:
Tags:himmeltengoku Yonder Voice Empyrean fanzhen0019 musync
BeatmapID:437671
BeatmapSetID:182520

[Difficulty]
HPDrainRate:7
CircleSize:4.3
OverallDifficulty:8.5
ApproachRate:9
SliderMultiplier:1.6
SliderTickRate:1

[Events]
//Background and Video events
0,0,"a.jpg",0,0
//Break Periods
//Storyboard Layer 0 (Background)
//Storyboard Layer 1 (Fail)
//Storyboard Layer 2 (Pass)
//Storyboard Layer 3 (Foreground)
//Storyboard Sound Samples
//Background Colour Transformations
3,100,163,162,255

[TimingPoints]
2749,342.857142857143,4,2,9,40,1,0
2920,-200,4,2,9,50,0,0
3091,-200,4,2,9,60,0,0
3263,-200,4,2,9,40,0,0
3777,-200,4,2,9,50,0,0
3949,-200,4,2,9,60,0,0
4291,-200,4,2,9,50,0,0
4463,-200,4,2,9,40,0,0
4634,-200,4,2,9,30,0,0
5149,-200,4,2,9,40,0,0
5491,-200,4,2,9,50,0,0
5834,-200,4,2,9,60,0,0
6349,-200,4,2,9,40,0,0
6863,-200,4,2,9,50,0,0
7034,-200,4,2,9,40,0,0
7206,-200,4,2,9,30,0,0
7891,-200,4,2,9,40,0,0
8063,-200,4,2,9,50,0,0
8234,-200,4,2,9,60,0,0
8920,-200,4,2,9,50,0,0
9434,-200,4,2,9,40,0,0
9949,-200,4,2,9,30,0,0
10120,-200,4,2,9,40,0,0
10634,-200,4,2,9,30,0,0
10806,-200,4,2,9,20,0,0
11320,-200,4,2,9,30,0,0
11491,-200,4,2,9,40,0,0
12006,-200,4,2,9,50,0,0
12349,-200,4,2,9,60,0,0
12691,-200,4,2,9,50,0,0
12863,-200,4,2,9,40,0,0
13377,-100,4,2,9,70,0,0
13720,-200,4,2,9,70,0,0
14234,-200,4,2,9,40,0,0
14406,-200,4,2,9,30,0,0
14577,-200,4,2,9,40,0,0
14749,-200,4,2,9,50,0,0
14920,-200,4,2,9,60,0,0
15777,-200,4,2,9,50,0,0
15949,-200,4,2,9,40,0,0
16463,-200,4,2,9,50,0,0
16806,-200,4,2,9,40,0,0
16977,-200,4,2,9,30,0,0
17834,-200,4,2,9,40,0,0
18349,-200,4,2,9,50,0,0
18863,-200,4,2,9,60,0,0
19206,-200,4,2,9,70,0,0
19549,-200,4,2,9,60,0,0
19720,-200,4,2,9,50,0,0
20063,-200,4,2,9,40,0,0
20234,-200,4,2,9,30,0,0
20406,-200,4,2,9,40,0,0
20920,-200,4,2,9,30,0,0
21434,-200,4,2,9,20,0,0
21606,-200,4,2,9,30,0,0
21777,-200,4,2,9,40,0,0
21949,-200,4,2,9,50,0,0
22291,-200,4,2,9,40,0,0
22463,-200,4,2,9,60,0,0
22806,-200,4,2,9,40,0,0
23149,-200,4,2,9,30,0,0
24006,-200,4,2,9,20,0,0
24349,-200,4,2,9,30,0,0
24691,-200,4,2,9,40,0,0
27434,-100,4,2,5,45,0,0
32749,-100,4,2,5,45,0,0
32920,-100,4,2,5,60,0,0
35663,-100,4,2,5,50,0,0
35706,-100,4,2,5,60,0,0
38235,-100,4,2,5,40,0,0
38406,-100,4,2,1,70,0,0
49035,-100,4,2,2,70,0,0
49206,-100,4,2,3,80,0,0
49377,-100,4,2,1,70,0,0
60006,-100,4,2,2,70,0,0
60177,-100,4,2,3,80,0,0
60349,-83.3333333333333,4,2,1,70,0,1
70635,-83.3333333333333,4,2,2,70,0,1
70806,-83.3333333333333,4,2,3,70,0,1
70977,-83.3333333333333,4,2,2,70,0,1
71149,-83.3333333333333,4,2,3,70,0,1
71235,-83.3333333333333,4,2,3,70,0,0
71320,-83.3333333333333,4,2,1,70,0,1
73549,-133.333333333333,4,2,0,70,0,0
74063,-83.3333333333333,4,2,1,70,0,1
76463,-83.3333333333333,4,2,2,70,0,1
76635,-83.3333333333333,4,2,3,80,0,1
76806,-83.3333333333333,4,2,1,70,0,1
81949,-83.3333333333333,4,2,2,70,0,1
82120,-83.3333333333333,4,2,3,80,0,1
82206,-83.3333333333333,4,2,3,80,0,0
82291,-83.3333333333333,4,2,1,70,0,1
87435,-83.3333333333333,4,2,2,70,0,1
87606,-83.3333333333333,4,2,3,70,0,1
87777,-83.3333333333333,4,3,1,70,0,0
88977,-83.3333333333333,4,2,1,100,0,0
89149,-83.3333333333333,4,2,1,70,0,0
89235,-83.3333333333333,4,3,1,70,0,0
90177,-83.3333333333333,4,2,1,70,0,0
90520,-83.3333333333333,4,3,1,70,0,0
91892,-83.3333333333333,4,3,0,70,0,0
92920,-83.3333333333333,4,3,0,40,0,0
93263,-100,4,2,1,70,0,0
94292,-133.333333333333,4,2,1,70,0,0
94635,-100,4,2,0,70,0,0
94720,-100,4,2,1,70,0,0
95663,-133.333333333333,4,2,1,70,0,0
96006,-100,4,2,0,70,0,0
96092,-100,4,2,1,70,0,0
97035,-133.333333333333,4,2,1,70,0,0
97377,-100,4,2,0,70,0,0
97549,-100,4,2,1,70,0,0
98406,-100,4,2,2,40,0,0
98492,-100,4,2,3,40,0,0
98577,-100,4,2,2,40,0,0
98663,-100,4,2,3,40,0,0
98749,-100,4,2,2,70,0,0
98835,-100,4,2,1,70,0,0
100120,-100,4,2,0,70,0,0
100292,-100,4,2,1,70,0,0
100977,-100,4,2,0,70,0,0
101577,-100,4,2,1,70,0,0
102006,-100,4,2,0,70,0,0
102520,-100,4,2,99,70,0,0
102692,-100,4,2,0,70,0,0
102777,-100,4,2,1,70,0,0
103035,-100,4,2,0,70,0,0
103120,-100,4,2,1,70,0,0
103377,-100,4,2,0,70,0,0
103549,-100,4,2,1,70,0,0
103977,-100,4,2,2,70,0,0
104063,-100,4,2,3,70,0,0
104234,-100,4,2,1,70,0,1
104320,-100,4,2,1,70,0,0
137149,-66.6666666666667,4,2,1,40,0,0
138006,-50,4,2,1,20,0,0
138092,-50,4,2,1,30,0,0
138177,-50,4,2,1,40,0,0
138263,-50,4,2,1,50,0,0
138349,-50,4,2,1,60,0,0
138435,-50,4,2,1,70,0,0
138520,-76.9230769230769,4,2,1,70,0,1
143663,-76.9230769230769,4,2,0,70,0,1
144006,-76.9230769230769,4,2,1,70,0,1
149149,-76.9230769230769,4,2,2,70,0,1
149320,-76.9230769230769,4,2,0,70,0,1
149492,-76.9230769230769,4,2,1,70,0,1
160120,-76.9230769230769,4,2,2,70,0,1
160292,-76.9230769230769,4,2,0,80,0,1
160463,-100,4,2,1,70,0,0
170063,-66.6666666666667,4,2,1,40,0,0
171435,-100,4,2,1,70,0,0
181720,-100,4,2,2,70,0,0
181892,-100,4,2,3,80,0,0
182063,-100,4,2,2,80,0,0
182235,-100,4,2,3,80,0,0
182406,-200,4,2,9,70,0,0
182492,-200,4,2,9,36,0,0
203663,-200,4,2,9,50,0,0
204006,-100,4,2,2,70,0,0
204177,-100,4,2,3,80,0,0
204349,-100,4,2,1,70,0,1
204434,-100,4,2,1,70,0,0
206577,-133.333333333333,4,2,0,70,0,0
206663,-133.333333333333,4,2,1,70,0,0
206749,-133.333333333333,4,2,99,70,0,0
206835,-133.333333333333,4,2,1,70,0,0
206920,-133.333333333333,4,2,0,70,0,0
207092,-100,4,2,1,70,0,0
214977,-100,4,2,2,70,0,0
215149,-100,4,2,3,80,0,0
215320,-100,4,2,1,70,0,0
226292,-66.6666666666667,4,2,1,40,0,0
227149,-50,4,2,1,20,0,0
227235,-50,4,2,1,30,0,0
227320,-50,4,2,1,40,0,0
227406,-50,4,2,1,50,0,0
227492,-50,4,2,1,60,0,0
227577,-50,4,2,1,70,0,0
227663,-76.9230769230769,4,2,1,70,0,1
232977,-76.9230769230769,4,2,0,70,0,1
233149,-76.9230769230769,4,2,1,70,0,1
238292,-76.9230769230769,4,2,3,70,0,1
238463,-76.9230769230769,4,2,2,80,0,1
238635,-76.9230769230769,4,2,1,80,0,1
249606,-120.481927710843,4,2,1,70,0,0
249692,-120.481927710843,4,2,1,48,0,0
249777,-120.481927710843,4,2,6,48,0,0
254749,-120.481927710843,4,2,3,48,0,0
254920,-120.481927710843,4,2,2,48,0,0
255092,-120.481927710843,4,2,6,48,0,0
259891,-66.6666666666667,4,2,1,40,0,0
260577,-100,4,2,1,70,0,0
264006,-100,4,2,4,70,0,0
264092,-100,4,2,1,70,0,0
271206,-100,4,2,3,70,0,0
271377,-100,4,2,2,80,0,0
271549,-100,4,2,1,70,0,0
282177,-100,4,2,2,70,0,0
282349,-100,4,2,3,80,0,0
282520,-100,4,2,1,70,0,0
292892,-100,4,2,0,70,0,0
293149,-100,4,2,2,70,0,0
293320,-100,4,2,0,70,0,0
293492,-100,4,2,1,70,0,0
303777,-133.333333333333,4,2,1,70,0,0
304120,-66.6666666666667,4,2,1,70,0,0
304292,-133.333333333333,4,2,1,70,0,0
304463,-133.333333333333,4,2,1,50,0,0
304977,-133.333333333333,4,2,1,40,0,0
305320,-133.333333333333,4,2,1,30,0,0
305663,-133.333333333333,4,2,1,20,0,0
306006,-133.333333333333,4,2,1,10,0,0
306349,-133.333333333333,4,2,1,5,0,0

[Colours]
Combo1 : 102,179,255
Combo2 : 128,255,128
Combo3 : 170,255,255
Combo4 : 255,255,128

[HitObjects]
256,192,1377,12,0,2577,0:0:0:0:
336,300,2749,5,4,0:0:0:0:
412,316,2920,1,0,0:0:0:0:
456,252,3091,1,0,0:0:0:0:
408,188,3263,1,2,0:0:0:0:
408,188,3606,1,0,0:0:0:0:
332,216,3777,1,2,0:0:0:0:
252,200,3949,2,0,P|188:196|156:208,1,80
116,256,4463,5,0,0:0:0:0:
132,136,4634,1,2,0:0:0:0:
66,189,4806,2,0,L|26:185,1,40,0|0,0:0|0:0,0:0:0:0:
116,256,5149,1,0,0:0:0:0:
132,136,5320,1,2,0:0:0:0:
148,12,5491,5,2,0:0:0:0:
212,60,5663,1,0,0:0:0:0:
292,68,5834,1,0,0:0:0:0:
364,36,6006,1,2,0:0:0:0:
364,36,6349,1,0,0:0:0:0:
512,80,6691,1,2,0:0:0:0:
432,100,6863,5,2,0:0:0:0:
392,168,7034,1,0,0:0:0:0:
400,248,7206,1,0,0:0:0:0:
456,304,7377,2,0,L|500:312,1,40,2|0,0:0|0:0,0:0:0:0:
456,304,7720,5,0,0:0:0:0:
356,348,7891,1,0,0:0:0:0:
284,264,8063,1,2,0:0:0:0:
160,244,8234,6,0,P|112:244|72:264,1,80,2|0,0:0|0:0,0:0:0:0:
200,356,8920,2,0,P|248:356|288:336,1,80,2|0,0:0|0:0,0:0:0:0:
284,264,9434,2,0,L|284:184,1,80,2|0,0:0|0:0,0:0:0:0:
284,104,9949,5,0,0:0:0:0:
400,24,10120,1,2,0:0:0:0:
440,40,10463,5,2,0:0:0:0:
376,104,10634,1,0,0:0:0:0:
284,104,10806,1,2,0:0:0:0:
208,52,10977,6,0,P|216:28|232:12,1,40,2|0,0:0|0:0,0:0:0:0:
208,132,11320,1,2,0:0:0:0:
128,124,11491,2,0,P|88:120|48:96,1,80,2|0,0:0|0:0,0:0:0:0:
53,101,12006,1,2,0:0:0:0:
56,180,12177,1,0,0:0:0:0:
60,260,12349,6,0,L|44:304,1,40,2|0,0:0|0:0,0:0:0:0:
128,216,12691,1,2,0:0:0:0:
132,296,12863,2,0,L|97:378,1,80,2|0,0:0|0:0,0:0:0:0:
204,252,13377,6,0,P|292:244|344:272,1,120,2|0,0:0|0:0,0:0:0:0:
324,264,13720,6,0,P|266:248|208:261,1,120,4|0,0:0|0:0,0:0:0:0:
208,260,14406,1,2,0:0:0:0:
316,344,14577,5,0,0:0:0:0:
392,316,14749,1,2,0:0:0:0:
416,240,14920,1,2,0:0:0:0:
384,168,15091,2,0,P|372:124|384:88,1,80,0|2,0:0|0:0,0:0:0:0:
436,36,15606,1,2,0:0:0:0:
452,120,15777,5,0,0:0:0:0:
460,128,15863,1,0,0:0:0:0:
468,136,15949,1,2,0:0:0:0:
384,168,16120,2,0,P|364:172|344:172,1,40,2|0,0:0|0:0,0:0:0:0:
304,60,16463,5,2,0:0:0:0:
240,104,16634,1,0,0:0:0:0:
160,112,16806,1,2,0:0:0:0:
84,88,16977,1,2,0:0:0:0:
80,80,17063,1,0,0:0:0:0:
76,72,17149,1,0,0:0:0:0:
96,188,17320,5,0,0:0:0:0:
112,292,17491,2,0,L|120:340,1,40,2|0,0:0|0:0,0:0:0:0:
168,232,17834,5,2,0:0:0:0:
44,252,18006,2,0,L|0:259,1,40,0|2,0:0|0:0,0:0:0:0:
192,308,18349,2,0,P|240:316|280:312,1,80,2|0,0:0|0:0,0:0:0:0:
340,280,18863,1,2,0:0:0:0:
440,336,19034,1,0,0:0:0:0:
432,320,19120,1,0,0:0:0:0:
428,304,19206,6,0,P|420:260|424:224,1,80,2|0,0:0|0:0,0:0:0:0:
444,148,19720,2,0,P|452:104|448:68,1,80,2|0,0:0|0:0,0:0:0:0:
444,148,20234,1,0,0:0:0:0:
376,104,20406,2,0,P|340:88|300:84,1,80,2|2,0:0|0:0,0:0:0:0:
224,96,20920,2,0,P|196:104|179:116,1,40,0|2,0:0|0:0,0:0:0:0:
128,164,21263,1,2,0:0:0:0:
112,244,21434,1,0,0:0:0:0:
120,248,21520,1,0,0:0:0:0:
128,252,21606,1,2,0:0:0:0:
116,328,21777,1,2,0:0:0:0:
216,296,21949,6,0,P|224:248|220:208,1,80,0|2,0:0|0:0,0:0:0:0:
292,188,22463,2,0,P|300:236|296:276,1,80,0|0,0:0|0:0,0:0:0:0:
368,304,22977,1,2,0:0:0:0:
444,280,23149,2,0,P|452:232|448:192,1,80,2|0,0:0|0:0,0:0:0:0:
412,132,23663,1,2,0:0:0:0:
444,60,23834,1,0,0:0:0:0:
508,136,24006,5,0,0:0:0:0:
428,140,24177,1,0,0:0:0:0:
348,124,24349,1,2,0:0:0:0:
280,84,24520,1,2,0:0:0:0:
248,12,24691,1,0,0:0:0:0:
256,192,24863,12,0,26063,0:0:0:0:
256,192,26234,12,0,27349,0:0:0:0:
328,296,27435,6,0,P|388:320|476:268,1,160,6|0,0:0|0:0,0:0:0:0:
452,176,27949,2,0,P|392:152|304:204,1,160,2|0,0:0|0:0,0:0:0:0:
232,260,28463,2,0,P|192:264|152:260,1,80,2|0,0:0|0:0,0:0:0:0:
8,236,28806,5,2,0:0:0:0:
68,360,28977,2,0,P|80:320|76:276,1,80,0|2,0:0|0:0,0:0:0:0:
68,176,29320,2,0,P|56:92|104:24,1,160,2|0,0:0|0:0,0:0:0:0:
208,92,29835,2,0,P|214:133|190:172,1,80,2|0,0:0|0:0,0:0:0:0:
132,116,30177,6,0,L|300:112,1,160,6|0,0:0|0:0,0:0:0:0:
440,208,30692,2,0,L|272:204,1,160,2|0,0:0|0:0,0:0:0:0:
196,252,31206,2,0,L|108:256,1,80,2|0,0:0|0:0,0:0:0:0:
12,264,31549,5,2,0:0:0:0:
188,344,31720,2,0,P|240:336|264:304,1,80,0|2,0:0|0:0,0:0:0:0:
332,120,32063,2,0,B|356:204|312:200|336:284,1,160,2|0,0:0|0:0,0:0:0:0:
412,316,32577,2,0,P|440:340|492:344,1,80,2|4,0:0|0:0,0:0:0:0:
484,240,32920,6,0,P|464:156|492:88,1,160,6|0,0:0|0:0,0:0:0:0:
336,32,33435,2,0,P|363:105|342:182,1,160,2|0,0:0|0:0,0:0:0:0:
240,152,33949,2,0,P|200:147|152:148,1,80,2|0,0:0|0:0,0:0:0:0:
48,76,34292,5,2,0:0:0:0:
24,176,34463,2,0,P|24:228|32:264,1,80,0|2,0:0|0:0,0:0:0:0:
160,304,34806,2,0,P|176:224|156:136,1,160,2|0,0:0|0:0,0:0:0:0:
24,176,35320,2,0,L|24:280,1,80,2|0,0:0|0:0,0:0:0:0:
160,304,35663,6,0,B|228:264|290:306|290:306|280:288,1,160,6|0,0:0|0:0,0:0:0:0:
416,332,36177,2,0,B|347:293|352:218|352:218|342:236,1,160,2|0,0:0|0:0,0:0:0:0:
312,96,36692,2,0,B|312:174|245:207|245:207|265:207,1,160,2|2,0:0|0:0,0:0:0:0:
388,140,37206,6,0,L|472:144,1,80,0|2,0:0|0:0,0:0:0:0:
312,96,37549,1,0,0:0:0:0:
224,92,37720,5,2,0:0:0:0:
141,120,37892,1,0,0:0:0:0:
76,64,38063,1,4,0:1:0:0:
164,36,38235,1,6,0:0:0:0:
56,152,38406,5,6,0:0:0:0:
149,260,38577,2,0,L|145:348,1,80,0|8,0:0|0:0,0:0:0:0:
304,328,38920,2,0,L|145:339,1,160
289,249,39435,2,0,L|304:328,1,80,8|0,0:0|0:0,0:0:0:0:
464,340,39777,5,0,0:0:0:0:
392,292,39949,2,0,P|376:248|384:208,1,80,0|8,0:0|0:0,0:0:0:0:
472,136,40292,2,0,P|475:175|460:211,1,80
452,56,40635,1,0,0:0:0:0:
388,108,40806,2,0,P|372:71|376:32,1,80,8|2,0:0|0:0,0:0:0:0:
256,52,41149,5,2,0:0:0:0:
180,112,41320,2,0,L|192:196,1,80,0|8,0:0|0:0,0:0:0:0:
31,199,41663,2,0,L|191:191,1,160
36,120,42177,2,0,L|31:199,1,80,8|0,0:0|0:0,0:0:0:0:
24,352,42520,5,0,0:0:0:0:
88,292,42692,2,0,P|140:284|172:300,1,80,0|8,0:0|0:0,0:0:0:0:
312,344,43035,2,0,L|412:348,1,80
224,360,43377,1,0,0:0:0:0:
360,272,43549,2,0,P|368:220|352:188,1,80,8|2,0:0|0:0,0:0:0:0:
304,20,43892,5,6,0:0:0:0:
216,40,44063,2,0,L|136:56,1,80,0|8,0:0|0:0,0:0:0:0:
130,199,44406,2,0,P|163:129|137:55,1,160
51,188,44920,2,0,L|130:199,1,80,8|0,0:0|0:0,0:0:0:0:
240,248,45263,5,0,0:0:0:0:
200,328,45435,2,0,P|164:340|120:328,1,80,0|8,0:0|0:0,0:0:0:0:
288,324,45777,2,0,L|368:364,1,80
496,292,46120,2,0,P|452:288|412:308,1,80,0|8,0:0|0:0,0:0:0:0:
468,376,46463,1,2,0:0:0:0:
448,208,46635,5,2,0:0:0:0:
428,108,46806,2,0,L|416:28,1,80,0|8,0:0|0:0,0:0:0:0:
281,106,47149,2,0,P|354:78|427:107,1,160
272,186,47663,2,0,L|280:106,1,80,8|0,0:0|0:0,0:0:0:0:
188,64,48006,5,2,0:0:0:0:
20,52,48177,1,0,0:0:0:0:
104,100,48349,1,8,0:0:0:0:
188,64,48520,5,0,0:0:0:0:
20,52,48692,1,2,0:0:0:0:
32,156,48863,1,0,0:0:0:0:
160,168,49035,2,0,L|168:212,1,40,0|0,0:0|0:0,0:0:0:0:
188,64,49206,2,0,L|196:108,1,40
32,156,49377,6,0,L|36:296,1,120,6|0,0:0|0:0,0:0:0:0:
24,288,49720,2,0,P|68:300|108:280,1,80,8|0,0:0|0:0,0:0:0:0:
256,236,50063,1,2,0:0:0:0:
172,240,50235,1,2,0:0:0:0:
224,340,50406,2,0,P|268:352|308:332,1,80,8|0,0:0|0:0,0:0:0:0:
344,232,50749,6,0,L|348:152,1,80,2|0,0:0|0:0,0:0:0:0:
486,288,51092,2,0,P|449:300|412:288,1,80,8|0,0:0|0:0,0:0:0:0:
256,236,51435,1,2,0:0:0:0:
172,240,51606,1,2,0:0:0:0:
224,340,51777,2,0,P|268:352|308:332,1,80,8|0,0:0|0:0,0:0:0:0:
344,232,52120,6,0,L|336:104,1,120,2|0,0:0|0:0,0:0:0:0:
344,96,52463,2,0,P|388:88|432:104,1,80,8|0,0:0|0:0,0:0:0:0:
260,124,52806,1,2,0:0:0:0:
184,136,52977,1,2,0:0:0:0:
144,28,53149,2,0,P|188:20|232:36,1,80,8|0,0:0|0:0,0:0:0:0:
84,96,53492,6,0,L|0:92,1,80,2|0,0:0|0:0,0:0:0:0:
76,212,53835,2,0,P|124:224|156:212,1,80,8|0,0:0|0:0,0:0:0:0:
260,124,54177,1,2,0:0:0:0:
184,136,54349,1,2,0:0:0:0:
144,28,54520,2,0,P|188:20|232:36,1,80,8|2,0:0|0:1,0:0:0:0:
236,40,54777,1,2,0:1:0:0:
248,52,54863,6,0,L|344:48,1,80,2|2,0:0|0:1,0:0:0:0:
492,96,55206,2,0,L|396:92,1,80,10|2,0:0|0:1,0:0:0:0:
336,144,55549,2,0,B|328:184|328:184|336:224,1,80,2|2,0:0|0:1,0:0:0:0:
432,320,55892,1,10,0:0:0:0:
508,204,56063,2,0,B|515:242|515:242|507:282,1,80,2|2,0:1|0:0,0:0:0:0:
352,313,56406,6,0,L|432:320,1,80,2|10,0:1|0:0,0:0:0:0:
264,332,56749,1,2,0:1:0:0:
200,272,56920,2,0,P|200:224|216:184,1,80,2|2,0:0|0:1,0:0:0:0:
116,344,57263,1,10,0:0:0:0:
96,232,57435,1,2,0:0:0:0:
72,120,57606,6,0,B|56:40|56:40|103:38|136:80,1,160,2|8,0:0|0:0,0:0:0:0:
88,236,58120,1,0,0:0:0:0:
64,124,58292,6,0,L|48:36,1,80,2|0,0:0|0:0,0:0:0:0:
88,236,58635,1,10,0:0:0:0:
176,160,58806,1,2,0:0:0:0:
88,236,58977,6,0,P|32:244|0:236,1,80,2|0,0:0|0:0,0:0:0:0:
152,328,59320,2,0,P|208:336|240:328,1,80,10|0,0:0|0:0,0:0:0:0:
344,276,59663,2,0,L|336:320,1,40
472,292,59835,2,0,L|480:336,1,40
416,228,60006,5,2,0:0:0:0:
412,192,60092,1,0,0:0:0:0:
408,156,60177,1,2,0:0:0:0:
404,120,60263,1,0,0:0:0:0:
380,80,60349,6,0,P|424:56|484:76,1,95.9999970703126,6|2,0:0|0:1,0:0:0:0:
308,144,60692,2,0,L|208:140,1,95.9999970703126,10|2,0:0|0:1,0:0:0:0:
132,76,61035,1,0,0:0:0:0:
244,40,61206,1,2,0:1:0:0:
132,76,61377,2,0,P|64:76|32:108,1,95.9999970703126,10|2,0:0|0:1,0:0:0:0:
43,91,61635,1,0,0:0:0:0:
43,91,61720,1,2,0:0:0:0:
136,272,61892,5,2,0:1:0:0:
104,164,62063,1,10,0:0:0:0:
20,240,62235,1,2,0:1:0:0:
136,272,62406,6,0,L|232:276,1,95.9999970703126,2|2,0:0|0:1,0:0:0:0:
96,348,62749,2,0,L|0:352,1,95.9999970703126,10|2,0:0|0:1,0:0:0:0:
172,284,63092,6,0,L|268:288,1,95.9999970703126,2|2,0:0|0:1,0:0:0:0:
380,344,63435,2,0,P|428:312|436:268,1,95.9999970703126,10|2,0:0|0:1,0:0:0:0:
432,148,63777,1,2,0:0:0:0:
512,216,63949,1,2,0:1:0:0:
432,148,64120,2,0,L|424:44,1,95.9999970703126,10|2,0:0|0:1,0:0:0:0:
344,188,64463,5,2,0:0:0:0:
260,60,64635,1,2,0:1:0:0:
256,72,64720,1,0,0:0:0:0:
252,84,64806,1,10,0:0:0:0:
128,148,64977,1,2,0:1:0:0:
235,167,65149,1,2,0:0:0:0:
236,168,65492,5,2,0:0:0:0:
244,272,65663,1,2,0:0:0:0:
256,376,65835,2,0,L|148:372,1,95.9999970703126,6|2,0:0|0:1,0:0:0:0:
28,300,66177,2,0,P|28:348|64:388,1,95.9999970703126,10|2,0:0|0:1,0:0:0:0:
156,232,66520,2,0,P|156:184|127:147,1,95.9999970703126,2|2,0:0|0:1,0:0:0:0:
28,300,66863,1,10,0:0:0:0:
20,196,67035,2,0,L|12:96,1,95.9999970703126,2|2,0:1|0:0,0:0:0:0:
116,20,67377,5,2,0:1:0:0:
112,36,67463,1,0,0:0:0:0:
108,52,67549,1,10,0:0:0:0:
12,100,67720,1,2,0:1:0:0:
208,80,67892,6,0,L|312:88,1,95.9999970703126,2|2,0:0|0:1,0:0:0:0:
484,128,68235,2,0,L|380:136,1,95.9999970703126,10|2,0:0|0:1,0:0:0:0:
268,104,68577,6,0,L|172:96,1,95.9999970703126,2|2,0:0|0:1,0:0:0:0:
292,280,68920,2,0,P|288:232|324:176,1,95.9999970703126,10|2,0:0|0:1,0:1:0:0:
456,248,69263,1,2,0:0:0:0:
392,332,69435,1,2,0:1:0:0:
292,280,69606,2,0,P|244:272|188:292,1,95.9999970703126,10|2,0:0|0:1,0:0:0:0:
120,356,69949,5,2,0:0:0:0:
120,160,70120,1,2,0:0:0:0:
120,160,70206,1,0,0:0:0:0:
120,160,70292,2,0,P|112:216|116:264,1,95.9999970703126,2|2,0:0|0:0,0:0:0:0:
12,160,70635,5,0,0:0:0:0:
0,128,70720,1,0,0:0:0:0:
4,96,70806,1,0,0:0:0:0:
28,76,70892,1,0,0:0:0:0:
48,44,70977,6,0,P|76:64|100:68,1,47.9999985351563,2|0,0:0|0:0,0:0:0:0:
176,76,71149,2,0,P|204:76|232:64,1,47.9999985351563,2|0,0:0|0:0,0:0:0:0:
296,32,71320,6,0,P|344:28|396:40,1,95.9999970703126,6|2,0:0|0:1,0:0:0:0:
492,144,71663,2,0,P|444:139|397:149,1,95.9999970703126,10|2,0:0|0:1,0:0:0:0:
300,248,72006,2,0,L|288:148,1,95.9999970703126,2|2,0:0|0:1,0:0:0:0:
288,152,72349,1,10,0:0:0:0:
408,264,72520,2,0,P|400:324|372:356,1,95.9999970703126,2|2,0:1|0:0,0:0:0:0:
272,332,72863,5,2,0:1:0:0:
160,356,73035,1,10,0:0:0:0:
188,252,73206,1,2,0:1:0:0:
272,332,73377,1,2,0:0:0:0:
76,276,73549,6,0,B|56:216|56:216|64:152,1,120.000004577637,2|2,0:0|0:0,0:0:0:0:
36,52,74063,6,0,P|100:52|136:76,1,95.9999970703126,2|2,0:0|0:1,0:0:0:0:
280,112,74406,2,0,P|216:112|180:136,1,95.9999970703126,10|2,0:0|0:1,0:0:0:0:
188,252,74749,1,2,0:0:0:0:
160,356,74920,1,2,0:1:0:0:
308,288,75092,2,0,L|304:184,1,95.9999970703126,10|2,0:0|0:1,0:0:0:0:
308,288,75435,1,2,0:0:0:0:
392,136,75606,5,2,0:1:0:0:
404,232,75777,1,10,0:0:0:0:
416,328,75949,1,2,0:1:0:0:
308,288,76120,5,2,0:0:0:0:
508,268,76292,1,2,0:1:0:0:
404,232,76463,5,2,0:0:0:0:
368,224,76549,1,0,0:0:0:0:
340,196,76635,1,2,0:0:0:0:
328,160,76720,1,0,0:0:0:0:
336,124,76806,6,0,L|440:116,1,95.9999970703126,6|2,0:0|0:1,0:0:0:0:
272,52,77149,2,0,L|168:44,1,95.9999970703126,10|2,0:0|0:1,0:0:0:0:
32,104,77492,2,0,P|12:140|20:200,1,95.9999970703126,2|2,0:0|0:1,0:0:0:0:
116,160,77835,1,10,0:0:0:0:
96,36,78006,1,2,0:1:0:0:
116,160,78177,6,0,L|211:167,1,95.9999970703126,2|2,0:0|0:1,0:0:0:0:
308,212,78520,1,10,0:0:0:0:
212,260,78692,1,2,0:1:0:0:
304,312,78863,2,0,L|399:304,1,95.9999970703126,2|2,0:0|0:1,0:0:0:0:
208,364,79206,5,10,0:0:0:0:
212,260,79377,1,2,0:0:0:0:
216,156,79549,6,0,L|220:56,1,95.9999970703126,2|2,0:0|0:1,0:0:0:0:
0,8,79892,2,0,P|-4:52|32:88,1,95.9999970703126,10|2,0:0|0:1,0:0:0:0:
136,116,80235,2,0,L|344:108,1,191.999994140625,2|10,0:0|0:0,0:0:0:0:
504,104,80749,6,0,P|512:152|500:208,1,95.9999970703126,0|2,0:0|0:0,0:0:0:0:
428,32,81092,1,2,0:0:0:0:
400,132,81263,1,10,0:0:0:0:
432,232,81435,1,2,0:0:0:0:
424,336,81606,2,0,L|416:220,1,95.9999970703126,2|0,0:0|0:0,0:0:0:0:
400,132,81949,6,0,P|380:160|364:168,1,47.9999985351563,2|0,0:0|0:0,0:0:0:0:
260,196,82120,2,0,P|224:192|204:180,1,47.9999985351563,2|0,0:0|0:0,0:0:0:0:
132,104,82292,6,0,P|120:64|140:4,1,95.9999970703126,6|2,0:0|0:1,0:0:0:0:
92,224,82635,2,0,L|96:332,1,95.9999970703126,10|2,0:0|0:1,0:0:0:0:
95,319,82892,1,0,0:0:0:0:
95,319,82977,1,2,0:0:0:0:
196,348,83149,5,2,0:1:0:0:
300,336,83320,1,10,0:0:0:0:
388,280,83492,1,2,0:1:0:0:
260,196,83663,5,2,0:0:0:0:
156,156,83835,2,0,P|116:144|60:144,1,95.9999970703126,2|10,0:1|0:0,0:0:0:0:
268,104,84177,1,2,0:1:0:0:
288,116,84263,1,0,0:0:0:0:
312,120,84349,2,0,L|412:116|412:116,1,95.9999970703126,2|2,0:0|0:1,0:0:0:0:
512,40,84692,2,0,L|416:36,1,95.9999970703126,10|2,0:0|0:1,0:0:0:0:
208,52,85035,6,0,P|156:68|108:56,1,95.9999970703126,2|2,0:0|0:1,0:0:0:0:
16,160,85377,2,0,L|8:48,1,95.9999970703126,10|2,0:0|0:1,0:0:0:0:
9,64,85635,1,0,0:0:0:0:
9,64,85720,1,2,0:0:0:0:
120,192,85892,1,2,0:1:0:0:
216,148,86063,2,0,L|208:36,1,95.9999970703126,10|2,0:0|0:1,0:0:0:0:
120,192,86406,5,2,0:0:0:0:
112,88,86577,1,2,0:1:0:0:
120,192,86749,1,10,0:0:0:0:
128,296,86920,1,2,0:1:0:0:
116,316,87006,1,0,0:0:0:0:
104,336,87092,2,0,L|8:328,1,95.9999970703126,2|2,0:0|0:1,0:0:0:0:
216,244,87435,6,0,L|272:248,1,47.9999985351563,2|0,0:0|0:0,0:0:0:0:
357,282,87606,2,0,L|413:286,1,47.9999985351563,2|0,0:0|0:0,0:0:0:0:
500,320,87777,5,0,0:0:0:0:
408,196,88120,1,0,0:0:0:0:
468,56,88463,1,0,0:0:0:0:
408,196,88806,1,0,0:0:0:0:
332,184,88977,1,2,0:0:0:0:
256,172,89149,5,2,0:0:0:0:
180,40,89492,1,0,0:0:0:0:
332,40,89835,1,0,0:0:0:0:
256,172,90177,1,2,0:0:0:0:
180,184,90349,1,2,0:0:0:0:
104,196,90520,5,0,0:0:0:0:
152,304,90692,5,0,2:0:0:0:
148,328,90777,1,0,2:0:0:0:
144,352,90863,1,8,2:0:0:0:
232,292,91035,5,0,2:0:0:0:
228,316,91120,1,0,2:0:0:0:
224,340,91206,1,0,0:0:0:0:
312,280,91377,5,0,2:0:0:0:
308,304,91463,1,0,2:0:0:0:
304,328,91549,1,0,0:0:0:0:
392,268,91720,5,0,0:0:0:0:
476,328,91892,2,0,L|488:360,4,23.9999992675781,0|0|0|0|0,3:0|3:0|3:0|3:0|3:0,0:0:0:0:
488,228,92235,6,0,P|484:176|496:132,1,95.9999970703126,2|0,0:0|0:0,0:0:0:0:
392,84,92577,5,0,0:0:0:0:
396,108,92663,1,0,0:0:0:0:
396,132,92749,1,0,0:0:0:0:
392,156,92835,1,0,0:0:0:0:
384,176,92920,6,0,P|372:228|392:272,1,95.9999970703126,4|0,1:0|0:0,0:0:0:0:
387,266,93263,6,0,P|404:225|392:181,1,80,4|0,0:0|0:0,0:0:0:0:
304,228,93606,1,0,0:0:0:0:
224,288,93777,2,0,P|204:224|216:128,1,160
214,132,94292,6,0,B|168:124|168:124|152:80,1,90.0000034332277
80,128,94635,6,0,L|72:40,1,80,2|0,0:0|0:0,0:0:0:0:
72,48,94977,1,0,0:0:0:0:
28,192,95149,2,0,P|0:264|20:344,1,160
18,342,95663,6,0,B|61:359|61:359|84:316,1,90.0000034332277
152,288,96006,6,0,L|172:368,1,80,2|0,0:0|0:0,0:0:0:0:
304,368,96349,1,0,0:0:0:0:
240,304,96520,2,0,P|296:280|384:332,1,160
378,322,97035,6,0,B|392:360|392:360|448:360,1,90.0000034332277
512,332,97377,5,2,0:0:0:0:
480,260,97549,2,0,P|472:216|484:176,1,80
332,112,97892,1,0,0:0:0:0:
408,64,98063,2,0,L|492:76,1,80
332,112,98406,5,0,0:0:0:0:
292,120,98492,1,0,0:0:0:0:
252,128,98577,1,0,0:0:0:0:
212,136,98663,1,0,0:0:0:0:
172,144,98749,5,4,0:0:0:0:
96,184,98920,1,0,0:0:0:0:
20,144,99092,1,0,0:0:0:0:
100,100,99263,2,0,L|92:277,1,160
180,384,99777,2,0,P|184:336|164:292,1,80
95,347,100120,5,2,0:0:0:0:
264,342,100292,2,0,L|356:338,1,80
428,372,100635,2,0,P|496:328|484:232,1,160,0|2,0:0|0:0,0:0:0:0:
432,188,101149,1,0,0:0:0:0:
356,228,101320,1,0,0:0:0:0:
432,188,101492,6,0,L|440:104,1,80,2|0,0:0|0:0,0:0:0:0:
336,64,101835,2,0,L|343:143,1,80,2|2,0:0|0:0,0:0:0:0:
232,208,102177,2,0,L|240:124,1,80
239,128,102520,1,2,0:0:0:0:
120,56,102692,2,0,L|128:224,1,160,2|2,0:0|0:0,0:0:0:0:
127,215,103120,1,0,0:0:0:0:
127,215,103206,1,2,0:0:0:0:
8,152,103377,1,2,0:0:0:0:
8,152,103549,6,0,L|0:200,1,40,2|0,0:0|0:0,0:0:0:0:
128,216,103720,2,0,L|136:264,1,40
24,280,103892,5,2,0:0:0:0:
16,316,103977,1,0,0:0:0:0:
24,352,104063,1,2,0:0:0:0:
44,384,104149,1,0,0:0:0:0:
80,368,104235,6,0,L|164:372,1,80,6|2,0:0|0:1,0:0:0:0:
288,288,104577,2,0,L|204:292,1,80,10|2,0:0|0:1,0:0:0:0:
336,368,104920,1,2,0:0:0:0:
480,312,105092,1,2,0:1:0:0:
368,240,105263,6,0,P|364:196|376:156,1,80,10|2,0:0|0:1,0:0:0:0:
456,68,105606,1,2,0:0:0:0:
492,176,105777,1,2,0:1:0:0:
456,68,105949,2,0,P|400:64|368:80,1,80,10|2,0:0|0:1,0:0:0:0:
224,108,106292,2,0,P|280:104|312:120,1,80,2|2,0:0|0:1,0:0:0:0:
156,180,106635,5,10,0:0:0:0:
140,152,106720,1,0,0:0:0:0:
128,124,106806,1,2,0:1:0:0:
136,92,106892,1,0,0:0:0:0:
144,60,106977,6,0,L|56:64,1,80,2|2,0:0|0:1,0:0:0:0:
16,220,107320,2,0,P|0:168|12:132,1,80,10|2,0:0|0:1,0:0:0:0:
108,272,107663,2,0,P|112:311|97:347,1,80,2|2,0:0|0:1,0:0:0:0:
97,347,108006,1,10,0:0:0:0:
240,304,108177,1,2,0:1:0:0:
364,368,108349,6,0,P|372:328|364:276,1,80,2|2,0:0|0:1,0:0:0:0:
288,148,108692,2,0,P|280:108|288:56,1,80,10|2,0:0|0:1,0:0:0:0:
348,16,109035,1,2,0:0:0:0:
452,180,109206,5,2,0:1:0:0:
360,96,109377,1,10,0:0:0:0:
384,260,109549,1,2,0:1:0:0:
372,176,109720,6,0,L|284:172,1,80,6|2,0:0|0:1,0:0:0:0:
140,240,110063,2,0,L|228:236,1,80,10|2,0:0|0:1,0:0:0:0:
92,96,110406,2,0,P|80:140|92:180,1,80,2|2,0:0|0:1,0:0:0:0:
140,240,110749,5,10,0:0:0:0:
240,132,110920,1,2,0:1:0:0:
92,96,111092,2,0,L|180:88,1,80,2|2,0:0|0:1,0:0:0:0:
240,132,111435,1,10,0:0:0:0:
264,24,111606,1,2,0:1:0:0:
408,76,111777,6,0,L|320:68,1,80,2|2,0:0|0:1,0:0:0:0:
440,224,112120,2,0,P|456:184|452:148,1,80,10|2,0:0|0:1,0:0:0:0:
452,148,112377,1,0,0:0:0:0:
452,148,112463,5,2,0:0:0:0:
356,240,112635,2,0,P|352:284|364:328,1,80,2|10,0:1|0:0,0:0:0:0:
304,176,112977,1,2,0:1:0:0:
232,288,113149,2,0,P|216:240|196:212,1,80,2|2,0:0|0:1,0:0:0:0:
124,184,113492,1,10,0:0:0:0:
156,368,113663,1,2,0:1:0:0:
232,288,113835,5,2,0:0:0:0:
56,320,114006,1,2,0:0:0:0:
232,288,114177,5,2,0:0:0:0:
56,320,114349,1,2,0:0:0:0:
136,260,114520,6,0,L|112:132,1,120,2|0,0:0|0:0,0:0:0:0:
113,142,114863,5,2,0:0:0:0:
88,16,115035,1,2,0:0:0:0:
0,120,115206,6,0,L|160:112,1,160,6|10,0:0|0:0,0:0:0:0:
256,108,115720,1,0,0:0:0:0:
380,16,115892,2,0,P|336:16|300:40,1,80,2|0,0:0|0:0,0:0:0:0:
300,184,116235,2,0,P|316:220|360:240,1,80,10|0,0:0|0:0,0:0:0:0:
484,168,116577,5,2,0:0:0:0:
452,84,116749,1,0,0:0:0:0:
300,184,116920,5,10,0:0:0:0:
260,272,117092,1,0,0:0:0:0:
120,200,117263,6,0,L|104:112,1,80,2|0,0:0|0:0,0:0:0:0:
105,121,117520,1,0,0:0:0:0:
105,121,117606,1,8,0:0:0:0:
88,16,117777,1,0,0:0:0:0:
220,60,117949,6,0,B|228:152|184:132|200:228,1,160,2|10,0:0|0:0,0:0:0:0:
212,304,118463,1,0,0:0:0:0:
148,364,118635,2,0,P|100:368|64:360,1,80,2|0,0:0|0:0,0:0:0:0:
300,328,118977,2,0,P|344:316|376:288,1,80,10|0,0:0|0:0,0:0:0:0:
396,196,119320,5,2,0:0:0:0:
484,184,119492,1,0,0:0:0:0:
408,64,119663,5,10,0:0:0:0:
320,52,119835,1,0,0:0:0:0:
188,92,120006,6,0,L|200:192,1,80,2|0,0:0|0:0,0:0:0:0:
172,208,120263,1,0,0:0:0:0:
128,216,120349,2,0,P|96:212|80:196,1,40,8|0,0:0|0:0,0:0:0:0:
48,144,120520,2,0,P|40:120|44:96,1,40
8,220,120692,6,0,P|1:262|20:304,1,80,2|0,0:0|0:0,0:0:0:0:
140,304,121035,1,10,0:0:0:0:
216,352,121206,2,0,P|262:360|316:352,1,80,0|2,0:0|0:0,0:0:0:0:
432,288,121549,1,0,0:0:0:0:
368,228,121720,2,0,P|360:184|364:136,1,80,10|0,0:0|0:0,0:0:0:0:
488,60,122063,6,0,P|496:104|492:152,1,80,2|0,0:0|0:0,0:0:0:0:
404,24,122406,1,10,0:0:0:0:
300,92,122577,2,0,L|208:96,1,80,0|2,0:0|0:0,0:0:0:0:
120,80,122920,5,0,0:0:0:0:
40,132,123092,1,8,0:0:0:0:
28,36,123263,1,0,0:0:0:0:
40,132,123435,6,0,L|36:224,1,80,2|0,0:0|0:0,0:0:0:0:
80,360,123777,2,0,L|84:268,1,80,10|0,0:0|0:0,0:0:0:0:
83,280,124035,1,0,0:0:0:0:
83,280,124120,1,2,0:0:0:0:
208,196,124292,2,0,P|164:192|124:212,1,80,0|10,0:0|0:0,0:0:0:0:
196,344,124635,1,0,0:0:0:0:
200,348,124806,5,2,0:0:0:0:
264,276,124977,1,2,0:0:0:0:
360,256,125149,1,10,0:0:0:0:
452,280,125320,1,2,0:0:0:0:
512,360,125492,5,10,0:0:0:0:
484,284,125663,1,0,0:0:0:0:
504,208,125835,1,8,0:0:0:0:
508,168,125920,1,0,0:0:0:0:
484,128,126006,1,8,0:0:0:0:
488,88,126092,1,0,0:0:0:0:
460,48,126177,6,0,L|296:36,2,160,8|8|8,0:0|0:0|0:0,0:0:0:0:
392,144,127035,1,0,0:0:0:0:
204,132,127206,1,8,0:0:0:0:
300,112,127377,1,0,0:0:0:0:
143,55,127549,6,0,P|63:51|7:111,2,160,8|8|8,0:0|0:0|0:0,0:0:0:0:
300,112,128406,5,0,0:0:0:0:
184,312,128577,1,8,0:0:0:0:
172,216,128749,1,0,0:0:0:0:
80,168,128920,6,0,L|87:327,2,160,8|8|8,0:0|0:0|0:0,0:0:0:0:
172,216,129777,5,0,0:0:0:0:
312,364,129949,1,8,0:0:0:0:
380,288,130120,1,8,0:0:0:0:
472,252,130292,6,0,P|484:300|480:344,1,80,8|0,0:0|0:0,0:0:0:0:
324,204,130635,2,0,P|323:164|334:125,1,80,8|0,0:0|0:0,0:0:0:0:
416,80,130977,1,8,0:0:0:0:
508,72,131149,5,8,0:0:0:0:
420,40,131320,1,8,0:0:0:0:
372,32,131406,1,0,0:0:0:0:
324,56,131492,1,8,0:0:0:0:
276,48,131577,1,0,0:0:0:0:
232,72,131663,6,0,L|144:68,1,80,8|0,0:0|0:0,0:0:0:0:
60,36,132006,2,0,P|36:76|40:112,1,80,8|0,0:0|0:0,0:0:0:0:
124,156,132349,2,0,P|148:196|144:232,1,80,8|0,0:0|0:0,0:0:0:0:
76,360,132692,1,8,0:0:0:0:
76,360,132863,2,0,L|68:272,1,80,0|8,0:0|0:0,0:0:0:0:
124,156,133206,5,0,0:0:0:0:
260,188,133377,1,8,0:0:0:0:
224,56,133549,1,0,0:0:0:0:
124,156,133720,2,0,P|116:200|128:240,1,80,8|0,0:0|0:0,0:0:0:0:
248,280,134063,5,8,0:0:0:0:
316,120,134235,1,8,0:0:0:0:
448,236,134406,5,8,0:0:0:0:
400,140,134577,1,8,0:0:0:0:
416,128,134663,1,0,0:0:0:0:
432,116,134749,1,8,0:0:0:0:
506,145,134920,1,8,0:0:0:0:
508,164,135006,1,0,0:0:0:0:
510,184,135092,1,8,0:0:0:0:
448,236,135263,1,8,0:0:0:0:
430,228,135349,1,0,0:0:0:0:
412,219,135435,2,0,L|320:216,1,80,8|8,0:0|0:0,0:0:0:0:
208,236,135777,5,0,0:0:0:0:
140,360,135949,2,0,P|128:320|132:280,1,80,8|2,0:0|3:0,0:0:0:0:
208,132,136292,5,0,0:0:0:0:
220,156,136377,1,2,3:0:0:0:
224,184,136463,1,0,0:0:0:0:
220,212,136549,1,0,0:0:0:0:
208,236,136635,1,2,3:0:0:0:
88,192,136806,6,0,P|80:164|80:144,1,40,2|0,3:0|0:0,0:0:0:0:
84,72,136977,2,0,P|100:52|113:40,1,40
192,24,137149,6,0,L|388:16,1,180.000006866455,8|0,3:0|0:0,0:0:0:0:
500,72,137492,6,0,P|468:148|364:136,1,180.000006866455,4|0,3:0|0:0,0:0:0:0:
424,80,137835,6,0,L|416:152,1,60.0000022888184
408,240,138006,6,0,L|403:281,11,40,0|0|0|0|0|0|0|0|0|0|0|0,0:0|0:0|0:0|0:0|0:0|0:0|0:0|0:0|0:0|0:0|0:0|0:0,0:0:0:0:
408,292,138520,6,0,P|408:340|440:384,1,103.999995239258,6|2,0:0|0:1,0:0:0:0:
439,383,138777,1,0,0:0:0:0:
439,383,138863,1,10,0:0:0:0:
500,308,139035,2,0,L|504:200,1,103.999995239258,2|2,0:1|0:0,0:0:0:0:
460,100,139377,1,2,0:1:0:0:
364,160,139549,1,10,0:0:0:0:
260,116,139720,6,0,P|248:72|256:12,1,103.999995239258,2|2,0:1|0:0,0:0:0:0:
88,68,140063,1,2,0:1:0:0:
144,156,140235,2,0,P|156:200|148:260,1,103.999995239258,10|2,0:0|0:1,0:0:0:0:
76,332,140577,5,2,0:0:0:0:
340,312,140749,2,0,P|392:288|364:380,1,207.999990478516,2|2,0:0|0:1,0:0:0:0:
260,344,141263,6,0,P|248:296|264:236,1,103.999995239258,2|2,0:0|0:1,0:0:0:0:
332,168,141606,2,0,P|388:144|460:144,1,103.999995239258,10|2,0:0|0:1,0:0:0:0:
332,168,141949,1,2,0:0:0:0:
160,108,142120,1,2,0:1:0:0:
244,56,142292,6,0,P|260:100|244:156,1,103.999995239258,10|2,0:0|0:1,0:0:0:0:
245,153,142549,1,0,0:0:0:0:
245,153,142635,1,2,0:0:0:0:
76,156,142806,2,0,P|60:112|76:56,1,103.999995239258,2|10,0:1|0:0,0:0:0:0:
160,108,143149,1,0,0:0:0:0:
164,316,143320,5,2,0:0:0:0:
52,248,143492,1,2,0:0:0:0:
268,240,143663,1,2,0:0:0:0:
164,316,143835,1,0,0:0:0:0:
260,352,144006,6,0,P|324:364|364:344,1,103.999995239258,6|2,0:0|0:1,0:0:0:0:
380,244,144349,2,0,L|372:140,1,103.999995239258,10|2,0:0|0:1,0:0:0:0:
372,140,144606,1,0,0:0:0:0:
372,140,144692,1,2,0:0:0:0:
508,228,144863,2,0,P|500:280|464:316,1,103.999995239258,2|10,0:1|0:0,0:0:0:0:
380,244,145206,6,0,L|264:232,1,103.999995239258,2|2,0:1|0:0,0:0:0:0:
108,312,145549,2,0,L|224:300,1,103.999995239258,2|10,0:1|0:0,0:0:0:0:
216,128,145892,1,2,0:1:0:0:
144,204,146063,6,0,P|84:212|48:188,1,103.999995239258,2|2,0:0|0:1,0:0:0:0:
84,44,146406,1,10,0:0:0:0:
120,36,146492,1,0,0:0:0:0:
156,40,146577,1,2,0:0:0:0:
188,56,146663,1,0,0:0:0:0:
208,88,146749,6,0,L|324:80,1,103.999995239258,2|2,0:0|0:1,0:0:0:0:
408,136,147092,2,0,L|524:144,1,103.999995239258,10|2,0:0|0:1,0:0:0:0:
404,48,147435,1,2,0:0:0:0:
316,172,147606,2,0,P|308:228|328:280,1,103.999995239258,2|10,0:1|0:0,0:0:0:0:
440,348,147949,1,2,0:1:0:0:
484,280,148120,5,2,0:0:0:0:
356,344,148292,1,2,0:0:0:0:
240,268,148463,1,10,0:0:0:0:
112,332,148635,1,2,0:0:0:0:
0,252,148806,2,0,P|-4:196|20:144,1,103.999995239258,2|2,0:0|0:1,0:0:0:0:
128,36,149149,5,2,0:0:0:0:
136,72,149235,1,0,0:0:0:0:
144,108,149320,1,2,0:0:0:0:
152,144,149406,1,0,0:0:0:0:
160,180,149492,6,0,P|216:176|252:136,1,103.999995239258,6|2,0:0|0:1,0:0:0:0:
400,56,149835,2,0,L|284:64,1,103.999995239258,10|2,0:0|0:1,0:0:0:0:
464,132,150177,1,2,0:0:0:0:
500,224,150349,2,0,P|488:284|456:316,1,103.999995239258,2|10,0:1|0:0,0:0:0:0:
296,304,150692,6,0,P|268:256|272:204,1,103.999995239258,2|2,0:1|0:0,0:0:0:0:
360,184,151035,2,0,P|388:232|384:284,1,103.999995239258,2|10,0:1|0:0,0:0:0:0:
200,336,151377,1,2,0:1:0:0:
64,208,151549,6,0,P|56:160|132:216,1,207.999990478516,2|10,0:0|0:0,0:0:0:0:
64,356,152063,1,2,0:0:0:0:
200,336,152235,6,0,L|304:340,1,103.999995239258,2|2,0:0|0:1,0:0:0:0:
408,384,152577,2,0,L|412:280,1,103.999995239258,10|2,0:0|0:1,0:0:0:0:
388,144,152920,2,0,P|372:92|396:36,1,103.999995239258,2|2,0:0|0:1,0:0:0:0:
464,192,153263,1,10,0:0:0:0:
300,168,153435,2,0,L|192:168,1,103.999995239258,2|2,0:1|0:0,0:0:0:0:
116,260,153777,5,2,0:1:0:0:
100,156,153949,1,10,0:0:0:0:
84,52,154120,1,2,0:1:0:0:
176,64,154292,5,2,0:0:0:0:
4,128,154463,1,2,0:1:0:0:
200,228,154635,2,0,L|212:284,1,51.999997619629,10|0,0:0|0:0,0:0:0:0:
24,220,154806,2,0,L|40:280,1,51.999997619629,2|2,0:1|0:1,0:0:0:0:
187,146,154977,6,0,L|299:138,1,103.999995239258,6|2,0:0|0:1,0:0:0:0:
444,68,155320,2,0,L|332:60,1,103.999995239258,10|2,0:0|0:1,0:0:0:0:
320,228,155663,2,0,P|360:272|444:264,1,103.999995239258,2|2,0:0|0:1,0:0:0:0:
492,260,156006,1,10,0:0:0:0:
512,144,156177,2,0,P|467:140|416:172,1,103.999995239258,2|2,0:1|0:0,0:0:0:0:
304,240,156520,6,0,P|344:284|428:276,1,103.999995239258,2|10,0:1|0:0,0:0:0:0:
452,368,156863,1,2,0:1:0:0:
452,368,157035,2,0,L|344:372,1,103.999995239258,2|2,0:0|0:1,0:0:0:0:
163,371,157377,2,0,L|60:368,1,103.999995239258,10|2,0:0|0:0,0:0:0:0:
208,192,157720,6,0,P|224:248|204:304,1,103.999995239258,2|2,0:0|0:1,0:0:0:0:
116,132,158063,1,10,0:0:0:0:
120,28,158235,1,2,0:1:0:0:
12,184,158406,2,0,P|-8:236|4:288,1,103.999995239258,2|2,0:0|0:1,0:0:0:0:
112,240,158749,1,10,0:0:0:0:
116,132,158920,1,2,0:1:0:0:
224,72,159092,5,2,0:0:0:0:
404,92,159263,1,2,0:0:0:0:
248,176,159435,1,10,0:0:0:0:
324,16,159606,1,2,0:0:0:0:
360,196,159777,2,0,P|368:268|452:220,1,155.999992858887,2|0,0:0|0:0,0:0:0:0:
452,244,160120,6,0,L|388:248,1,51.999997619629,2|0,0:0|0:0,0:0:0:0:
280,259,160292,2,0,L|216:263,1,51.999997619629,2|0,0:0|0:0,0:0:0:0:
124,272,160463,6,0,L|0:280,1,120,2|0,0:0|0:0,0:0:0:0:
16,264,160806,2,0,P|28:304|12:344,1,80,10|2,0:0|0:1,0:0:0:0:
76,200,161149,2,0,P|64:160|80:120,1,80,2|2,0:0|0:1,0:0:0:0:
200,56,161492,1,10,0:0:0:0:
284,188,161663,2,0,L|204:184,1,80,2|2,0:1|0:0,0:0:0:0:
360,148,162006,5,2,0:1:0:0:
436,108,162177,1,10,0:0:0:0:
512,64,162349,1,2,0:1:0:0:
484,176,162520,6,0,P|480:216|488:264,1,80,2|2,0:0|0:1,0:0:0:0:
512,64,162863,5,10,0:0:0:0:
484,176,163035,1,2,0:0:0:0:
360,148,163206,2,0,L|280:144,1,80,2|2,0:0|0:1,0:0:0:0:
128,200,163549,2,0,L|208:196,1,80,10|2,0:0|0:1,0:0:0:0:
300,248,163892,2,0,P|304:296|288:344,1,80,2|2,0:0|0:1,0:0:0:0:
296,326,164149,1,2,0:1:0:0:
296,326,164235,1,10,0:0:0:0:
192,288,164406,6,0,P|188:336|200:368,1,80,2|2,0:1|0:0,0:0:0:0:
384,384,164749,1,2,0:1:0:0:
384,384,164835,1,0,0:0:0:0:
384,384,164920,2,0,P|404:352|408:304,1,80,10|0,0:0|0:1,0:0:0:0:
380,164,165263,1,2,0:0:0:0:
476,232,165435,1,2,0:1:0:0:
500,120,165606,5,10,0:0:0:0:
380,164,165777,1,2,0:0:0:0:
272,72,165949,5,6,0:0:0:0:
144,104,166120,2,0,L|136:16,1,80,2|10,0:1|0:0,0:0:0:0:
144,104,166463,1,2,0:1:0:0:
52,168,166635,2,0,P|48:204|72:248,1,80,2|2,0:0|0:1,0:0:0:0:
188,300,166977,2,0,P|192:336|168:380,1,80,10|2,0:0|0:1,0:0:0:0:
152,224,167320,5,2,0:0:0:0:
264,260,167492,2,0,L|344:256,1,80,2|10,0:1|0:0,0:0:0:0:
472,124,167835,5,2,0:1:0:0:
376,176,168006,2,0,L|296:180,1,80,2|2,0:0|0:1,0:0:0:0:
296,179,168263,1,0,0:0:0:0:
296,179,168349,1,10,0:0:0:0:
336,64,168520,1,2,0:1:0:0:
376,176,168692,5,2,0:0:0:0:
236,120,168863,2,0,L|140:116,1,80,2|10,0:1|0:0,0:0:0:0:
8,108,169206,1,2,0:1:0:0:
80,56,169377,5,2,0:0:0:0:
88,152,169549,1,2,0:0:0:0:
96,248,169720,1,10,0:0:0:0:
104,344,169892,1,2,0:0:0:0:
240,256,170063,6,0,P|332:248|404:304,1,180.000006866455,8|0,3:0|0:0,0:0:0:0:
452,368,170406,6,0,B|444:284|444:284|456:252|456:252|452:184,1,180.000006866455,4|0,3:0|0:0,0:0:0:0:
444,104,170749,6,0,L|464:80,4,30.0000011444092
384,40,171092,6,0,L|404:16,4,30.0000011444092
292,68,171435,6,0,L|208:76,1,80,6|2,0:0|0:1,0:0:0:0:
112,88,171777,2,0,L|28:96,1,80,10|2,0:0|0:1,0:0:0:0:
160,228,172120,2,0,P|176:184|168:144,1,80,2|2,0:0|0:1,0:0:0:0:
36,204,172463,1,10,0:0:0:0:
76,316,172635,1,2,0:1:0:0:
160,228,172806,6,0,L|252:224,1,80,2|2,0:0|0:1,0:0:0:0:
324,304,173149,1,10,0:0:0:0:
220,328,173320,1,2,0:1:0:0:
324,304,173492,2,0,P|384:320|412:312,1,80,2|2,0:0|0:1,0:0:0:0:
464,232,173835,5,8,0:0:0:0:
436,208,173920,1,0,0:0:0:0:
428,172,174006,1,0,0:0:0:0:
440,136,174092,1,0,0:0:0:0:
468,116,174177,6,0,L|376:108,1,80,2|2,0:0|0:1,0:0:0:0:
252,100,174520,1,10,0:0:0:0:
324,36,174692,2,0,L|416:28,1,80,2|2,0:1|0:0,0:0:0:0:
252,100,175035,2,0,P|208:108|172:96,1,80,2|10,0:1|0:0,0:0:0:0:
100,36,175377,1,2,0:1:0:0:
100,36,175463,1,0,0:0:0:0:
100,36,175549,6,0,P|84:88|88:120,1,80,2|2,0:0|0:1,0:0:0:0:
128,260,175892,2,0,P|144:208|140:176,1,80,10|0,0:0|0:0,0:0:0:0:
40,292,176235,1,2,0:0:0:0:
192,324,176406,1,2,0:1:0:0:
296,284,176577,6,0,L|300:240,1,40,10|0,0:0|0:0,0:0:0:0:
392,336,176749,2,0,L|396:380,1,40,2|0,0:0|0:0,0:0:0:0:
488,304,176920,6,0,B|504:184|504:184|488:144,1,160,8|8,0:0|0:0,0:0:0:0:
328,44,177606,2,8,B|312:164|312:164|328:204,1,160
256,256,178120,1,10,0:0:0:0:
185,200,178292,6,8,B|200:164|200:164|184:44,1,160,10|8,0:0|0:0,0:0:0:0:
22,147,178977,2,8,B|8:184|8:184|24:304,1,160,8|10,0:0|0:0,0:0:0:0:
108,348,179492,1,10,0:0:0:0:
108,348,179577,1,8,0:0:0:0:
108,348,179663,6,0,L|200:344,1,80,10|8,0:0|0:0,0:0:0:0:
236,260,179920,5,0,0:0:0:0:
216,272,180006,2,0,L|124:268,1,80,8|8,0:0|0:0,0:0:0:0:
84,184,180263,5,8,0:0:0:0:
104,196,180349,2,0,L|196:192,1,80,10|8,0:0|0:0,0:0:0:0:
244,104,180606,5,0,0:0:0:0:
224,116,180692,2,0,L|132:112,1,80,10|8,0:0|0:0,0:0:0:0:
20,84,181035,5,10,0:0:0:0:
136,32,181206,1,0,3:0:0:0:
136,32,181292,1,0,3:0:0:0:
136,32,181377,6,0,P|161:29|184:36,1,40,2|0,0:0|0:0,0:0:0:0:
264,52,181549,2,0,P|289:54|312:48,1,40,2|0,0:0|0:0,0:0:0:0:
400,20,181720,5,6,0:0:0:0:
432,44,181806,1,0,0:0:0:0:
452,80,181892,1,2,0:0:0:0:
456,120,181977,1,0,0:0:0:0:
444,160,182063,1,2,0:3:0:0:
424,196,182149,1,2,0:3:0:0:
420,236,182235,1,2,0:3:0:0:
424,276,182320,1,2,0:3:0:0:
444,312,182406,6,0,B|444:368|400:380|352:368|324:336|336:292|416:268|356:204|328:204|288:204|264:220|264:300|396:296|336:160,1,400
248,116,184463,6,0,L|216:116|168:112,1,80,0|2,0:0|0:0,0:0:0:0:
84,72,185149,6,0,B|52:76|24:104|24:104|80:184|16:316|16:316|48:324|76:352|76:352|112:300|116:244,1,480
172,360,187549,1,2,0:0:0:0:
252,340,187892,6,0,B|348:324|312:364|416:344,1,160,2|0,0:0|0:0,0:0:0:0:
488,328,188920,1,0,0:0:0:0:
448,256,189263,6,0,B|432:208|420:136|472:112|472:112|488:164|408:212|336:184,1,320,2|0,0:0|0:0,0:0:0:0:
284,168,190977,6,0,L|224:164,1,40,0|2,0:0|0:0,0:0:0:0:
108,216,191492,2,0,L|168:212,1,40,0|2,0:0|0:0,0:0:0:0:
188,220,191835,1,0,0:0:0:0:
248,276,192006,5,2,0:0:0:0:
324,296,192349,1,2,0:0:0:0:
404,292,192692,5,2,0:0:0:0:
336,288,192863,1,0,0:0:0:0:
268,300,193035,1,2,0:0:0:0:
208,336,193206,1,0,0:0:0:0:
156,384,193377,6,0,B|108:356|104:272|144:244|144:244|108:236|92:184,1,240,4|0,0:0|0:0,0:0:0:0:
172,168,194749,2,0,P|208:176|260:164,1,80,2|0,0:0|0:0,0:0:0:0:
324,136,195435,5,0,0:0:0:0:
332,200,195606,1,0,0:0:0:0:
316,264,195777,1,2,0:0:0:0:
368,300,195949,1,0,0:0:0:0:
404,356,196120,6,0,B|340:316|252:348|252:348|296:344|332:376,1,240,2|0,0:0|0:0,0:0:0:0:
252,348,197492,6,0,L|160:344,1,80,2|0,0:0|0:0,0:0:0:0:
96,272,198177,2,0,L|188:268,1,80,2|0,0:0|0:0,0:0:0:0:
248,188,198863,6,0,B|248:128|168:112|136:168|136:168|100:232|8:208|16:148,1,320,2|0,0:0|0:0,0:0:0:0:
24,68,200577,1,0,0:0:0:0:
124,40,200920,1,2,0:0:0:0:
224,84,201263,1,0,0:0:0:0:
328,56,201606,6,0,B|384:88|352:136|352:136|408:188|356:264|264:268|232:168|288:144,1,320,2|0,0:0|0:0,0:0:0:0:
180,188,203320,1,0,3:0:0:0:
96,168,203663,6,0,L|28:172,1,60,2|0,0:0|0:0,0:0:0:0:
16,176,204006,6,0,L|76:180,1,40,2|0,0:0|0:0,0:0:0:0:
180,188,204177,2,0,L|240:192,1,40
344,204,204349,6,0,L|424:200,1,80,6|0,0:0|0:0,0:0:0:0:
428,336,204692,2,0,L|348:340,1,80,10|0,0:0|0:0,0:0:0:0:
340,343,204949,1,0,0:0:0:0:
332,345,205035,6,0,L|245:337,1,80,2|0,0:0|0:0,0:0:0:0:
108,216,205377,2,0,L|188:220,1,80,10|0,0:0|0:0,0:0:0:0:
196,223,205635,1,0,0:0:0:0:
204,225,205720,6,0,L|291:217,1,80,2|0,0:0|0:0,0:0:0:0:
171,124,206063,2,0,L|92:132,1,80,10|0,0:0|0:0,0:0:0:0:
188,36,206406,1,2,0:0:0:0:
272,52,206577,6,0,B|336:64|336:64|388:52,1,120.000004577637,2|2,0:0|0:0,0:0:0:0:
468,32,207092,6,0,L|476:116,1,80,2|0,0:0|0:0,0:0:0:0:
404,232,207435,2,0,L|396:152,1,80,10|0,0:0|0:0,0:0:0:0:
388,148,207692,1,0,0:0:0:0:
380,144,207777,6,0,L|372:223,1,80,2|0,0:0|0:0,0:0:0:0:
295,273,208120,2,0,L|303:353,1,80,10|0,0:0|0:0,0:0:0:0:
310,355,208377,1,0,0:0:0:0:
317,358,208463,6,0,L|325:279,1,80,2|0,0:0|0:0,0:0:0:0:
224,288,208806,2,0,L|220:200,1,80,10|0,0:0|0:0,0:0:0:0:
116,272,209149,2,0,L|100:184,1,80,2|0,0:0|0:0,0:0:0:0:
100,160,209406,1,0,0:0:0:0:
124,140,209492,6,0,P|152:144|168:164,1,40,8|0,0:0|0:0,0:0:0:0:
12,164,209663,2,0,P|18:143|40:124,1,40
24,40,209835,6,0,P|72:36|120:56,1,80,6|0,0:0|0:0,0:0:0:0:
224,80,210177,1,10,0:0:0:0:
144,120,210349,2,0,L|148:204,1,80,0|2,0:0|0:0,0:0:0:0:
312,176,210692,2,0,L|315:96,1,80,0|10,0:0|0:0,0:0:0:0:
312,176,211035,1,0,0:0:0:0:
392,44,211206,6,0,P|408:80|404:124,1,80,2|0,0:0|0:0,0:0:0:0:
376,248,211549,1,10,0:0:0:0:
452,284,211720,2,0,P|468:248|464:204,1,80,0|2,0:0|0:0,0:0:0:0:
288,264,212063,2,0,L|300:344,1,80,0|10,0:0|0:0,0:0:0:0:
288,264,212406,1,0,0:0:0:0:
152,344,212577,6,0,L|64:348,1,80,2|0,0:0|0:0,0:0:0:0:
208,268,212920,2,0,L|296:264,1,80,10|0,0:0|0:0,0:0:0:0:
136,208,213263,1,2,0:0:0:0:
196,132,213435,2,0,L|284:128,1,80,0|10,0:0|0:0,0:0:0:0:
392,120,213777,1,0,0:0:0:0:
392,120,213863,1,0,0:0:0:0:
392,120,213949,5,2,0:0:0:0:
500,80,214120,1,2,0:0:0:0:
408,8,214292,1,10,0:0:0:0:
300,48,214463,1,2,0:0:0:0:
392,120,214635,5,2,0:0:0:0:
320,192,214806,1,0,0:0:0:0:
384,268,214977,1,2,0:0:0:0:
392,304,215063,1,0,0:0:0:0:
400,340,215149,1,2,0:0:0:0:
408,376,215235,1,0,0:0:0:0:
428,364,215320,6,0,L|336:368,1,80,8|0,0:0|0:0,0:0:0:0:
264,300,215663,1,8,0:0:0:0:
128,376,215835,1,0,0:0:0:0:
4,304,216006,2,0,L|164:300,1,160,8|8,0:0|0:0,0:0:0:0:
212,216,216520,1,8,0:0:0:0:
212,216,216606,1,0,0:0:0:0:
212,216,216692,6,0,P|197:178|208:140,1,80,8|0,0:0|0:0,0:0:0:0:
372,132,217035,2,0,P|385:169|376:208,1,80,8|0,0:0|0:0,0:0:0:0:
292,172,217377,5,8,0:0:0:0:
284,84,217549,1,0,0:0:0:0:
136,32,217720,5,8,0:0:0:0:
128,120,217892,2,0,L|126:166,1,40,8|0,0:0|0:0,0:0:0:0:
24,176,218063,6,0,L|36:344,1,160,8|8,0:0|0:0,0:0:0:0:
124,372,218577,1,0,0:0:0:0:
204,336,218749,2,0,P|220:264|160:208,1,160,8|8,0:0|0:0,0:0:0:0:
116,292,219263,1,8,0:0:0:0:
116,292,219349,1,0,0:0:0:0:
116,292,219435,6,8,L|124:380,1,80,8|0,0:0|0:0,0:0:0:0:
304,372,219777,2,0,L|311:292,1,80,8|0,0:0|0:0,0:0:0:0:
388,232,220120,5,8,0:0:0:0:
484,248,220292,1,8,0:0:0:0:
400,356,220463,6,0,L|368:320,1,40,8|0,0:0|0:0,0:0:0:0:
304,372,220635,2,0,L|272:336,1,40,8|0,0:0|0:0,0:0:0:0:
212,384,220806,6,0,L|112:384,1,80,8|0,0:0|0:0,0:0:0:0:
40,332,221149,2,0,P|24:276|32:252,1,80,8|0,0:0|0:0,0:0:0:0:
168,192,221492,2,0,P|173:231|157:267,1,80,8|0,0:0|0:0,0:0:0:0:
76,176,221835,1,8,0:0:0:0:
80,84,222006,6,0,L|-4:88,1,80,8|8,0:0|0:0,0:0:0:0:
168,32,222349,2,0,L|252:36,1,80,0|8,0:0|0:0,0:0:0:0:
340,84,222692,1,0,0:0:0:0:
440,56,222863,2,0,P|452:104|440:148,1,80,8|0,0:0|0:0,0:0:0:0:
392,220,223206,2,0,P|380:268|392:312,1,80,8|8,0:0|0:0,0:0:0:0:
385,297,223463,1,8,0:0:0:0:
385,297,223549,1,8,0:0:0:0:
280,320,223720,5,8,0:0:0:0:
252,324,223806,1,0,0:0:0:0:
224,328,223892,1,8,0:0:0:0:
112,260,224063,5,8,0:0:0:0:
140,264,224149,1,0,0:0:0:0:
168,268,224235,1,8,0:0:0:0:
276,196,224406,5,8,0:0:0:0:
248,200,224492,1,0,0:0:0:0:
220,204,224577,1,8,0:0:0:0:
108,132,224749,5,8,0:0:0:0:
136,136,224835,1,0,0:0:0:0:
164,140,224920,6,0,P|176:116|176:88,1,40,8|0,0:0|0:0,0:0:0:0:
168,28,225092,2,0,P|148:9|122:0,1,40,8|0,0:0|0:0,0:0:0:0:
60,4,225263,2,0,P|36:16|19:39,1,40,8|0,0:0|0:0,0:0:0:0:
0,96,225435,2,0,P|4:122|20:145,1,40,8|0,0:0|0:0,0:0:0:0:
68,184,225606,5,8,0:0:0:0:
80,208,225692,1,2,3:3:0:0:
84,236,225777,1,0,0:0:0:0:
76,264,225863,1,0,0:0:0:0:
56,284,225949,1,2,3:3:0:0:
20,372,226120,1,2,3:0:0:0:
20,372,226206,1,0,0:0:0:0:
20,372,226292,6,0,B|116:384|104:340|196:352,1,180.000006866455,8|0,3:0|0:0,0:0:0:0:
248,280,226635,6,0,B|300:288|300:288|324:360|324:360|388:368,1,180.000006866455,4|0,3:0|0:0,0:0:0:0:
468,376,226977,6,0,P|488:348|496:320,1,60.0000022888184
496,220,227149,6,0,L|492:180,11,40,0|0|0|0|0|0|0|0|0|0|0|0,0:0|0:0|0:0|0:0|0:0|0:0|0:0|0:0|0:0|0:0|0:0|0:0,0:0:0:0:
480,172,227663,6,0,P|468:120|496:80,1,103.999995239258,6|2,0:0|0:1,0:0:0:0:
495,80,227920,1,0,0:0:0:0:
495,80,228006,1,10,0:0:0:0:
375,111,228177,1,2,0:1:0:0:
364,8,228349,2,0,L|376:112,1,103.999995239258,2|2,0:0|0:1,0:0:0:0:
288,196,228692,1,10,0:0:0:0:
200,124,228863,6,0,P|168:104|76:108,1,103.999995239258,2|2,0:1|0:0,0:0:0:0:
32,248,229206,2,0,P|83:246|128:222,1,103.999995239258,2|10,0:1|0:0,0:0:0:0:
200,124,229549,1,2,0:1:0:0:
264,344,229720,5,2,0:0:0:0:
433,174,229892,2,0,P|415:90|352:148,1,207.999990478516,2|2,0:0|0:1,0:0:0:0:
404,264,230406,6,0,L|512:256,1,103.999995239258,2|2,0:0|0:1,0:0:0:0:
368,352,230749,2,0,L|260:344,1,103.999995239258,10|2,0:0|0:1,0:0:0:0:
264,344,231006,1,0,0:0:0:0:
264,344,231092,1,2,0:0:0:0:
152,364,231263,2,0,P|120:312|124:264,1,103.999995239258,2|10,0:1|0:0,0:0:0:0:
40,184,231606,5,2,0:1:0:0:
224,100,231777,2,0,L|216:212,1,103.999995239258,2|2,0:0|0:1,0:0:0:0:
123,270,232120,1,10,0:0:0:0:
40,184,232292,1,2,0:1:0:0:
140,68,232463,5,2,0:0:0:0:
260,16,232635,1,2,0:0:0:0:
340,144,232806,6,0,L|352:196,1,51.999997619629
476,168,232977,2,0,L|488:220,1,51.999997619629,2|0,0:0|0:0,0:0:0:0:
412,288,233149,6,0,P|376:332|312:328,1,103.999995239258,2|2,0:0|0:1,0:0:0:0:
220,312,233492,2,0,L|116:316,1,103.999995239258,10|2,0:0|0:1,0:0:0:0:
116,315,233749,1,0,0:0:0:0:
116,315,233835,1,2,0:0:0:0:
252,212,234006,2,0,P|252:152|212:104,1,103.999995239258,2|10,0:1|0:0,0:0:0:0:
328,60,234349,6,0,L|444:72,1,103.999995239258,2|2,0:1|0:0,0:0:0:0:
229,116,234692,2,0,L|113:104,1,103.999995239258,2|10,0:1|0:0,0:0:0:0:
36,36,235035,1,2,0:1:0:0:
12,148,235206,1,2,0:0:0:0:
136,216,235377,5,2,0:1:0:0:
160,248,235463,1,2,0:1:0:0:
164,288,235549,1,10,0:0:0:0:
144,324,235635,1,0,0:0:0:0:
108,344,235720,2,0,P|138:358|168:360,1,51.999997619629,2|0,0:1|0:0,0:0:0:0:
232,364,235892,6,0,P|288:356|328:320,1,103.999995239258,2|2,0:0|0:1,0:0:0:0:
488,276,236235,2,0,P|432:272|392:232,1,103.999995239258,10|2,0:0|0:1,0:0:0:0:
324,160,236577,2,0,L|320:48,1,103.999995239258,2|2,0:0|0:1,0:0:0:0:
324,160,236920,1,10,0:0:0:0:
484,80,237092,1,2,0:1:0:0:
404,120,237263,5,2,0:0:0:0:
220,104,237435,1,2,0:0:0:0:
76,216,237606,1,10,0:0:0:0:
260,232,237777,1,2,0:0:0:0:
368,356,237949,2,0,B|432:372|480:360|480:360|460:340|432:340,1,155.999992858887,2|0,0:0|0:0,0:0:0:0:
332,336,238292,5,2,0:0:0:0:
292,324,238377,1,0,0:0:0:0:
252,324,238463,1,2,0:0:0:0:
212,332,238549,1,0,0:0:0:0:
176,352,238635,6,0,L|72:348,1,103.999995239258,6|2,0:0|0:1,0:0:0:0:
16,184,238977,2,0,P|-6:222|16:292,1,103.999995239258,10|2,0:0|0:1,0:0:0:0:
4,278,239235,1,0,0:0:0:0:
4,278,239320,1,2,0:0:0:0:
120,244,239492,1,2,0:1:0:0:
120,128,239663,1,10,0:0:0:0:
220,188,239835,6,0,L|328:184,1,103.999995239258,2|2,0:1|0:0,0:0:0:0:
472,288,240177,2,0,L|364:284,1,103.999995239258,2|10,0:1|0:0,0:0:0:0:
368,284,240520,1,2,0:1:0:0:
260,280,240692,6,0,P|272:336|320:376,1,103.999995239258,2|2,0:0|0:1,0:0:0:0:
472,288,241035,2,0,P|460:232|412:192,1,103.999995239258,10|2,0:0|0:1,0:0:0:0:
388,188,241292,1,0,0:0:0:0:
348,188,241377,6,0,L|240:196,1,103.999995239258,2|2,0:0|0:1,0:0:0:0:
156,248,241720,2,0,L|148:144,1,103.999995239258,10|2,0:0|0:1,0:0:0:0:
104,36,242063,1,2,0:0:0:0:
228,56,242235,1,2,0:1:0:0:
148,144,242406,1,10,0:0:0:0:
228,56,242577,2,0,P|296:48|336:64,1,103.999995239258,2|2,0:1|0:0,0:0:0:0:
440,176,242920,5,2,0:1:0:0:
332,296,243092,1,10,0:0:0:0:
272,148,243263,1,0,0:1:0:0:
348,208,243435,5,2,0:0:0:0:
464,356,243606,1,2,0:1:0:0:
491,172,243777,2,0,L|440:176,1,51.999997619629,10|0,0:0|0:0,0:0:0:0:
375,24,243949,2,0,L|324:28,1,51.999997619629,2|0,0:0|0:0,0:0:0:0:
228,56,244120,6,0,P|176:60|124:44,1,103.999995239258,6|2,0:0|0:1,0:0:0:0:
16,108,244463,2,0,L|24:216,1,103.999995239258,10|2,0:0|0:1,0:0:0:0:
140,276,244806,2,0,P|132:332|100:364,1,103.999995239258,2|2,0:0|0:1,0:0:0:0:
99,364,245149,1,10,0:0:0:0:
240,288,245320,1,2,0:1:0:0:
240,288,245406,1,0,0:0:0:0:
240,288,245492,6,0,L|344:284,1,103.999995239258,2|2,0:0|0:1,0:0:0:0:
512,364,245835,2,0,L|408:360,1,103.999995239258,10|2,0:0|0:1,0:0:0:0:
396,200,246177,5,2,0:0:0:0:
360,92,246349,1,2,0:1:0:0:
468,60,246520,1,10,0:0:0:0:
504,168,246692,1,2,0:1:0:0:
504,168,246777,1,0,0:0:0:0:
504,168,246863,6,0,P|460:184|400:176,1,103.999995239258,2|2,0:0|0:1,0:0:0:0:
340,72,247206,2,0,P|296:56|236:64,1,103.999995239258,10|2,0:0|0:1,0:0:0:0:
156,140,247549,2,0,L|48:144,1,103.999995239258,2|2,0:0|0:1,0:0:0:0:
176,248,247892,1,10,0:0:0:0:
268,180,248063,1,2,0:1:0:0:
356,344,248235,5,2,0:0:0:0:
360,260,248406,1,2,0:0:0:0:
364,176,248577,1,10,0:0:0:0:
368,92,248749,1,2,0:0:0:0:
372,8,248920,2,0,P|400:64|384:112,1,103.999995239258,2|2,0:0|0:1,0:0:0:0:
268,180,249263,5,2,0:0:0:0:
244,208,249349,1,0,0:0:0:0:
236,244,249435,1,2,0:0:0:0:
244,280,249520,1,0,0:0:0:0:
264,312,249606,6,0,L|344:320,1,66.4000009625244,4|2,0:0|0:0,0:0:0:0:
128,344,249949,2,0,L|208:352,1,66.4000009625244,2|0,0:0|0:0,0:0:0:0:
52,372,250292,1,2,0:0:0:0:
0,284,250463,2,0,L|80:292,1,66.4000009625244,2|0,0:0|0:0,0:0:0:0:
160,212,250806,6,0,L|80:220,1,66.4000009625244,2|0,0:0|0:0,0:0:0:0:
0,136,251149,2,0,L|80:144,1,66.4000009625244,2|2,0:0|0:0,0:0:0:0:
194,86,251492,2,0,L|128:80,1,66.4000009625244,0|2,0:0|0:0,0:0:0:0:
264,140,251835,1,2,0:0:0:0:
336,100,252006,6,0,L|324:32,1,66.4000009625244,0|2,0:0|0:0,0:0:0:0:
404,192,252349,2,0,L|416:124,1,66.4000009625244,0|2,0:0|0:0,0:0:0:0:
496,116,252692,2,0,L|508:48,1,66.4000009625244,2|0,0:0|0:0,0:0:0:0:
496,116,253035,1,2,0:0:0:0:
415,256,253206,2,0,L|403:190,1,66.4000009625244,2|0,0:0|0:0,0:0:0:0:
403,190,253549,1,2,0:3:0:0:
336,296,253720,6,0,P|304:312|264:308,1,66.4000009625244,0|2,0:0|0:0,0:0:0:0:
252,172,254063,2,0,P|284:164|315:172,1,66.4000009625244,2|0,0:0|0:0,0:0:0:0:
284,240,254406,5,2,0:0:0:0:
180,224,254577,1,2,0:0:0:0:
104,300,254749,2,0,L|112:344,1,33.2000004812622
0,284,254920,2,0,L|8:328,1,33.2000004812622
64,204,255092,5,4,0:0:0:0:
84,128,255263,2,0,L|12:132,1,66.4000009625244,2|0,0:0|0:0,0:0:0:0:
128,52,255606,1,2,0:0:0:0:
236,132,255777,2,0,L|164:128,1,66.4000009625244,2|0,0:0|0:0,0:0:0:0:
216,56,256120,2,0,L|282:59,1,66.4000009625244,2|2,0:0|0:0,0:0:0:0:
364,136,256463,5,0,0:0:0:0:
432,180,256635,2,0,L|504:176,1,66.4000009625244,2|2,0:0|0:0,0:0:0:0:
360,220,256977,1,0,0:0:0:0:
292,264,257149,2,0,L|220:260,1,66.4000009625244,2|2,0:0|0:0,0:0:0:0:
156,300,257492,2,0,L|84:304,1,66.4000009625244,0|2,0:0|0:0,0:0:0:0:
91,310,257749,1,0,0:0:0:0:
92,316,257835,6,0,P|75:277|79:245,1,66.4000009625244,0|2,0:0|0:0,0:0:0:0:
132,188,258177,2,0,P|149:148|145:116,1,66.4000009625244,2|0,0:0|0:0,0:0:0:0:
80,40,258520,1,2,0:0:0:0:
24,96,258692,2,0,P|6:135|10:167,1,66.4000009625244,2|0,0:0|0:0,0:0:0:0:
73,241,259035,1,2,0:0:0:0:
200,240,259206,5,2,0:0:0:0:
144,296,259377,2,0,L|152:376,1,66.4000009625244,0|2,0:0|0:0,0:0:0:0:
320,240,259720,1,2,0:0:0:0:
268,300,259891,6,0,L|270:339,4,30.0000011444092,0|0|0|0|0,3:0|3:0|3:0|3:0|3:0,0:0:0:0:
392,304,260235,6,0,P|388:340|360:368,1,60.0000022888184,2|0,3:0|0:0,0:0:0:0:
320,240,260406,2,0,P|324:204|352:176,1,60.0000022888184,2|0,3:0|0:0,0:0:0:0:
416,160,260577,6,0,L|496:156,1,80,6|2,0:0|0:1,0:0:0:0:
356,108,260920,2,0,P|344:64|360:32,1,80,10|2,0:0|0:1,0:0:0:0:
428,72,261263,2,0,L|252:68,1,160,2|10,0:0|0:0,0:0:0:0:
188,68,261777,1,2,0:1:0:0:
188,68,261863,1,0,0:0:0:0:
188,68,261949,2,0,P|172:104|180:144,1,80,2|2,0:0|0:1,0:0:0:0:
132,284,262292,2,0,P|148:248|140:208,1,80,10|2,0:0|0:1,0:0:0:0:
96,144,262635,2,0,L|12:144,1,80,2|2,0:0|0:1,0:0:0:0:
132,284,262977,5,10,0:0:0:0:
168,292,263063,1,0,0:0:0:0:
204,284,263149,1,2,0:1:0:0:
232,264,263235,1,0,0:0:0:0:
244,232,263320,2,0,L|248:152,1,80,2|2,0:0|0:1,0:0:0:0:
316,108,263663,1,10,0:0:0:0:
376,224,263835,2,0,L|384:384,1,160,2|2,0:1|0:1,0:0:0:0:
464,380,264349,2,0,P|480:340|480:304,1,80,10|2,0:0|0:1,0:0:0:0:
479,303,264606,1,0,0:0:0:0:
479,303,264692,5,2,0:0:0:0:
375,224,264863,1,2,0:1:0:0:
375,224,264949,1,0,0:0:0:0:
376,224,265035,2,0,P|376:184|391:147,1,80,10|2,0:0|0:1,0:0:0:0:
512,56,265377,2,0,P|477:75|437:80,1,80,2|2,0:0|0:1,0:0:0:0:
360,72,265720,5,10,0:0:0:0:
328,48,265806,1,0,0:0:0:0:
288,44,265892,1,2,0:1:0:0:
252,56,265977,1,0,0:0:0:0:
228,88,266063,6,0,L|224:172,1,80,2|2,0:0|0:1,0:0:0:0:
144,188,266406,2,0,L|140:108,1,80,10|2,0:0|0:1,0:0:0:0:
64,128,266749,2,0,L|60:207,1,80,2|2,0:0|0:1,0:0:0:0:
56,300,267092,1,10,0:0:0:0:
132,360,267263,1,2,0:0:0:0:
132,360,267349,1,0,0:0:0:0:
132,360,267435,6,0,L|216:352,1,80,2|2,0:0|0:1,0:0:0:0:
264,292,267777,2,0,L|348:300,1,80,10|2,0:0|0:1,0:0:0:0:
384,228,268120,2,0,L|468:220,1,80,2|2,0:0|0:1,0:0:0:0:
504,152,268463,1,10,0:0:0:0:
504,152,268635,1,2,0:0:0:0:
488,64,268806,5,2,0:0:0:0:
388,48,268977,1,8,0:0:0:0:
384,76,269063,1,0,0:0:0:0:
380,104,269149,1,2,0:0:0:0:
288,72,269320,1,8,0:0:0:0:
284,44,269406,1,0,0:0:0:0:
280,16,269492,1,2,0:0:0:0:
184,44,269663,1,8,0:0:0:0:
180,72,269749,1,0,0:0:0:0:
176,100,269835,1,2,0:0:0:0:
80,72,270006,1,8,0:0:0:0:
76,44,270092,1,0,0:0:0:0:
72,16,270177,5,2,0:0:0:0:
8,104,270349,1,2,0:0:0:0:
76,188,270520,1,10,0:0:0:0:
12,276,270692,1,2,0:0:0:0:
76,364,270863,2,0,P|120:372|168:304,1,120,2|0,0:0|0:0,0:0:0:0:
160,296,271206,6,0,P|184:304|208:304,1,40,2|0,0:0|0:0,0:0:0:0:
280,300,271377,2,0,P|300:296|324:280,1,40,0|0,0:0|0:0,0:0:0:0:
384,236,271549,6,0,B|408:156|356:160|384:72,1,160,6|10,0:0|0:0,0:0:0:0:
448,24,272063,1,2,0:1:0:0:
500,96,272235,2,0,P|492:136|460:168,1,80,2|2,0:0|0:1,0:0:0:0:
304,228,272577,2,0,L|384:236,1,80,10|2,0:0|0:1,0:0:0:0:
240,144,272920,2,0,L|160:152,1,80,2|2,0:0|0:1,0:0:0:0:
0,124,273263,1,10,0:0:0:0:
92,80,273435,1,2,0:1:0:0:
72,200,273606,2,0,P|68:236|80:280,1,80,2|2,0:0|0:1,0:0:0:0:
152,352,273949,5,10,0:0:0:0:
188,356,274035,1,0,0:0:0:0:
220,344,274120,1,2,0:1:0:0:
244,316,274206,1,0,0:0:0:0:
248,280,274292,6,0,L|240:196,1,80,2|2,0:0|0:1,0:0:0:0:
384,216,274635,1,10,0:0:0:0:
344,296,274806,2,0,L|336:375,1,80,2|2,0:1|0:0,0:0:0:0:
464,328,275149,2,0,P|480:288|472:248,1,80,2|10,0:1|0:0,0:0:0:0:
492,164,275492,1,2,0:1:0:0:
472,148,275577,1,0,0:0:0:0:
452,132,275663,6,0,L|460:48,1,80,2|2,0:0|0:1,0:0:0:0:
256,56,276006,1,10,0:0:0:0:
256,56,276177,2,0,L|263:135,1,80,2|2,0:1|0:0,0:0:0:0:
360,80,276520,5,2,0:1:0:0:
256,56,276692,1,10,0:0:0:0:
152,84,276863,2,0,L|108:84,1,40,2|2,0:1|0:1,0:0:0:0:
28,56,277035,6,0,P|36:96|24:136,1,80,6|2,0:0|0:1,0:0:0:0:
136,268,277377,2,0,P|125:229|133:190,1,80,10|2,0:0|0:1,0:0:0:0:
244,160,277720,2,0,L|324:156,1,80,2|2,0:0|0:1,0:0:0:0:
408,288,278063,1,10,0:0:0:0:
484,228,278235,1,2,0:1:0:0:
504,320,278406,6,0,L|420:328,1,80,2|2,0:0|0:1,0:0:0:0:
324,236,278749,2,0,L|244:228,1,80,10|2,0:0|0:1,0:0:0:0:
244,228,279006,1,0,0:0:0:0:
244,228,279092,5,2,0:0:0:0:
60,244,279263,1,2,0:1:0:0:
148,280,279435,1,10,0:0:0:0:
132,184,279606,1,2,0:0:0:0:
116,88,279777,5,6,0:0:0:0:
216,36,279949,1,8,0:0:0:0:
224,60,280035,1,0,0:0:0:0:
232,80,280120,1,2,0:0:0:0:
324,96,280292,1,8,0:0:0:0:
316,120,280377,1,0,0:0:0:0:
308,140,280463,1,2,0:0:0:0:
392,188,280635,1,8,0:0:0:0:
400,212,280720,1,0,0:0:0:0:
408,232,280806,1,2,0:0:0:0:
500,248,280977,1,8,0:0:0:0:
492,272,281063,1,0,0:0:0:0:
484,292,281149,5,2,0:0:0:0:
356,336,281320,1,2,0:0:0:0:
256,228,281492,1,10,0:0:0:0:
128,184,281663,1,2,0:0:0:0:
20,280,281835,2,0,P|44:344|96:368,1,120,2|0,0:0|0:0,0:0:0:0:
120,360,282177,6,0,L|176:364,1,40,2|0,0:0|0:0,0:0:0:0:
240,304,282349,2,0,L|296:308,1,40,2|0,0:0|0:0,0:0:0:0:
376,236,282520,6,0,P|388:192|376:148,1,80,6|2,0:0|0:1,0:0:0:0:
236,28,282863,2,0,P|224:72|236:116,1,80,10|2,0:0|0:1,0:0:0:0:
300,144,283206,2,0,L|460:140,1,160,2|10,0:0|0:0,0:0:0:0:
376,236,283720,2,0,P|369:196|381:158,1,80,2|2,0:1|0:0,0:0:0:0:
236,28,284063,2,0,P|242:67|230:105,1,80,2|10,0:1|0:0,0:0:0:0:
152,124,284406,1,2,0:1:0:0:
72,108,284577,2,0,L|232:104,1,160,2|10,0:0|0:0,0:0:0:0:
168,220,285092,1,2,0:1:0:0:
168,220,285177,1,2,0:1:0:0:
168,220,285263,6,0,P|128:236|80:228,1,80,2|2,0:0|0:1,0:0:0:0:
248,352,285606,2,2,P|288:336|336:344,1,80,10|2,0:0|0:1,0:0:0:0:
396,260,285949,2,0,L|228:264,1,160,2|10,0:0|0:0,0:0:0:0:
168,220,286463,2,0,P|128:217|91:232,1,80,2|2,0:1|0:0,0:0:0:0:
248,352,286806,2,0,P|287:354|324:339,1,80,2|10,0:1|0:0,0:0:0:0:
396,260,287149,1,2,0:1:0:0:
476,220,287320,5,2,0:0:0:0:
472,100,287492,1,2,0:1:0:0:
308,108,287663,6,0,L|324:160,1,40,8|0,0:0|0:0,0:0:0:0:
312,228,287835,2,0,L|296:280,1,40
396,260,288006,6,0,P|404:220|384:180,1,80,2|2,0:0|0:1,0:0:0:0:
224,156,288349,2,0,P|232:196|212:236,1,80,10|2,0:0|0:1,0:0:0:0:
104,256,288692,2,0,P|64:200|72:100,1,160,2|10,0:0|0:0,0:0:0:0:
224,156,289206,2,0,P|208:192|216:230,1,80,2|2,0:1|0:0,0:0:0:0:
396,260,289549,2,0,P|380:223|388:185,1,80,2|10,0:1|0:0,0:0:0:0:
488,88,289892,1,2,0:1:0:0:
488,88,289977,1,0,0:0:0:0:
488,88,290063,2,0,L|408:104,1,80,2|2,0:0|0:1,0:0:0:0:
308,92,290406,2,0,L|232:60,1,80,10|10,0:0|0:0,0:0:0:0:
128,52,290749,5,2,0:0:0:0:
44,108,290920,1,8,0:0:0:0:
48,132,291006,1,0,0:0:0:0:
52,156,291092,1,2,0:0:0:0:
140,172,291263,1,8,0:0:0:0:
136,196,291349,1,0,0:0:0:0:
132,220,291435,1,2,0:0:0:0:
52,240,291606,1,8,0:0:0:0:
56,264,291692,1,0,0:0:0:0:
60,288,291777,1,2,0:0:0:0:
140,304,291949,1,8,0:0:0:0:
136,328,292035,1,0,0:0:0:0:
132,352,292120,5,2,0:0:0:0:
240,308,292292,1,2,0:0:0:0:
352,344,292463,1,10,0:0:0:0:
460,300,292635,1,2,0:0:0:0:
392,232,292806,5,2,0:0:0:0:
384,200,292892,1,2,0:0:0:0:
392,168,292977,1,0,0:0:0:0:
416,148,293063,1,0,0:0:0:0:
468,136,293149,5,2,0:0:0:0:
488,116,293235,1,0,0:0:0:0:
500,92,293320,1,2,0:0:0:0:
504,64,293406,1,0,0:0:0:0:
476,44,293492,6,0,L|388:40,1,80,6|2,0:0|0:1,0:0:0:0:
296,104,293835,2,0,L|208:108,1,80,10|0,0:0|0:0,0:0:0:0:
100,164,294177,2,0,P|64:88|88:16,1,160,2|10,0:0|0:0,0:0:0:0:
216,107,294692,2,0,L|296:104,1,80,2|2,0:1|0:0,0:0:0:0:
396,40,295035,2,0,L|476:44,1,80,2|10,0:1|0:0,0:0:0:0:
356,188,295377,1,2,0:1:0:0:
276,240,295549,6,0,P|284:280|272:316,1,80,2|2,0:0|0:1,0:0:0:0:
356,188,295892,2,0,P|348:148|360:112,1,80,10|2,0:0|0:1,0:0:0:0:
424,240,296235,6,0,L|420:324,1,80,2|2,0:0|0:1,0:0:0:0:
268,360,296577,2,0,L|264:280,1,80,10|2,0:0|0:1,0:0:0:0:
216,164,296920,2,0,P|172:188|144:288,1,160,2|10,0:0|0:0,0:0:0:0:
264,280,297435,2,0,L|268:360,1,80,2|2,0:1|0:0,0:0:0:0:
420,319,297777,2,0,L|424:240,1,80,2|10,0:1|0:0,0:0:0:0:
428,160,298120,1,2,0:1:0:0:
432,80,298292,5,2,0:0:0:0:
312,40,298463,1,2,0:1:0:0:
220,116,298635,1,10,0:0:0:0:
336,152,298806,1,2,0:1:0:0:
220,116,298977,6,0,L|136:122,1,80,10|0,0:0|0:1,0:0:0:0:
44,128,299320,1,8,0:0:0:0:
144,276,299663,1,8,0:0:0:0:
220,116,300006,1,8,0:0:0:0:
256,192,300177,1,2,0:0:0:0:
292,268,300349,6,0,L|376:262,1,80,2|0,0:0|0:0,0:0:0:0:
468,256,300692,1,8,0:0:0:0:
367,106,301035,1,8,0:0:0:0:
292,268,301377,1,8,0:0:0:0:
256,192,301549,1,2,0:0:0:0:
220,116,301720,5,10,0:0:0:0:
128,96,301892,1,0,0:0:0:0:
96,88,301977,1,0,0:0:0:0:
64,80,302063,1,8,0:0:0:0:
16,172,302235,1,0,0:0:0:0:
40,164,302320,1,0,0:0:0:0:
64,156,302406,1,8,0:0:0:0:
96,240,302577,1,0,0:0:0:0:
80,236,302663,1,0,0:0:0:0:
64,232,302749,1,8,0:0:0:0:
40,316,302920,1,0,0:0:0:0:
52,312,303006,1,0,0:0:0:0:
64,308,303092,5,10,0:0:0:0:
180,384,303263,1,2,0:0:0:0:
332,384,303435,1,2,0:0:0:0:
448,308,303606,1,2,0:0:0:0:
484,172,303777,2,0,P|480:96|468:76,1,90.0000034332277,2|0,0:0|0:0,0:0:0:0:
460,72,304120,6,0,L|392:84,1,60.0000022888184,2|0,0:0|0:0,0:0:0:0:
232,180,304292,2,0,L|284:188,1,30.0000011444092,2|0,0:0|0:0,0:0:0:0:
360,296,304463,5,4,0:0:0:0:
256,192,304549,12,0,309949,0:0:0:0:
