osu file format v14

[General]
AudioFilename: himmel - Empyrean.mp3
AudioLeadIn: 0
PreviewTime: 93300
Countdown: 0
SampleSet: Soft
StackLeniency: 0.7
Mode: 0
LetterboxInBreaks: 0
WidescreenStoryboard: 1

[Editor]
DistanceSpacing: 1
BeatDivisor: 4
GridSize: 4
TimelineZoom: 2.899999

[Metadata]
Title:Empyrean
TitleUnicode:Empyrean
Artist:himmel
ArtistUnicode:himmel
Creator:aabc271
Version:Heaven
Source:Zyon 載音
Tags:Taiko LEMiao himmeltengoku YonderVoice HEAVENLY TRINITY Seraphim Code Paradiso
BeatmapID:1820787
BeatmapSetID:871438

[Difficulty]
HPDrainRate:2.5
CircleSize:4.5
OverallDifficulty:8
ApproachRate:8.3
SliderMultiplier:1.2
SliderTickRate:1

[Events]
//Background and Video events
0,0,"BG.png",0,0
//Break Periods
//Storyboard Layer 0 (Background)
//Storyboard Layer 1 (Fail)
//Storyboard Layer 2 (Pass)
//Storyboard Layer 3 (Foreground)
//Storyboard Sound Samples

[TimingPoints]
1499,342.857142857143,4,2,1,80,1,0
1499,-142.857142857143,4,2,1,80,0,0
3899,-125,4,2,1,80,0,0
5613,-142.857142857143,4,2,1,80,0,0
6641,-125,4,2,1,80,0,0
8356,-142.857142857143,4,2,1,80,0,0
9384,-125,4,2,1,80,0,0
13842,-100,4,2,1,80,0,0
14184,-100,4,3,1,80,0,0
15041,-100,4,3,1,60,0,0
15213,-100,4,3,1,80,0,0
15556,-100,4,3,1,70,0,0
15899,-100,4,3,1,80,0,0
17784,-100,4,3,1,60,0,0
17956,-100,4,3,1,80,0,0
18299,-100,4,3,1,70,0,0
18641,-100,4,3,1,80,0,0
22070,-100,4,3,1,60,0,0
22241,-100,4,3,1,80,0,0
22413,-100,4,3,1,40,0,0
22584,-100,4,3,1,80,0,0
22756,-100,4,3,1,60,0,0
22927,-100,4,3,1,80,0,0
23099,-100,4,3,1,40,0,0
23270,-100,4,3,1,80,0,0
23784,-100,4,3,1,60,0,0
23870,-100,4,3,1,80,0,0
24127,-100,4,3,1,60,0,0
24813,-100,4,2,1,80,0,0
26184,-90.9090909090909,4,2,1,80,0,0
32013,-90.9090909090909,4,3,1,40,0,0
32099,-90.9090909090909,4,2,1,80,0,0
32699,-90.9090909090909,4,3,1,40,0,0
32870,-90.9090909090909,4,2,1,80,0,0
33384,-90.9090909090909,4,3,1,40,0,0
33556,-90.9090909090909,4,2,1,80,0,0
34070,-90.9090909090909,4,3,1,40,0,0
34156,-90.9090909090909,4,2,1,80,0,0
34413,-90.9090909090909,4,3,1,60,0,0
35784,-83.3333333333333,4,3,1,80,0,0
37156,-90.9090909090909,4,2,1,80,0,0
42984,-90.9090909090909,4,3,1,40,0,0
43070,-90.9090909090909,4,2,1,80,0,0
43670,-90.9090909090909,4,3,1,40,0,0
43841,-90.9090909090909,4,2,1,80,0,0
44356,-90.9090909090909,4,3,1,40,0,0
44527,-90.9090909090909,4,2,1,80,0,0
45041,-90.9090909090909,4,3,1,40,0,0
45127,-90.9090909090909,4,2,1,80,0,0
45384,-90.9090909090909,4,3,1,60,0,0
46756,-90.9090909090909,4,2,1,80,0,0
48127,-100,4,2,1,80,0,0
67670,-95.2380952380952,4,2,1,80,0,0
68013,-90.9090909090909,4,2,1,80,0,0
68356,-86.9565217391304,4,2,1,80,0,0
68699,-100,4,3,1,60,0,0
69384,-100,4,3,1,40,0,0
70070,-100,4,2,1,80,0,0
80013,-100,4,2,1,75,0,0
80099,-100,4,2,1,80,0,0
80356,-100,4,2,1,70,0,0
80441,-100,4,2,1,80,0,0
80699,-100,4,2,1,70,0,0
80784,-100,4,2,1,80,0,0
83784,-100,4,3,1,60,0,0
84127,-100,4,2,1,80,0,0
86527,-95.2380952380952,4,2,1,60,0,0
86613,-95.2380952380952,4,3,1,80,0,0
91327,-95.2380952380952,4,2,1,80,0,0
92013,-95.2380952380952,4,3,1,80,0,0
92184,-95.2380952380952,4,3,1,40,0,0
92356,-95.2380952380952,4,3,1,80,0,0
92699,-95.2380952380952,4,3,1,40,0,0
93384,-90.9090909090909,4,2,1,90,0,1
93727,-90.9090909090909,4,3,1,60,0,1
93813,-90.9090909090909,4,2,1,90,0,1
94413,-90.9090909090909,4,3,1,60,0,1
94499,-90.9090909090909,4,2,1,90,0,1
95099,-90.9090909090909,4,3,1,60,0,1
95184,-90.9090909090909,4,2,1,90,0,1
95784,-90.9090909090909,4,3,1,60,0,1
95870,-90.9090909090909,4,2,1,90,0,1
96470,-90.9090909090909,4,3,1,60,0,1
96556,-90.9090909090909,4,2,1,90,0,1
97156,-90.9090909090909,4,3,1,60,0,1
97327,-90.9090909090909,4,2,1,90,0,1
97841,-90.9090909090909,4,3,1,60,0,1
97927,-90.9090909090909,4,2,1,90,0,1
99213,-90.9090909090909,4,3,1,60,0,1
99299,-90.9090909090909,4,2,1,90,0,1
99899,-90.9090909090909,4,3,1,60,0,1
99984,-90.9090909090909,4,2,1,90,0,1
100584,-90.9090909090909,4,3,1,60,0,1
100670,-90.9090909090909,4,2,1,90,0,1
101270,-90.9090909090909,4,3,1,60,0,1
101356,-90.9090909090909,4,2,1,90,0,1
101956,-90.9090909090909,4,3,1,60,0,1
102041,-90.9090909090909,4,2,1,90,0,1
102641,-90.9090909090909,4,3,1,60,0,1
102727,-90.9090909090909,4,2,1,90,0,1
103327,-90.9090909090909,4,3,1,60,0,1
103499,-90.9090909090909,4,2,1,90,0,1
104699,-90.9090909090909,4,3,1,60,0,1
104784,-90.9090909090909,4,2,1,90,0,1
105384,-90.9090909090909,4,3,1,60,0,1
105556,-90.9090909090909,4,2,1,90,0,1
106070,-90.9090909090909,4,3,1,60,0,1
106156,-90.9090909090909,4,2,1,90,0,1
107441,-90.9090909090909,4,3,1,60,0,1
107527,-90.9090909090909,4,2,1,90,0,1
108127,-90.9090909090909,4,3,1,60,0,1
108299,-90.9090909090909,4,2,1,90,0,1
108813,-90.9090909090909,4,3,1,60,0,1
108899,-90.9090909090909,4,2,1,90,0,1
109499,-90.9090909090909,4,3,1,60,0,1
109670,-90.9090909090909,4,2,1,90,0,1
110184,-90.9090909090909,4,3,1,60,0,1
110270,-90.9090909090909,4,2,1,90,0,1
110870,-90.9090909090909,4,3,1,60,0,1
110956,-90.9090909090909,4,2,1,90,0,1
111556,-90.9090909090909,4,3,1,60,0,1
111641,-90.9090909090909,4,2,1,90,0,1
112241,-90.9090909090909,4,3,1,60,0,1
112327,-90.9090909090909,4,2,1,90,0,1
112584,-90.9090909090909,4,3,1,80,0,1
114641,-90.9090909090909,4,2,1,90,0,1
115327,-100,4,2,1,80,0,0
118070,-111.111111111111,4,2,1,80,0,0
119441,-125,4,2,1,80,0,0

[Colours]
Combo1 : 234,175,0
Combo2 : 143,191,0
Combo3 : 191,0,143
Combo4 : 213,0,80

[HitObjects]
424,144,2870,6,0,P|400:72|328:104,1,167.999994873047,2|0,0:0|0:0,0:0:0:0:
256,224,3899,6,0,P|232:248|204:260,1,48
136,204,4242,1,2,0:0:0:0:
120,288,4413,1,0,0:0:0:0:
136,80,4756,5,2,0:0:0:0:
244,140,5099,1,0,0:0:0:0:
360,200,5442,1,0,0:0:0:0:
388,288,5613,6,0,P|322:328|285:259,1,167.999994873047,2|0,0:0|0:0,0:0:0:0:
312,88,6641,6,0,P|292:72|272:60,1,48
184,112,6984,1,0,0:0:0:0:
160,28,7156,1,2,0:0:0:0:
184,236,7499,5,0,0:0:0:0:
292,288,7841,1,0,0:0:0:0:
408,344,8184,1,2,0:0:0:0:
492,308,8356,6,0,P|474:233|404:254,1,167.999994873047,2|0,0:0|0:0,0:0:0:0:
264,344,9384,6,0,P|236:332|216:316,1,48,0|2,0:0|0:0,0:0:0:0:
120,316,9727,1,2,0:0:0:0:
140,232,9899,1,0,0:0:0:0:
52,72,10241,5,2,0:0:0:0:
172,128,10584,1,0,0:0:0:0:
304,184,10927,1,2,0:0:0:0:
336,92,11099,6,0,P|392:124|396:204,2,144,2|2|0,0:0|0:0|0:0,0:0:0:0:
273,275,12470,2,0,P|217:243|213:163,2,144,0|2|0,0:0|0:0|0:0,0:0:0:0:
392,44,13841,5,6,0:0:0:0:
180,80,14184,1,2,0:0:0:0:
392,44,14527,2,0,P|408:76|408:104,1,60
352,236,14870,5,0,0:0:0:0:
320,156,15041,1,2,0:0:0:0:
240,248,15213,5,0,0:0:0:0:
408,99,15556,1,2,0:0:0:0:
240,248,15899,2,0,P|208:248|180:240,1,60
48,312,16241,2,0,P|88:308|112:296,1,60
244,132,16584,5,0,0:0:0:0:
272,352,16927,1,2,0:0:0:0:
244,132,17270,2,0,P|208:128|176:116,1,60
56,64,17613,5,0,0:0:0:0:
152,24,17784,1,2,0:0:0:0:
200,224,17956,5,0,0:0:0:0:
296,20,18299,1,2,0:0:0:0:
200,224,18641,6,0,P|232:232|256:248,1,60
336,368,18984,2,0,P|304:356|280:336,1,60
252,132,19327,6,0,P|272:100|300:76,1,60,2|0,0:0|0:0,0:0:0:0:
124,188,19670,2,0,P|88:176|60:148,1,60
280,256,20013,6,0,P|312:272|336:292,1,60
152,312,20356,2,0,P|128:344|100:364,1,60,2|0,0:0|0:0,0:0:0:0:
148,100,20699,6,0,P|156:128|172:156,1,60
344,172,21041,2,0,P|316:188|288:196,1,60
68,272,21384,6,0,P|100:252|132:244,1,60
264,348,21727,2,0,P|236:312|228:284,1,60,2|0,0:0|0:0,0:0:0:0:
232,120,22070,5,0,0:0:0:0:
320,76,22241,1,0,0:0:0:0:
344,168,22413,5,8,0:0:0:0:
444,176,22584,1,0,0:0:0:0:
344,352,22756,5,0,0:0:0:0:
312,252,22927,1,0,0:0:0:0:
148,292,23099,5,8,0:0:0:0:
223,215,23270,1,0,0:0:0:0:
88,144,23441,6,0,P|80:124|80:108,1,30
136,52,23613,2,0,P|144:68|148:88,1,30
232,120,23784,2,0,P|224:96|224:80,1,30,8|0,0:0|0:0,0:0:0:0:
276,12,23956,2,0,P|284:32|284:52,1,30
344,116,24127,6,0,L|352:100,7,15
388,168,24470,2,0,L|384:184,7,15
256,192,24813,12,0,26013,0:0:0:0:
256,136,26184,6,0,P|224:120|184:120,1,66.0000020141602,4|0,0:0|0:0,0:0:0:0:
228,276,26527,2,0,P|260:256|276:232,1,66.0000020141602,2|0,0:0|0:0,0:0:0:0:
112,184,26870,2,0,P|112:212|128:248,1,66.0000020141602
156,56,27213,5,2,0:0:0:0:
32,120,27384,1,0,0:0:0:0:
256,136,27556,6,0,P|268:96|288:64,2,66.0000020141602
228,276,28070,1,0,0:0:0:0:
352,236,28241,6,0,P|384:224|416:224,1,66.0000020141602
228,276,28584,2,0,P|188:284|160:300,1,66.0000020141602,2|0,0:0|0:0,0:0:0:0:
116,80,28927,6,0,P|108:108|108:144,1,66.0000020141602
264,100,29270,2,0,P|248:72|220:52,1,66.0000020141602,2|0,0:0|0:0,0:0:0:0:
176,216,29613,2,0,P|216:212|244:200,1,66.0000020141602
60,220,29956,5,2,0:0:0:0:
180,288,30127,1,0,0:0:0:0:
264,100,30299,6,0,P|244:72|232:36,2,66.0000020141602
352,236,30813,1,0,0:0:0:0:
460,144,30984,6,0,P|420:140|384:144,1,66.0000020141602,2|0,0:0|0:0,0:0:0:0:
308,332,31327,2,0,P|340:344|372:344,1,66.0000020141602,2|0,0:0|0:0,0:0:0:0:
176,276,31670,6,0,P|144:288|116:308,1,66.0000020141602
188,168,32013,2,0,P|228:156|264:160,1,66.0000020141602,2|0,0:0|0:0,0:0:0:0:
136,64,32356,2,0,P|100:44|60:36,1,66.0000020141602
268,260,32699,5,2,0:0:0:0:
392,208,32870,1,0,0:0:0:0:
248,72,33041,6,0,P|284:56|324:48,2,66.0000020141602,0|0|2,0:0|0:0|0:0,0:0:0:0:
96,140,33556,1,0,0:0:0:0:
156,260,33727,6,0,P|132:280|112:308,1,66.0000020141602
268,260,34070,2,0,P|296:232|308:200,1,66.0000020141602,2|0,0:0|0:0,0:0:0:0:
96,140,34413,5,0,0:0:0:0:
156,260,34584,1,0,0:0:0:0:
207,19,34756,5,2,0:0:0:0:
70,83,34927,1,0,0:0:0:0:
294,195,35099,5,0,0:0:0:0:
234,75,35270,1,0,0:0:0:0:
186,314,35441,5,2,0:0:0:0:
323,250,35613,1,2,0:0:0:0:
335,98,35784,6,0,P|379:62|427:70,1,107.999996704102
447,122,36127,2,0,P|407:158|351:150,1,107.999996704102
299,154,36470,2,0,B|271:210|323:250,1,107.999996704102
351,271,36813,5,0,0:0:0:0:
385,282,36899,1,0,0:0:0:0:
421,286,36984,1,0,0:0:0:0:
457,283,37070,1,0,0:0:0:0:
483,238,37156,6,0,P|471:202|451:178,1,66.0000020141602,4|0,0:0|0:0,0:0:0:0:
243,256,37499,2,0,P|256:284|280:308,1,66.0000020141602,2|0,0:0|0:0,0:0:0:0:
344,176,37841,2,0,P|329:147|305:123,1,66.0000020141602
124,92,38184,5,2,0:0:0:0:
164,224,38356,1,0,0:0:0:0:
104,348,38527,6,0,P|72:356|32:356,2,60
164,224,39041,1,0,0:0:0:0:
264,132,39213,6,0,P|300:120|336:124,1,66.0000020141602
404,244,39556,2,0,P|360:252|332:248,1,66.0000020141602,2|0,0:0|0:0,0:0:0:0:
164,224,39899,6,0,P|200:216|232:220,1,66.0000020141602
496,128,40241,2,0,P|460:140|428:132,1,66.0000020141602,2|0,0:0|0:0,0:0:0:0:
192,48,40584,2,0,P|224:36|260:40,1,66.0000020141602
448,44,40927,5,2,0:0:0:0:
488,224,41099,1,0,0:0:0:0:
360,320,41270,6,0,P|320:332|288:352,2,66.0000020141602
488,224,41784,1,0,0:0:0:0:
340,136,41956,6,0,P|360:168|368:200,1,66.0000020141602,2|0,0:0|0:0,0:0:0:0:
208,272,42299,2,0,P|184:232|180:200,1,66.0000020141602,2|0,0:0|0:0,0:0:0:0:
224,0,42641,6,0,P|256:12|284:36,1,66.0000020141602
512,124,42984,2,0,P|484:148|444:152,1,66.0000020141602,2|0,0:0|0:0,0:0:0:0:
208,272,43327,2,0,P|236:244|272:232,1,66.0000020141602
424,312,43670,5,2,0:0:0:0:
340,136,43841,1,0,0:0:0:0:
160,192,44013,6,0,P|124:204|96:224,2,66.0000020141602,0|0|2,0:0|0:0|0:0,0:0:0:0:
340,136,44527,1,0,0:0:0:0:
416,252,44699,6,0,P|384:272|348:272,1,66.0000020141602
272,72,45041,2,0,P|304:48|340:44,1,66.0000020141602,2|0,0:0|0:0,0:0:0:0:
272,224,45384,5,0,0:0:0:0:
208,328,45556,1,0,0:0:0:0:
320,348,45727,5,2,0:0:0:0:
160,192,45899,1,0,0:0:0:0:
164,28,46070,5,0,0:0:0:0:
160,192,46241,1,0,0:0:0:0:
272,72,46413,5,2,0:0:0:0:
48,152,46584,1,2,0:0:0:0:
76,300,46756,6,0,P|52:328|36:356,2,66.0000020141602
48,152,47270,1,2,0:0:0:0:
208,328,47441,6,0,P|244:312|284:312,2,66.0000020141602
272,72,47956,1,2,0:0:0:0:
272,72,48041,1,2,0:0:0:0:
272,72,48127,6,0,P|308:64|352:64,1,60,4|0,0:0|0:0,0:0:0:0:
432,160,48470,2,0,P|392:168|352:160,1,60,0|2,0:0|0:0,0:0:0:0:
192,272,48813,2,0,P|208:328|268:312,2,120,0|2|0,0:0|0:0|0:0,0:0:0:0:
124,64,49841,6,0,P|112:88|104:120,1,60,2|0,0:0|0:0,0:0:0:0:
80,240,50184,1,0,0:0:0:0:
212,164,50356,2,0,P|244:152|276:152,2,60,0|0|2,0:0|0:0|0:0,0:0:0:0:
288,44,50870,6,0,P|324:56|344:68,1,60
276,256,51213,2,0,P|308:248|336:236,1,60,0|2,0:0|0:0,0:0:0:0:
424,96,51556,6,0,P|476:68|496:124,1,120
464,264,52070,1,0,0:0:0:0:
454,297,52156,1,2,0:0:0:0:
440,328,52241,2,0,P|408:324|376:308,1,60
204,304,52584,2,0,P|232:316|256:332,1,60
328,228,52927,6,0,P|332:184|312:144,1,90,2|0,0:0|0:0,0:0:0:0:
288,120,53270,5,2,0:0:0:0:
256,107,53356,1,0,0:0:0:0:
222,101,53441,1,0,0:0:0:0:
187,105,53527,1,0,0:0:0:0:
156,140,53613,6,0,P|148:168|148:200,1,60
52,336,53956,2,0,P|60:308|60:272,1,60,0|2,0:0|0:0,0:0:0:0:
88,40,54470,5,0,0:0:0:0:
32,152,54641,1,0,0:0:0:0:
156,140,54813,1,2,0:0:0:0:
256,280,54984,6,0,P|288:292|328:292,1,60,2|0,0:0|0:0,0:0:0:0:
428,168,55327,2,0,P|396:156|356:160,1,60,0|2,0:0|0:0,0:0:0:0:
140,340,55841,5,2,0:0:0:0:
144,200,56013,1,2,0:0:0:0:
256,280,56184,1,0,0:0:0:0:
432,272,56356,6,0,P|460:248|480:220,1,60,2|0,0:0|0:0,0:0:0:0:
352,84,56699,2,0,P|320:104|296:132,1,60,0|2,0:0|0:0,0:0:0:0:
256,280,57041,6,0,P|284:312|292:340,1,60
144,200,57384,2,0,P|120:176|108:148,1,60,0|2,0:0|0:0,0:0:0:0:
112,348,57727,6,0,P|60:360|52:300,2,120,0|2|0,0:3|0:0|0:3,0:3:0:0:
223,99,58756,5,0,0:0:0:0:
240,127,58841,1,2,0:0:0:0:
266,147,58927,1,0,0:0:0:0:
297,157,59013,1,2,0:0:0:0:
340,151,59099,6,0,P|352:127|355:94,1,60,4|0,0:0|0:0,0:0:0:0:
256,300,59441,2,0,P|260:272|272:240,1,60,2|0,0:0|0:0,0:0:0:0:
332,325,59784,5,0,0:0:0:0:
362,335,59870,1,2,0:0:0:0:
178,277,60041,1,0,0:0:0:0:
148,267,60126,1,2,0:0:0:0:
36,348,60299,1,0,0:0:0:0:
80,128,60470,6,0,P|65:156|56:184,1,60,2|0,0:0|0:0,0:0:0:0:
220,36,60813,2,0,P|212:64|200:92,1,60
134,40,61156,5,0,0:0:0:0:
105,28,61241,1,2,0:0:0:0:
289,95,61413,1,0,0:0:0:0:
319,106,61499,1,2,0:0:0:0:
341,238,61670,1,0,0:0:0:0:
372,233,61756,1,0,0:0:0:0:
403,228,61841,6,0,P|436:221|471:221,1,60,2|0,0:0|0:0,0:0:0:0:
220,296,62184,2,0,P|252:294|281:297,1,60,2|0,0:0|0:0,0:0:0:0:
144,200,62527,5,2,0:0:0:0:
80,316,62699,1,0,0:0:0:0:
42,181,62870,1,0,0:0:0:0:
109,64,63041,1,2,0:0:0:0:
144,200,63213,5,0,0:0:0:0:
290,257,63384,1,2,0:0:0:0:
274,95,63556,1,0,0:0:0:0:
199,267,63727,5,0,0:0:0:0:
332,172,63898,1,2,0:0:0:0:
176,112,64070,1,0,0:0:0:0:
202,355,64241,5,2,0:0:0:0:
230,337,64327,1,0,0:0:0:0:
262,329,64413,1,0,0:0:0:0:
295,328,64499,1,0,0:0:0:0:
332,332,64584,6,0,P|350:309|361:278,1,60
343,93,64927,2,0,P|328:124|324:156,1,60,0|2,0:0|0:0,0:0:0:0:
416,123,65270,5,0,0:0:0:0:
445,136,65356,1,0,0:0:0:0:
269,63,65527,1,0,0:0:0:0:
239,51,65613,1,2,0:0:0:0:
134,139,65784,1,2,0:0:0:0:
240,273,65956,6,0,P|214:252|196:228,1,60,2|0,0:0|0:0,0:0:0:0:
409,300,66299,2,0,P|381:277|349:260,1,60
133,295,66641,5,2,0:0:0:0:
273,184,66813,1,0,0:0:0:0:
320,356,66984,1,0,0:0:0:0:
443,210,67156,1,2,0:0:0:0:
377,76,67327,6,0,P|405:67|435:63,1,60
222,69,67670,6,0,P|242:38|264:19,1,62.9999980773926,2|0,0:0|0:0,0:0:0:0:
85,158,68013,6,0,P|78:123|83:91,1,66.0000020141602
139,319,68356,6,0,P|106:294|83:262,1,69.0000013160706,2|0,0:0|0:0,0:0:0:0:
189,192,68699,5,0,0:0:0:0:
218,182,68784,1,0,0:0:0:0:
249,183,68870,1,0,0:0:0:0:
279,193,68956,1,0,0:0:0:0:
306,208,69041,1,0,0:0:0:0:
333,223,69127,1,0,0:0:0:0:
363,233,69213,1,0,0:0:0:0:
394,234,69299,1,0,0:0:0:0:
434,218,69384,6,0,L|446:229,7,15
437,163,69727,2,0,L|424:152,8,15,0|0|0|0|0|0|0|0|4,0:0|0:0|0:0|0:0|0:0|0:0|0:0|0:0|0:0,0:0:0:0:
347,77,70241,5,0,0:0:0:0:
316,68,70327,1,0,0:0:0:0:
284,64,70413,2,0,P|252:63|223:67,1,60,2|0,0:0|0:0,0:0:0:0:
101,124,70756,5,0,0:0:0:0:
79,257,70927,1,0,0:0:0:0:
107,271,71013,1,0,0:0:0:0:
139,281,71099,2,0,P|168:287|197:285,1,60,2|0,0:0|0:0,0:0:0:0:
307,209,71441,5,0,0:0:0:0:
347,77,71613,1,0,0:0:0:0:
379,72,71699,1,0,0:0:0:0:
411,72,71784,2,0,P|441:69|471:74,1,60,2|0,0:0|0:0,0:0:0:0:
455,251,72127,5,0,0:0:0:0:
307,209,72299,1,0,0:0:0:0:
272,355,72470,1,0,0:0:0:0:
139,281,72641,1,2,0:0:0:0:
174,135,72813,5,2,0:0:0:0:
307,209,72984,1,0,0:0:0:0:
139,281,73156,1,0,0:0:0:0:
174,135,73327,2,0,P|210:85|270:101,1,120
386,120,73841,2,0,P|403:92|425:71,1,60,2|0,0:0|0:0,0:0:0:0:
307,209,74184,5,0,0:0:0:0:
139,281,74356,1,2,0:0:0:0:
275,354,74527,1,0,0:0:0:0:
307,209,74699,2,0,P|282:152|222:147,1,120
78,156,75213,2,0,P|51:136|27:125,1,60,0|2,0:0|0:0,0:0:0:0:
139,281,75556,6,0,P|166:254|192:239,1,60,2|0,0:0|0:0,0:0:0:0:
381,70,75899,2,0,P|371:97|348:120,1,60,0|2,0:0|0:0,0:0:0:0:
264,288,76241,2,0,P|292:328|364:288,2,120,0|2|0,0:0|0:0|0:0,0:0:0:0:
160,64,77270,6,0,P|168:92|168:124,1,60,2|0,0:0|0:0,0:0:0:0:
108,241,77613,1,0,0:0:0:0:
198,338,77784,1,0,0:0:0:0:
322,279,77956,1,0,0:0:0:0:
301,145,78127,1,2,0:0:0:0:
368,32,78299,6,0,P|432:32|456:80,2,120,0|2|2,0:0|0:0|0:0,0:0:0:0:
168,122,79327,1,0,0:0:0:0:
94,209,79499,6,0,P|50:166|50:109,1,120,2|0,0:0|0:0,0:0:0:0:
256,32,80013,2,0,P|276:60|284:88,1,60,2|0,0:0|0:0,0:0:0:0:
224,260,80356,6,0,P|216:224|220:196,1,60,2|0,0:0|0:0,0:0:0:0:
368,232,80699,2,0,P|376:264|368:296,1,60,2|0,0:0|0:0,0:0:0:0:
288,380,81041,5,4,0:0:0:0:
288,380,81384,1,2,0:0:0:0:
288,380,81727,1,0,0:0:0:0:
224,260,82070,5,0,0:0:0:0:
368,232,82241,1,2,0:0:0:0:
272,124,82413,5,0,0:0:0:0:
272,124,82756,1,2,0:0:0:0:
272,124,83099,2,0,P|304:116|328:100,1,60
196,40,83441,2,0,P|160:48|136:64,1,60,0|2,0:0|0:0,0:0:0:0:
128,184,83784,5,0,0:0:0:0:
128,184,84127,1,2,0:0:0:0:
128,184,84470,1,0,0:0:0:0:
228,276,84813,5,0,0:0:0:0:
304,152,84984,1,2,0:0:0:0:
388,284,85156,5,0,0:0:0:0:
388,284,85499,1,2,0:0:0:0:
388,284,85841,2,0,P|392:240|400:216,1,60,2|0,0:0|0:0,0:0:0:0:
484,104,86184,2,0,P|492:140|484:172,1,60,0|2,0:0|0:0,0:0:0:0:
304,152,86527,6,0,P|280:124|248:112,1,62.9999980773926,4|0,0:0|0:0,0:0:0:0:
128,217,86870,2,0,P|146:242|172:259,1,62.9999980773926,2|0,0:0|0:0,0:0:0:0:
424,268,87213,6,0,P|400:244|372:232,1,62.9999980773926,0|0,0:3|0:3,0:3:0:0:
247,333,87556,2,0,P|269:355|304:368,1,62.9999980773926,2|0,0:0|0:0,0:0:0:0:
254,118,87899,6,0,P|252:81|261:54,1,62.9999980773926
424,80,88241,2,0,P|424:112|413:146,1,62.9999980773926,2|0,0:0|0:0,0:0:0:0:
247,333,88584,6,0,P|243:295|250:267,1,62.9999980773926
411,299,88927,2,0,P|411:331|400:362,1,62.9999980773926,2|0,0:0|0:0,0:0:0:0:
128,352,89270,5,0,0:0:0:0:
110,325,89355,1,0,0:0:0:0:
96,297,89441,1,0,0:0:0:0:
85,268,89527,1,0,0:0:0:0:
79,237,89612,1,2,0:0:0:0:
77,205,89698,1,0,0:0:0:0:
79,174,89784,1,0,0:0:0:0:
85,143,89870,1,0,0:0:0:0:
120,84,89956,5,0,0:0:0:0:
145,67,90042,1,0,0:0:0:0:
174,55,90128,1,0,0:0:0:0:
204,45,90213,1,0,0:0:0:0:
236,41,90299,1,2,0:0:0:0:
268,39,90385,1,0,0:0:0:0:
299,43,90471,1,0,0:0:0:0:
327,48,90556,1,0,0:0:0:0:
380,96,90641,6,0,P|384:112|392:128,1,31.4999990386963
488,140,90813,2,0,P|480:116|468:104,1,31.4999990386963,2|0,0:0|0:0,0:0:0:0:
328,184,90984,6,0,P|332:200|340:216,1,31.4999990386963
448,244,91156,2,0,P|436:216|428:200,1,31.4999990386963,2|0,0:0|0:0,0:0:0:0:
236,212,91327,5,0,0:0:0:0:
156,328,91499,1,0,0:0:0:0:
48,244,91670,1,2,0:0:0:0:
128,128,91842,1,0,0:0:0:0:
264,88,92013,6,0,P|312:93|363:74,1,94.499997116089,2|0,0:0|0:0,0:0:0:0:
401,116,92356,2,0,P|419:159|421:207,1,94.499997116089
417,268,92699,2,0,L|437:274,14,15.7499995193482
305,284,93384,6,0,P|281:308|265:344,1,66.0000020141602,4|0,0:0|0:0,0:0:0:0:
121,260,93727,2,0,P|141:288|153:320,1,66.0000020141602,8|0,0:0|0:0,0:0:0:0:
272,192,94070,2,0,P|236:190|204:180,1,66.0000020141602,2|0,0:0|0:0,0:0:0:0:
304,284,94413,5,8,0:0:0:0:
121,260,94584,1,0,0:0:0:0:
244,116,94756,5,0,0:0:0:0:
88,88,94927,1,0,0:0:0:0:
88,88,95013,1,0,0:0:0:0:
88,88,95099,2,0,P|84:120|64:152,1,66.0000020141602,8|0,0:0|0:0,0:0:0:0:
96,348,95441,6,0,P|136:352|176:348,1,66.0000020141602
337,193,95784,2,0,P|301:189|265:193,1,66.0000020141602,8|0,0:0|0:0,0:0:0:0:
396,284,96127,6,0,P|415:248|421:224,1,66.0000020141602
236,96,96470,2,0,P|270:84|304:80,1,66.0000020141602,8|0,0:0|0:0,0:0:0:0:
248,296,96813,2,0,P|217:264|201:237,1,66.0000020141602
396,284,97156,5,8,0:0:0:0:
236,96,97327,1,0,0:0:0:0:
164,320,97499,5,0,0:0:0:0:
64,204,97670,1,0,0:0:0:0:
64,204,97756,1,0,0:0:0:0:
64,204,97841,2,0,P|92:176|128:164,1,66.0000020141602,8|0,0:0|0:0,0:0:0:0:
372,204,98184,5,6,0:0:0:0:
248,296,98356,1,0,0:0:0:0:
236,96,98527,5,6,0:0:0:0:
372,204,98699,1,0,0:0:0:0:
360,4,98870,5,0,0:0:0:0:
236,96,99041,1,0,0:0:0:0:
236,96,99127,1,0,0:0:0:0:
236,96,99213,2,0,P|200:88|168:64,1,66.0000020141602,8|0,0:0|0:0,0:0:0:0:
176,228,99556,2,0,P|200:248|232:260,1,66.0000020141602
427,238,99899,2,0,P|400:216|367:202,1,66.0000020141602,8|0,0:0|0:0,0:0:0:0:
168,304,100241,5,0,0:0:0:0:
64,144,100413,1,0,0:0:0:0:
64,144,100499,1,0,0:0:0:0:
64,144,100584,2,0,P|32:156|8:180,1,66.0000020141602,8|0,0:0|0:0,0:0:0:0:
176,228,100927,2,0,P|200:208|232:196,1,66.0000020141602,2|0,0:0|0:0,0:0:0:0:
368,72,101270,2,0,P|336:92|300:100,1,66.0000020141602,8|0,0:0|0:0,0:0:0:0:
280,280,101613,5,0,0:0:0:0:
192,112,101784,1,0,0:0:0:0:
192,112,101870,1,0,0:0:0:0:
192,112,101956,2,0,P|180:76|180:44,1,66.0000020141602,8|0,0:0|0:0,0:0:0:0:
96,232,102299,5,0,0:0:0:0:
288,24,102470,1,0,0:0:0:0:
288,24,102556,1,0,0:0:0:0:
288,24,102642,2,0,P|300:52|300:92,1,66.0000020141602,8|0,0:0|0:0,0:0:0:0:
280,280,102984,5,0,0:0:0:0:
416,300,103156,1,0,0:0:0:0:
280,280,103327,5,8,0:0:0:0:
392,156,103499,1,0,0:0:0:0:
280,280,103670,5,2,0:0:0:0:
192,112,103841,1,0,0:0:0:0:
280,280,104013,5,2,0:0:0:0:
96,232,104184,1,0,0:0:0:0:
280,280,104356,6,0,P|256:312|244:348,1,66.0000020141602,4|0,0:0|0:0,0:0:0:0:
416,300,104699,2,0,P|448:312|484:316,1,66.0000020141602,8|0,0:0|0:0,0:0:0:0:
392,156,105041,2,0,P|384:124|368:96,1,66.0000020141602,2|0,0:0|0:0,0:0:0:0:
192,112,105384,5,8,0:0:0:0:
96,232,105556,1,0,0:0:0:0:
48,96,105727,5,0,0:0:0:0:
232,236,105899,1,0,0:0:0:0:
232,236,105984,1,0,0:0:0:0:
232,236,106070,2,0,P|264:212|296:200,1,66.0000020141602,8|0,0:0|0:0,0:0:0:0:
480,192,106413,6,0,P|448:212|412:220,1,66.0000020141602,6|0,0:0|0:0,0:0:0:0:
148,360,106756,2,0,P|176:336|220:324,1,66.0000020141602,6|0,0:0|0:0,0:0:0:0:
360,340,107099,6,0,P|392:348|420:364,1,66.0000020141602
287,202,107441,2,0,P|296:164|308:140,1,66.0000020141602,8|0,0:0|0:0,0:0:0:0:
202,325,107784,2,0,P|166:317|138:297,1,66.0000020141602
76,152,108127,5,8,0:0:0:0:
236,72,108299,1,0,0:0:0:0:
108,16,108470,5,0,0:0:0:0:
212,208,108641,1,0,0:0:0:0:
212,208,108727,1,0,0:0:0:0:
212,208,108813,2,0,P|228:236|232:272,1,66.0000020141602,8|0,0:0|0:0,0:0:0:0:
88,344,109156,5,0,0:0:0:0:
320,152,109327,1,2,0:0:0:0:
64,244,109499,5,8,0:0:0:0:
344,252,109670,1,0,0:0:0:0:
296,52,109841,5,0,0:0:0:0:
440,88,110013,1,0,0:0:0:0:
440,88,110099,1,0,0:0:0:0:
440,88,110184,2,0,P|452:116|452:152,1,66.0000020141602,8|0,0:0|0:0,0:0:0:0:
208,204,110527,2,0,P|196:168|196:128,1,66.0000020141602
424,268,110870,2,0,P|432:304|428:332,1,66.0000020141602,8|0,0:0|0:0,0:0:0:0:
264,376,111213,5,0,0:0:0:0:
88,344,111384,1,0,0:0:0:0:
88,344,111470,1,0,0:0:0:0:
88,344,111556,2,0,P|48:336|24:312,1,66.0000020141602,8|0,0:0|0:0,0:0:0:0:
208,204,111899,2,0,P|240:212|268:236,1,66.0000020141602,2|0,0:0|0:0,0:0:0:0:
60,128,112241,2,0,P|24:120|0:100,1,66.0000020141602,8|0,0:0|0:0,0:0:0:0:
176,8,112584,5,0,0:0:0:0:
197,32,112669,1,0,0:0:0:0:
224,52,112755,1,0,0:0:0:0:
254,65,112841,1,0,0:0:0:0:
286,71,112927,2,0,P|300:60|308:44,1,33.0000010070801,8|0,0:0|0:0,0:0:0:0:
396,28,113099,2,0,P|384:44|376:72,1,33.0000010070801
352,120,113270,5,0,0:0:0:0:
337,149,113355,1,0,0:0:0:0:
330,181,113441,1,0,0:0:0:0:
330,214,113527,1,0,0:0:0:0:
336,247,113613,2,0,P|356:260|384:264,1,33.0000010070801,8|0,0:0|0:0,0:0:0:0:
412,344,113784,2,0,P|388:336|356:332,1,33.0000010070801
284,360,113956,6,0,P|288:340|296:328,1,33.0000010070801
188,320,114127,2,0,P|197:301|207:292,1,33.0000010070801,2|0,0:0|0:0,0:0:0:0:
112,240,114299,2,0,P|125:224|138:218,1,33.0000010070801
68,132,114470,2,0,P|84:120|99:117,1,33.0000010070801,2|0,0:0|0:0,0:0:0:0:
176,64,114641,5,2,0:0:0:0:
264,184,114813,1,0,0:0:0:0:
440,240,114984,5,0,0:0:0:0:
352,120,115156,1,2,0:0:0:0:
176,248,115327,5,4,0:0:0:0:
96,352,115499,2,0,L|164:352,1,60,2|0,0:0|0:0,0:0:0:0:
264,352,115841,1,2,0:0:0:0:
440,240,116184,6,0,L|372:240,1,60,2|0,0:0|0:0,0:0:0:0:
272,240,116526,1,2,0:0:0:0:
112,128,116870,6,0,L|180:128,1,60,2|0,0:0|0:0,0:0:0:0:
280,128,117213,1,2,0:0:0:0:
456,16,117556,6,0,L|388:16,1,60,2|0,0:0|0:0,0:0:0:0:
288,16,117899,1,2,0:0:0:0:
184,44,118070,6,0,P|148:84|84:68,1,107.999996704102,2|0,0:0|0:0,0:0:0:0:
24,80,118584,2,0,P|12:128|48:172,1,107.999996704102
116,196,119099,2,0,P|108:224|92:244,1,53.9999983520508,2|0,0:0|0:0,0:0:0:0:
72,316,119441,6,0,P|120:308|176:312,1,96
324,240,120127,6,0,P|320:264|324:292,1,48,0|2,0:0|0:0,0:0:0:0:
420,220,120470,2,0,P|421:196|418:172,1,48,0|2,0:0|0:0,0:0:0:0:
332,124,120813,6,0,P|336:100|348:76,2,48,2|0|0,0:0|0:0|0:0,0:0:0:0:
248,172,121327,2,0,P|204:152|156:164,1,96,2|0,0:0|0:0,0:0:0:0:
40,304,122013,5,2,0:0:0:0:
64,216,122184,2,0,P|104:244|124:288,1,96
298,365,122870,6,0,P|254:384|208:376,1,96,0|2,0:0|0:0,0:0:0:0:
236,244,123556,2,0,P|292:212|368:228,1,144,2|0,0:0|0:0,0:0:0:0:
472,160,124241,6,0,L|464:180|448:200,1,48,0|2,0:0|0:0,0:0:0:0:
376,152,124584,2,0,P|368:128|368:104,1,48,0|2,0:0|0:0,0:0:0:0:
316,20,124927,5,0,0:0:0:0:
212,72,125099,1,2,0:0:0:0:
128,24,125270,5,0,0:0:0:0:
100,136,125442,1,2,0:0:0:0:
4,192,125613,5,0,0:0:0:0:
86,271,125785,1,2,0:0:0:0:
182,215,125956,1,0,0:0:0:0:
264,294,126127,6,0,L|268:320,2,24,0|0|4,0:0|0:0|0:0,0:0:0:0:
