osu file format v12

[General]
AudioFilename: shake it.mp3
AudioLeadIn: 1500
PreviewTime: 149592
Countdown: 0
SampleSet: Soft
StackLeniency: 0.7
Mode: 0
LetterboxInBreaks: 0
WidescreenStoryboard: 0

[Editor]
DistanceSpacing: 1
BeatDivisor: 1
GridSize: 8
TimelineZoom: 2

[Metadata]
Title:shake it!
TitleUnicode:shake it!
Artist:himawari
ArtistUnicode:向日葵
Creator:kaCha
Version:Cute
Source:
Tags:
BeatmapID:232323
BeatmapSetID:84294

[Difficulty]
HPDrainRate:7
CircleSize:4
OverallDifficulty:7
ApproachRate:9
SliderMultiplier:1.7
SliderTickRate:2

[Events]
//Background and Video events
0,0,"BG.jpg",0,0
//Break Periods
2,24715,30376
2,111715,119453
//Storyboard Layer 0 (Background)
//Storyboard Layer 1 (Fail)
//Storyboard Layer 2 (Pass)
//Storyboard Layer 3 (Foreground)
//Storyboard Sound Samples
//Background Colour Transformations
3,100,163,162,255

[TimingPoints]
746,230.769230769231,4,2,1,40,1,0
746,-100,4,2,1,60,0,0
14822,-100,4,2,0,60,0,0
30976,-100,4,2,0,55,0,0
31669,-100,4,2,1,50,0,0
73899,-166.666666666667,4,2,1,50,0,0
74592,-166.666666666667,4,2,1,20,0,0
74822,-100,4,2,1,30,0,0
75053,-100,4,2,1,40,0,0
75284,-100,4,2,1,50,0,0
75515,-100,4,2,1,60,0,0
75746,-90.9090909090909,4,2,0,70,0,1
86707,-90.9090909090909,4,2,0,50,0,0
89130,-90.9090909090909,4,2,0,55,0,0
89592,-90.9090909090909,4,2,0,60,0,0
90053,-90.9090909090909,4,2,0,65,0,0
90515,-90.9090909090909,4,2,0,70,0,1
105169,-100,4,2,0,70,0,0
105284,-100,4,2,1,40,0,0
120053,-142.857142857143,4,3,0,50,0,0
146822,-111.111111111111,4,3,0,50,0,0
147746,-90.909090909091,4,3,0,50,0,0
149130,-90.909090909091,4,3,0,20,0,0
150053,-90.909090909091,4,1,0,60,0,0
157438,-166.666666666667,4,1,0,60,0,0
157496,-166.666666666667,4,1,0,5,0,0
158130,-166.666666666667,4,1,0,60,0,0
159342,-166.666666666667,4,1,0,5,0,0
159976,-166.666666666667,4,1,0,60,0,0
162515,-100,4,1,0,30,0,0
162976,-100,4,1,0,40,0,0
163438,-100,4,1,0,50,0,0
163899,-100,4,1,0,60,0,0
164361,-90.9090909090909,4,2,0,80,0,1
175207,-90.9090909090909,4,2,0,60,0,0
177746,-90.9090909090909,4,2,0,65,0,0
178207,-90.9090909090909,4,2,0,70,0,0
178669,-90.9090909090909,4,2,0,75,0,0
179130,-90.9090909090909,4,2,0,80,0,1
189284,-90.9090909090909,4,2,0,60,0,0
192515,-90.9090909090909,4,2,0,65,0,0
192976,-90.9090909090909,4,2,0,70,0,0
193438,-90.9090909090909,4,2,0,75,0,0
193899,-83.3333333333333,4,2,0,80,0,1
214207,-83.3333333333333,4,2,0,60,0,1
215938,-83.3333333333333,4,2,0,80,0,0
216284,-125,4,2,0,60,0,0
222053,-125,4,2,0,5,0,0

[HitObjects]
72,64,746,5,2,0:0:0:0:
160,144,976,1,2,0:0:0:0:
56,204,1207,1,2,0:0:0:0:
144,284,1437,1,2,0:0:0:0:
36,336,1669,1,2,0:0:0:0:
252,224,1899,5,6,0:0:0:0:
252,224,2015,2,0,P|274:151|359:148,1,170
454,308,2361,2,0,L|314:200,1,170,6|0,0:0|0:0,0:0:0:0:
216,96,2822,2,2,P|132:64|56:100,2,170,2|2|0,0:0|0:0|0:0,0:0:0:0:
252,224,3515,2,0,L|160:224,2,85,2|0|2,0:0|0:0|0:0,0:0:0:0:
336,328,3976,6,0,P|420:360|496:324,2,170,2|2|2,0:0|0:0|0:0,0:0:0:0:
100,284,4669,2,0,B|124:324|124:324|156:356,1,85,2|0,0:0|0:0,0:0:0:0:
100,152,4899,2,0,B|76:112|76:112|44:80,1,85,0|0,0:0|0:0,0:0:0:0:
152,216,5130,1,2,0:0:0:0:
256,84,5361,5,2,0:0:0:0:
256,84,5476,1,0,0:0:0:0:
256,84,5592,2,0,B|300:216|392:96|428:256,1,255,6|0,0:0|0:0,0:0:0:0:
432,84,6053,2,0,B|388:216|296:96|260:256,1,255,6|0,0:0|0:0,0:0:0:0:
140,328,6515,2,0,P|124:288|84:256,1,85,2|0,0:0|0:0,0:0:0:0:
8,196,6746,2,0,P|40:172|64:124,1,85,2|0,0:0|0:0,0:0:0:0:
180,144,6976,2,0,P|236:88|328:72,1,170,2|2,0:0|0:0,0:0:0:0:
432,84,7322,1,2,0:0:0:0:
432,84,7438,1,2,0:0:0:0:
262,249,7669,5,2,0:0:0:0:
444,188,7899,1,2,0:0:0:0:
260,308,8130,1,2,0:0:0:0:
442,369,8360,1,2,0:0:0:0:
442,369,8476,1,0,0:0:0:0:
312,280,8707,1,0,0:0:0:0:
312,280,8822,1,2,0:0:0:0:
312,280,8938,1,0,0:0:0:0:
312,280,9053,1,2,0:0:0:0:
44,208,9284,6,0,P|112:296|216:232,1,255,6|0,0:0|0:0,0:0:0:0:
48,128,9746,2,0,P|116:40|220:104,1,255,6|0,0:0|0:0,0:0:0:0:
219,103,10207,1,2,0:0:0:0:
215,232,10438,1,2,0:0:0:0:
324,168,10669,1,2,0:0:0:0:
440,72,10899,2,0,P|408:144|320:168,1,170,2|0,0:0|0:0,0:0:0:0:
244,256,11361,1,0,0:0:0:0:
220,104,11592,2,0,P|200:180|248:260,1,170,2|0,0:0|0:0,0:0:0:0:
407,341,12053,6,0,P|427:265|379:185,2,170
236,312,12746,1,0,0:0:0:0:
68,312,12976,6,0,P|52:228|64:140,1,170,4|0,0:0|0:0,0:0:0:0:
152,24,13322,6,0,L|152:120,1,85,4|0,0:0|0:0,0:0:0:0:
236,312,13669,6,0,P|252:228|240:140,1,170,4|0,0:0|0:0,0:0:0:0:
388,28,14130,6,0,P|404:112|392:200,1,170,4|0,0:0|0:0,0:0:0:0:
400,332,14822,5,4,3:0:0:0:
400,332,15284,1,4,3:0:0:0:
256,192,15746,1,4,3:0:0:0:
120,332,15976,1,0,3:0:0:0:
120,332,16092,1,0,3:0:0:0:
120,332,16207,6,0,B|120:284|120:284|68:268|120:252|120:252|120:188,1,170,4|0,0:0|0:0,0:0:0:0:
192,44,16669,6,0,L|200:128,1,85,12|0,0:0|0:0,0:0:0:0:
256,192,16899,2,0,L|304:260,1,85,0|0,0:0|0:0,0:0:0:0:
340,332,17130,2,0,P|424:356|484:292,1,170,8|0,0:0|0:0,0:0:0:0:
404,276,17476,1,0,0:0:0:0:
444,192,17592,2,0,L|444:96,1,85,12|0,0:0|0:0,0:0:0:0:
372,52,17822,2,0,L|372:137,1,85
340,216,18053,2,0,B|292:216|292:216|252:196|228:160|244:112,1,170,8|0,0:0|0:0,0:0:0:0:
192,44,18399,5,0,0:0:0:0:
108,60,18515,2,0,P|84:96|40:112,1,85,8|0,0:0|0:0,0:0:0:0:
16,236,18746,2,0,P|40:200|84:184,1,85
100,268,18976,2,0,P|84:340|168:340,1,170,8|0,0:0|0:0,0:0:0:0:
228,292,19322,1,0,0:0:0:0:
300,340,19438,6,0,L|392:352,1,85,10|0,1:0|0:0,0:0:0:0:
500,296,19669,1,10,1:0:0:0:
500,296,19784,2,0,L|332:236,1,170,10|0,1:0|0:0,0:0:0:0:
396,148,20130,2,0,L|223:170,1,170,10|8,1:0|0:0,0:0:0:0:
152,124,20476,1,0,0:0:0:0:
76,84,20592,2,0,P|0:104|0:20,2,170,0|8|0,0:0|0:0|0:0,0:0:0:0:
152,124,21169,5,0,0:0:0:0:
92,180,21284,2,0,L|16:248,1,85,8|0,0:0|0:0,0:0:0:0:
20,348,21515,2,0,L|83:291,1,85
152,240,21746,2,0,L|248:240,1,85,8|0,0:0|0:0,0:0:0:0:
168,328,21976,2,0,P|248:348|336:328,1,170,0|8,0:0|0:0,0:0:0:0:
416,312,22322,2,0,B|416:196|416:196|464:148,1,170
436,64,22669,5,8,0:0:0:0:
368,116,22785,1,8,0:0:0:0:
284,132,22899,1,8,0:0:0:0:
200,112,23015,1,8,0:0:0:0:
136,56,23130,2,0,P|88:64|48:84,1,85,8|0,0:0|0:0,0:0:0:0:
32,180,23361,2,0,P|64:164|112:156,1,85,0|0,0:0|0:0,0:0:0:0:
168,232,23592,2,0,P|120:240|80:260,1,85,8|0,0:0|0:0,0:0:0:0:
64,356,23823,2,0,P|96:340|144:332,1,85,0|0,0:0|0:0,0:0:0:0:
244,300,24053,6,0,L|280:300,11,21.25
424,300,24515,5,12,0:0:0:0:
260,88,30976,5,8,0:0:0:0:
260,88,31092,1,8,0:0:0:0:
260,88,31207,1,8,0:0:0:0:
260,88,31323,1,8,0:0:0:0:
260,88,31438,1,8,0:0:0:0:
128,64,31669,6,0,B|56:72|12:120|12:120|12:180,1,170,0|8,0:0|0:0,0:0:0:0:
8,320,32015,1,0,0:0:0:0:
8,320,32130,2,0,P|0:280|0:236,2,85,0|0|8,0:0|0:0|0:0,0:0:0:0:
96,292,32476,2,0,L|160:216,1,85,0|0,0:0|0:0,0:0:0:0:
200,156,32707,1,0,0:0:0:0:
260,88,32822,2,0,L|280:264,1,170,8|0,0:0|0:0,0:0:0:0:
352,328,33169,1,0,0:0:0:0:
352,328,33284,6,0,P|436:328|484:248,1,170,8|0,0:0|0:0,0:0:0:0:
400,252,33630,1,0,0:0:0:0:
352,56,33746,2,0,P|436:56|484:136,1,170,8|0,0:0|0:0,0:0:0:0:
400,132,34092,1,0,0:0:0:0:
340,192,34207,2,0,L|256:172,1,85,8|0,0:0|0:0,0:0:0:0:
276,80,34438,2,0,L|192:100,1,85
160,188,34669,2,0,L|76:168,1,85,8|0,0:0|0:0,0:0:0:0:
88,76,34899,1,0,0:0:0:0:
88,76,35015,1,0,0:0:0:0:
88,76,35130,1,8,0:0:0:0:
88,284,35361,6,0,P|108:324|152:352,1,85
240,348,35592,2,0,P|220:308|176:280,1,85,8|0,0:0|0:0,0:0:0:0:
160,188,35822,2,0,P|88:160|92:72,1,170,0|8,0:0|0:0,0:0:0:0:
168,104,36169,1,0,0:0:0:0:
224,40,36284,2,0,L|308:56,1,85
352,184,36515,2,0,P|376:108|456:60,1,170,8|0,0:0|0:0,0:0:0:0:
508,128,36861,1,0,0:0:0:0:
448,192,36976,6,0,L|424:288,2,85,8|0|0,0:0|0:0|0:0,0:0:0:0:
352,184,37322,1,0,0:0:0:0:
256,192,37438,2,0,L|280:288,2,85,8|0|0,0:0|0:0|0:0,0:0:0:0:
352,184,37784,1,0,0:0:0:0:
256,192,37899,2,0,P|168:180|80:192,1,170,8|0,0:0|0:0,0:0:0:0:
0,312,38246,2,0,P|88:324|176:312,1,170,8|0,0:0|0:0,0:0:0:0:
168,314,38592,2,0,P|176:268|168:220,1,85
87,190,38823,2,0,P|79:143|87:95,1,85,8|0,0:0|0:0,0:0:0:0:
168,108,39053,6,0,P|84:104|4:48,2,170,0|8|0,0:0|0:0|0:0,0:0:0:0:
260,92,39630,1,0,0:0:0:0:
332,32,39746,2,0,P|416:36|496:92,2,170,8|0|8,0:0|0:0|0:0,0:0:0:0:
260,92,40322,1,0,0:0:0:0:
292,172,40438,1,0,0:0:0:0:
368,212,40553,1,0,0:0:0:0:
368,212,40669,6,0,P|404:296|492:316,1,170,8|0,0:0|0:0,0:0:0:0:
452,236,41015,1,0,0:0:0:0:
452,236,41130,2,0,L|312:356,1,170,8|0,0:0|0:0,0:0:0:0:
256,292,41476,1,0,0:0:0:0:
256,292,41592,2,0,L|74:325,1,170,8|0,0:0|0:0,0:0:0:0:
28,264,41938,2,0,L|8:176,1,85,0|8,0:0|0:0,0:0:0:0:
44,40,42169,2,0,L|62:122,1,85
104,196,42399,1,0,0:0:0:0:
104,196,42515,2,0,B|144:236|144:236|204:224|204:224|264:212,1,170,8|0,0:0|0:0,0:0:0:0:
300,140,42861,6,0,L|212:116,2,85,0|8|0,0:0|0:0|0:0,0:0:0:0:
360,80,43207,1,0,0:0:0:0:
444,72,43322,1,0,0:0:0:0:
508,128,43438,2,0,L|428:168,1,85,8|0,0:0|0:0,0:0:0:0:
492,216,43669,2,0,L|412:256,1,85
356,304,43899,2,0,L|432:368,2,85,8|0|0,0:0|0:0|0:0,0:0:0:0:
272,288,44246,5,0,0:0:0:0:
272,288,44361,2,0,B|272:352|272:352|172:324|72:352,1,255,8|0,0:0|0:0,0:0:0:0:
16,296,44822,2,0,P|60:280|88:240,1,85,8|0,0:0|0:0,0:0:0:0:
168,244,45053,2,0,P|152:200|112:172,1,85
40,184,45284,2,0,P|84:112|164:104,1,170,8|0,0:0|0:0,0:0:0:0:
232,52,45630,2,0,L|232:0,2,42.5,0|0|8,0:0|0:0|0:0,0:0:0:0:
264,132,45861,1,8,0:0:0:0:
264,132,45976,2,0,B|236:200|236:200|296:200|336:240,1,170,8|8,0:0|0:0,0:0:0:0:
392,164,46322,6,0,P|364:128|360:72,2,85
456,48,46669,2,0,P|462:85|490:121,1,85,8|0,0:0|0:0,0:0:0:0:
472,212,46899,2,0,L|476:304,1,85
396,348,47130,2,0,B|396:284|396:284|296:264|188:284,1,255,8|0,0:0|0:0,0:0:0:0:
312,352,47592,1,8,0:0:0:0:
312,352,47707,2,0,P|268:348|224:352,1,85
132,352,47938,5,0,0:0:0:0:
52,308,48053,2,0,P|4:240|52:168,1,170,8|0,0:0|0:0,0:0:0:0:
116,232,48399,1,0,0:0:0:0:
180,164,48515,2,0,P|228:96|180:24,1,170,8|0,0:0|0:0,0:0:0:0:
120,92,48861,1,0,0:0:0:0:
120,92,48976,2,0,L|384:92,1,255,8|0,0:0|0:0,0:0:0:0:
452,148,49438,1,8,0:0:0:0:
400,228,49553,1,0,0:0:0:0:
428,320,49669,2,0,L|525:364,2,85,0|0|8,0:0|0:0|0:0,0:0:0:0:
428,320,50130,6,0,P|408:240|332:184,1,170,0|8,0:0|0:0,0:0:0:0:
252,160,50476,2,0,L|252:252,1,85
328,300,50707,1,0,0:0:0:0:
328,300,50822,2,0,P|252:332|164:288,1,170,8|0,0:0|0:0,0:0:0:0:
96,248,51169,1,0,0:0:0:0:
96,248,51284,2,0,B|56:248|20:280|28:324|68:348|68:348|112:348,2,170,8|0|8,0:0|0:0|0:0,0:0:0:0:
144,168,51861,1,0,0:0:0:0:
52,168,51976,2,0,B|24:120|48:40|104:24,1,170,0|8,0:0|0:0,0:0:0:0:
164,84,52322,1,0,0:0:0:0:
240,48,52438,1,0,0:0:0:0:
324,68,52553,1,0,0:0:0:0:
372,140,52669,6,0,L|432:60,1,85,8|0,0:0|0:0,0:0:0:0:
476,164,52899,2,0,L|425:232,1,85,0|0,0:0|0:0,0:0:0:0:
340,220,53130,2,0,L|240:256,1,85,8|0,0:0|0:0,0:0:0:0:
416,324,53361,2,0,L|495:295,1,85
328,320,53592,1,8,0:0:0:0:
328,320,53822,6,0,P|332:232|416:192,2,170,0|8|0,0:0|0:0|0:0,0:0:0:0:
248,356,54399,1,0,0:0:0:0:
164,348,54515,2,0,B|96:348|96:348|40:368|4:344|4:300,1,170,12|0,0:0|0:0,0:0:0:0:
72,268,54861,2,0,B|12:240|12:240|-16:208|-12:164|16:136,1,170,4|0,0:0|0:0,0:0:0:0:
86,178,55207,2,0,L|162:106,1,85,8|0,0:0|0:0,0:0:0:0:
104,48,55438,2,0,L|4:24,2,85,8|0|0,0:0|0:0|0:0,0:0:0:0:
148,120,55784,1,0,0:0:0:0:
196,52,55899,2,0,L|296:28,2,85,8|0|0,0:0|0:0|0:0,0:0:0:0:
148,120,56246,5,0,0:0:0:0:
176,200,56361,1,8,0:0:0:0:
252,240,56476,2,0,L|324:196,1,85
296,96,56707,2,0,L|378:115,1,85,0|8,0:0|0:0,0:0:0:0:
428,24,56938,1,0,0:0:0:0:
428,24,57053,2,0,L|472:96,1,85
452,260,57284,2,0,B|464:208|488:168,2,85,8|0|0,0:0|0:0|0:0,0:0:0:0:
392,332,57630,6,0,L|300:332,1,85,0|8,0:0|0:0,0:0:0:0:
216,296,57861,1,0,0:0:0:0:
216,296,57976,2,0,L|112:296,1,85
44,336,58207,2,0,L|4:356,2,42.5,8|0|0,0:0|0:0|0:0,0:0:0:0:
44,252,58438,2,0,L|-8:252,2,42.5
48,168,58669,2,0,L|0:80,2,85,8|0|0,0:0|0:0|0:0,0:0:0:0:
120,212,59015,5,0,0:0:0:0:
120,212,59130,2,0,P|132:128|176:56,1,170,8|0,0:0|0:0,0:0:0:0:
256,80,59476,2,0,P|304:76|344:40,2,85,0|8|0,0:0|0:0|0:0,0:0:0:0:
236,164,59822,2,0,L|328:164,1,85
256,244,60053,2,0,P|304:248|344:284,2,85,8|0|0,0:0|0:0|0:0,0:0:0:0:
236,328,60399,1,0,0:0:0:0:
236,328,60515,2,0,B|344:328|344:328|368:372|416:376|464:372|488:328|488:328|488:260,1,340,12|8,0:0|0:0,0:0:0:0:
412,288,61207,6,0,P|433:211|519:195,2,170,0|8|0,0:0|0:0|0:0,0:0:0:0:
352,228,61784,1,0,0:0:0:0:
292,168,61899,2,0,P|244:160|212:124,1,85,8|0,0:0|0:0,0:0:0:0:
328,68,62130,2,0,P|376:76|408:112,1,85
292,168,62361,2,0,P|248:244|160:260,1,170,8|0,0:0|0:0,0:0:0:0:
112,324,62707,5,0,0:0:0:0:
112,324,62822,2,0,L|208:368,2,85,12|0|0,0:0|0:0|0:0,0:0:0:0:
80,216,63284,6,0,L|-16:172,2,85,12|0|0,0:0|0:0|0:0,0:0:0:0:
160,136,63746,6,0,L|256:92,2,85,12|0|0,0:0|0:0|0:0,0:0:0:0:
32,96,64092,6,0,L|128:52,1,85,4|8,0:0|0:0,0:0:0:0:
188,32,64322,1,0,0:0:0:0:
188,32,64438,2,0,L|376:32,1,170,0|8,0:0|0:0,0:0:0:0:
384,256,64899,6,0,P|424:328|508:316,2,170,0|8|0,0:0|0:0|0:0,0:0:0:0:
324,196,65476,1,0,0:0:0:0:
268,260,65592,2,0,P|252:300|200:320,2,85,8|0|0,0:0|0:0|0:0,0:0:0:0:
212,196,65938,1,0,0:0:0:0:
140,240,66053,2,0,L|80:312,1,85,8|0,0:0|0:0,0:0:0:0:
44,232,66284,2,0,L|98:166,1,85
148,96,66515,6,0,P|116:52|64:40,1,85,12|0,0:0|0:0,0:0:0:0:
44,112,66746,1,0,0:0:0:0:
364,96,66976,6,0,P|396:52|448:40,1,85,12|0,0:0|0:0,0:0:0:0:
468,112,67207,1,0,0:0:0:0:
256,352,67438,6,0,L|256:260,1,85,12|0,0:0|0:0,0:0:0:0:
372,240,67669,2,0,L|308:164,1,85,4|0,0:0|0:0,0:0:0:0:
140,240,67899,2,0,L|204:164,2,85,8|0|4,0:0|0:0|0:0,0:0:0:0:
80,300,68246,1,0,0:0:0:0:
80,300,68361,1,8,0:0:0:0:
12,152,68592,5,0,0:0:0:0:
256,44,68822,1,8,0:0:0:0:
500,152,69053,1,0,0:0:0:0:
256,80,69284,6,0,L|344:120,1,85,8|0,0:0|0:0,0:0:0:0:
256,304,69515,2,0,L|168:264,1,85
176,104,69746,2,0,L|176:204,1,85,8|0,0:0|0:0,0:0:0:0:
336,280,69976,2,0,L|336:180,1,85
500,152,70207,6,0,P|416:124|364:44,1,170,12|0,0:0|0:0,0:0:0:0:
168,380,70669,6,0,P|234:321|329:316,1,170,12|0,0:0|0:0,0:0:0:0:
99,0,71130,6,0,P|117:87|73:172,1,170,12|0,0:0|0:0,0:0:0:0:
64,184,71476,5,0,0:0:0:0:
56,216,71592,1,12,0:0:0:0:
60,248,71707,1,0,0:0:0:0:
84,272,71822,1,0,0:0:0:0:
120,268,71938,1,0,0:0:0:0:
148,252,72053,1,8,0:0:0:0:
288,72,72284,5,0,0:0:0:0:
288,72,72515,2,0,L|384:60,2,85,8|0|0,0:0|0:0|0:0,0:0:0:0:
300,156,72861,1,0,0:0:0:0:
360,216,72976,2,0,P|440:184|440:92,2,170,8|0|8,0:0|0:0|0:0,0:0:0:0:
320,292,73553,1,0,0:0:0:0:
320,292,73669,1,0,0:0:0:0:
320,292,73784,1,0,0:0:0:0:
320,292,73899,6,0,P|220:388|124:288,1,305.999990661621,4|2,0:0|0:0,0:0:0:0:
32,144,74822,1,2,0:0:0:0:
224,304,75053,1,2,0:0:0:0:
480,144,75284,1,2,0:0:0:0:
288,304,75515,1,2,0:0:0:0:
56,180,75746,6,0,P|112:112|212:76,1,187.000005706787,12|0,0:0|0:0,0:0:0:0:
456,180,76207,2,0,P|400:112|300:76,1,187.000005706787,12|0,0:0|0:0,0:0:0:0:
304,160,76553,1,0,0:0:0:0:
304,160,76669,6,0,P|348:176|388:216,1,93.5000028533936,8|0,0:0|0:0,0:0:0:0:
456,344,76899,2,0,P|412:328|372:288,1,93.5000028533936,0|0,0:0|0:0,0:0:0:0:
292,260,77130,2,0,B|216:260|216:260|104:308,1,187.000005706787,8|0,0:0|0:0,0:0:0:0:
148,376,77476,1,0,0:0:0:0:
228,348,77592,2,0,L|124:176,1,187.000005706787,8|0,0:0|0:0,0:0:0:0:
84,108,77938,1,0,0:0:0:0:
32,188,78053,2,0,L|92:284,1,93.5000028533936,8|0,0:0|0:0,0:0:0:0:
180,268,78284,2,0,L|128:182,1,93.5000028533936
84,108,78515,6,0,P|111:68|164:48,1,93.5000028533936,10|0,1:0|0:0,0:0:0:0:
249,27,78746,1,2,1:0:0:0:
249,27,78861,2,0,L|354:195,1,187.000005706787,2|0,1:0|0:0,0:0:0:0:
436,298,79207,2,0,L|455:194,1,93.5000028533936,2|0,1:0|0:0,0:0:0:0:
508,104,79438,6,0,P|440:164|324:184,1,187.000005706787,8|0,0:0|0:0,0:0:0:0:
272,240,79784,1,0,0:0:0:0:
360,272,79899,2,0,L|448:224,1,93.5000028533936,8|0,0:0|0:0,0:0:0:0:
508,308,80130,2,0,L|425:352,1,93.5000028533936
320,356,80361,2,0,B|220:356|220:356|124:320,2,187.000005706787,8|0|8,0:0|0:0|0:0,0:0:0:0:
180,240,80938,1,0,0:0:0:0:
180,240,81053,6,0,P|104:256|48:364,2,187.000005706787,0|8|0,0:0|0:0|0:0,0:0:0:0:
184,148,81630,1,0,0:0:0:0:
92,148,81746,2,0,L|16:220,1,93.5000028533936,8|0,0:0|0:0,0:0:0:0:
8,104,81976,2,0,L|76:40,1,93.5000028533936
168,40,82207,1,10,1:0:0:0:
252,84,82322,1,0,0:0:0:0:
300,164,82438,2,0,P|360:88|472:72,1,187.000005706787,2|8,1:0|0:0,1:0:0:0:
404,156,82784,2,0,L|488:224,2,93.5000028533936
356,236,83130,6,0,B|440:308|440:308|344:324|268:372,1,280.500008560181,12|0,0:0|0:0,0:0:0:0:
168,364,83592,2,0,B|104:323|8:307|8:307|92:235,1,280.500008560181,12|0,0:0|0:0,0:0:0:0:
92,235,84053,1,8,0:0:0:0:
92,235,84284,1,0,0:0:0:0:
96,48,84515,5,8,0:0:0:0:
96,48,84746,2,0,P|228:152|372:40,1,374.000011413575,4|0,0:0|0:0,0:0:0:0:
232,60,85322,1,0,0:0:0:0:
232,60,85438,2,0,L|232:276,1,187.000005706787,12|0,0:0|0:0,0:0:0:0:
232,248,85784,1,0,0:0:0:0:
132,244,85899,2,0,B|64:272|20:344|20:344|64:372,1,187.000005706787,8|0,0:0|0:0,0:0:0:0:
148,368,86246,1,0,0:0:0:0:
148,368,86361,2,0,B|216:340|260:268|260:268|216:240,1,187.000005706787,8|0,0:0|0:0,0:0:0:0:
324,308,86707,5,0,0:0:0:0:
324,308,86822,2,0,P|416:296|480:220,1,187.000005706787,12|0,0:0|0:0,0:0:0:0:
448,140,87169,1,0,0:0:0:0:
360,164,87284,2,0,L|248:164,1,93.5000028533936,8|0,0:0|0:0,0:0:0:0:
156,96,87515,2,0,L|272:96,1,93.5000028533936,4|0,0:0|0:0,0:0:0:0:
156,96,87746,2,0,L|60:264,1,187.000005706787,12|0,0:0|0:0,0:0:0:0:
20,344,88092,1,0,0:0:0:0:
20,344,88207,5,8,0:0:0:0:
20,344,88322,1,0,0:0:0:0:
20,344,88438,1,0,0:0:0:0:
20,344,88553,1,0,0:0:0:0:
20,344,88669,6,0,P|48:264|152:260,1,187.000005706787,12|0,0:0|0:0,0:0:0:0:
200,324,89015,1,0,0:0:0:0:
268,260,89130,6,0,P|296:340|400:344,1,187.000005706787,4|0,0:0|0:0,0:0:0:0:
356,264,89476,1,0,0:0:0:0:
448,272,89592,6,0,P|420:192|316:188,1,187.000005706787,4|0,0:0|0:0,0:0:0:0:
284,100,89938,1,0,0:0:0:0:
228,24,90053,6,0,P|200:104|96:108,1,187.000005706787,4|8,0:0|0:0,0:0:0:0:
48,188,90399,1,8,0:0:0:0:
48,188,90515,6,0,B|60:288|60:288|128:360,1,187.000005706787,8|0,0:0|0:0,0:0:0:0:
164,268,90861,1,0,0:0:0:0:
164,268,90976,2,0,P|192:312|248:336,1,93.5000028533936,8|0,0:0|0:0,0:0:0:0:
268,248,91207,2,0,P|314:272|374:264,1,93.5000028533936,0|0,0:0|0:0,3:0:0:0:
365,180,91438,6,0,P|461:172|509:88,2,187.000005706787,8|0|8,0:0|0:0|0:0,0:0:0:0:
408,96,92015,1,0,0:0:0:0:
408,96,92130,2,0,L|308:56,1,93.5000028533936
256,128,92361,2,0,L|149:143,1,93.5000028533936,8|0,0:0|0:0,0:0:0:0:
44,31,92592,2,0,P|76:116|163:141,1,187.000005706787,0|8,0:0|0:0,0:0:0:0:
136,56,92938,1,0,0:0:0:0:
136,56,93053,2,0,L|71:134,1,93.5000028533936
42,215,93284,6,0,P|61:260|116:281,1,93.5000028533936,10|0,1:0|0:0,0:0:0:0:
191,303,93515,1,2,1:0:0:0:
191,303,93630,2,0,L|262:111,1,187.000005706787,2|0,1:0|0:0,0:0:0:0:
313,41,93976,2,0,L|368:132,1,93.5000028533936,2|0,1:0|0:0,0:0:0:0:
310,210,94207,2,0,L|103:202,1,187.000005706787,8|0,0:0|0:0,0:0:0:0:
188,122,94553,1,0,0:0:0:0:
188,122,94669,6,0,L|307:292,1,187.000005706787,8|0,0:0|0:0,0:0:0:0:
352,344,95015,1,0,0:0:0:0:
444,324,95130,2,0,L|512:232,1,93.5000028533936,8|0,0:0|0:0,0:0:0:0:
404,244,95361,2,0,L|472:152,1,93.5000028533936
372,140,95592,2,0,L|440:48,2,93.5000028533936,8|0|0,0:0|0:0|0:0,0:0:0:0:
372,140,95938,1,0,0:0:0:0:
372,140,96053,6,0,L|304:48,1,93.5000028533936,8|0,0:0|0:0,0:0:0:0:
276,148,96284,2,0,L|344:240,1,93.5000028533936
163,141,96515,2,0,L|107:65,1,93.5000028533936,8|0,0:0|0:0,0:0:0:0:
67,157,96746,2,0,L|122:232,1,93.5000028533936
176,352,96976,6,0,L|79:352,1,93.5000028533936,8|0,0:0|0:0,0:0:0:0:
335,352,97207,2,0,L|432:352,1,93.5000028533936
204,308,97438,2,0,L|160:208,1,93.5000028533936,8|0,0:0|0:0,0:0:0:0:
308,308,97669,2,0,L|352:208,1,93.5000028533936
256,240,97899,6,0,L|256:52,1,187.000005706787,12|0,0:0|0:0,0:0:0:0:
164,80,98246,1,0,0:0:0:0:
224,152,98361,2,0,L|412:76,1,187.000005706787,12|0,0:0|0:0,0:0:0:0:
472,136,98707,1,0,0:0:0:0:
392,180,98822,2,0,L|218:250,1,187.000005706787,12|0,0:0|0:0,0:0:0:0:
136,300,99169,1,0,0:0:0:0:
60,356,99284,6,0,P|28:272|12:156,1,187.000005706787,8|0,0:0|0:0,0:0:0:0:
100,208,99630,1,0,0:0:0:0:
100,208,99746,2,0,P|132:124|148:8,2,187.000005706787,8|0|8,0:0|0:0|0:0,0:0:0:0:
36,92,100438,1,0,0:0:0:0:
225,171,100669,6,0,P|193:255|177:371,2,187.000005706787,8|0|8,0:0|0:0|0:0,0:0:0:0:
277,92,101246,1,0,0:0:0:0:
277,92,101361,2,0,L|383:61,1,93.5000028533936
456,40,101592,2,0,L|508:236,1,187.000005706787,12|0,0:0|0:0,0:0:0:0:
456,348,101938,6,0,L|424:248,1,93.5000028533936,0|12,0:0|0:0,0:0:0:0:
368,181,102169,2,0,L|376:81,2,93.5000028533936
312,256,102515,2,0,B|324:304|324:304|264:376|180:312,1,187.000005706787,12|0,0:0|0:0,0:0:0:0:
112,352,102861,1,0,0:0:0:0:
24,316,102976,2,0,B|12:268|12:268|72:196|156:260,1,187.000005706787,12|0,0:0|0:0,0:0:0:0:
488,92,103438,6,0,P|360:76|280:216,1,280.500008560181,12|0,0:0|0:0,0:0:0:0:
24,316,103899,6,0,P|152:332|232:192,1,280.500008560181,12|0,0:0|0:0,0:0:0:0:
24,92,104361,6,0,P|152:76|232:216,1,280.500008560181,12|0,0:0|0:0,0:0:0:0:
488,316,104822,6,0,P|360:332|280:192,1,280.500008560181,12|0,0:0|0:0,0:0:0:0:
256,192,105284,12,2,107822,0:0:0:0:
256,192,108976,12,2,111515,0:0:0:0:
76,172,120053,6,0,P|132:112|224:148,1,178.499994552612,4|0,3:0|0:0,0:0:0:0:
180,300,120515,2,0,P|152:248|156:180,1,118.999996368408,4|0,0:0|0:0,0:0:0:0:
184,168,120861,1,0,0:0:0:0:
215,136,120976,2,0,L|280:96,1,59.4999981842042,4|0,0:0|0:0,0:0:0:0:
292,132,121207,2,0,L|356:91,1,59.4999981842042
372,80,121438,1,4,0:0:0:0:
476,248,121669,6,0,P|420:292|480:356,1,178.499994552612
476,300,122130,2,0,L|344:300,1,118.999996368408,0|4,0:0|0:0,0:0:0:0:
36,300,122592,2,0,L|168:300,1,118.999996368408,0|2,0:0|0:0,0:0:0:0:
192,300,122938,1,0,0:0:0:0:
192,300,123053,1,0,0:0:0:0:
228,300,123169,1,0,0:0:0:0:
228,300,123284,1,12,0:0:0:0:
260,112,123515,5,12,0:0:0:0:
132,176,123746,6,0,P|56:148|68:56,1,178.499994552612,4|0,0:0|0:0,0:0:0:0:
128,100,124207,2,0,L|232:32,1,118.999996368408,4|0,0:0|0:0,0:0:0:0:
424,68,124669,2,0,L|360:88,1,59.4999981842042,4|0,0:0|0:0,0:0:0:0:
288,192,124899,2,0,L|352:172,1,59.4999981842042
500,176,125130,1,4,0:0:0:0:
288,192,125361,1,0,0:0:0:0:
500,176,125592,6,0,P|528:256|460:312,1,178.499994552612,4|0,0:0|0:0,0:0:0:0:
448,236,126053,2,0,L|332:264,1,118.999996368408,4|0,0:0|0:0,0:0:0:0:
208,336,126515,2,0,L|176:360,2,29.7499990921021,4|0|0,0:0|0:0|0:0,0:0:0:0:
192,304,126746,1,0,0:0:0:0:
164,284,126861,1,0,0:0:0:0:
128,276,126976,2,0,B|104:276|104:276|124:248|124:248|76:248|40:176|72:96,1,237.999992736817,12|4,0:0|0:0,0:0:0:0:
416,72,127669,5,0,0:0:0:0:
416,72,127784,1,0,0:0:0:0:
416,72,127899,2,0,P|368:112|300:108,1,118.999996368408,4|0,0:0|0:0,0:0:0:0:
276,108,128246,1,0,0:0:0:0:
244,124,128361,2,0,P|212:140|184:172,1,59.4999981842042,4|0,0:0|0:0,0:0:0:0:
204,260,128592,2,0,P|236:244|264:212,1,59.4999981842042
336,180,128822,2,0,L|460:216,1,118.999996368408,4|2,0:0|0:0,0:0:0:0:
319,294,129284,6,0,L|204:260,1,118.999996368408,4|0,0:0|0:0,0:0:0:0:
172,248,129630,1,0,0:0:0:0:
136,236,129746,2,0,P|76:252|36:296,1,118.999996368408,4|0,0:0|0:0,0:0:0:0:
60,320,130092,1,0,0:0:0:0:
84,292,130207,1,0,0:0:0:0:
80,256,130322,1,0,0:0:0:0:
64,224,130438,1,0,0:0:0:0:
48,192,130553,1,0,0:0:0:0:
64,160,130669,2,0,P|100:116|176:84,1,118.999996368408,12|12,0:0|0:0,0:0:0:0:
340,24,131130,6,0,P|417:56|413:140,1,178.499994552612,4|0,0:0|0:0,0:0:0:0:
412,140,131592,1,4,0:0:0:0:
264,328,131822,1,0,0:0:0:0:
264,328,132053,2,0,L|264:244,1,59.4999981842042,4|0,0:0|0:0,0:0:0:0:
304,244,132284,2,0,P|316:164|224:132,1,178.499994552612
16,60,132976,6,0,B|22:103|16:168|16:168|52:184|52:232,1,178.499994552612,4|0,0:0|0:0,0:0:0:0:
52,260,133438,1,4,0:0:0:0:
264,328,133669,1,0,0:0:0:0:
188,192,133899,2,0,P|160:144|172:80,2,118.999996368408,4|0|12,0:0|0:0|0:0,0:0:0:0:
220,212,134476,1,0,0:0:0:0:
240,244,134592,2,0,B|264:340|264:340|288:312,1,118.999996368408,12|4,0:0|0:0,0:0:0:0:
472,148,135053,6,0,B|448:52|448:52|424:80,1,118.999996368408,0|4,0:0|0:0,0:0:0:0:
404,88,135399,1,0,0:0:0:0:
404,88,135515,1,0,0:0:0:0:
404,88,135630,1,0,0:0:0:0:
404,88,135746,2,0,P|328:56|304:136,1,178.499994552612,12|0,0:0|0:0,0:0:0:0:
328,148,136207,2,0,L|400:256,2,118.999996368408,4|0|4,0:0|0:0|0:0,0:0:0:0:
292,156,136784,6,0,L|256:216,1,59.4999981842042,0|0,0:0|0:0,0:0:0:0:
160,212,137015,2,0,L|196:152,1,59.4999981842042,0|4,0:0|0:0,0:0:0:0:
212,124,137246,1,0,0:0:0:0:
200,84,137361,2,0,B|136:64|84:100,1,118.999996368408,0|6,0:0|0:0,0:0:0:0:
12,188,137822,5,0,0:0:0:0:
64,296,138053,1,4,0:0:0:0:
176,340,138284,1,0,0:0:0:0:
288,296,138515,6,0,P|332:260|392:252,1,118.999996368408,12|0,0:0|0:0,0:0:0:0:
492,132,138861,6,0,P|448:168|388:176,1,118.999996368408
356,160,139207,5,0,0:0:0:0:
324,144,139322,1,0,0:0:0:0:
288,140,139438,2,0,P|228:132|188:80,3,118.999996368408,4|0|4|0,0:0|0:0|0:0|0:0,0:0:0:0:
16,132,140361,5,4,0:0:0:0:
48,120,140476,1,0,0:0:0:0:
68,92,140592,1,0,0:0:0:0:
64,56,140707,1,0,0:0:0:0:
84,28,140822,2,0,L|140:144,1,118.999996368408,12|0,0:0|0:0,0:0:0:0:
88,212,141169,6,0,L|116:270,1,59.4999981842042,0|4,0:0|0:0,0:0:0:0:
272,352,141515,6,0,P|272:292|212:248,1,118.999996368408,0|4,0:0|0:0,0:0:0:0:
88,212,141976,2,0,P|88:272|148:316,1,118.999996368408
160,324,142322,5,0,0:0:0:0:
160,324,142438,1,0,0:0:0:0:
184,296,142553,5,0,0:0:0:0:
184,296,142669,1,4,0:0:0:0:
208,272,142784,5,0,0:0:0:0:
208,272,142899,2,0,L|208:196,1,59.4999981842042
228,156,143130,6,0,P|276:120|348:108,1,118.999996368408
368,120,143476,1,0,0:0:0:0:
404,92,143592,2,0,L|424:52,2,29.7499990921021
436,180,143822,2,0,L|472:180,2,29.7499990921021
340,216,144053,2,0,P|304:288|376:340,1,178.499994552612,8|0,0:0|0:0,0:0:0:0:
440,256,144515,2,0,L|192:308,1,237.999992736817,8|0,0:0|0:0,0:0:0:0:
188,308,145207,5,0,0:0:0:0:
172,312,145438,1,8,0:0:0:0:
160,316,145669,1,8,0:0:0:0:
32,180,145899,6,0,L|100:192,1,59.4999981842042,12|0,0:0|0:0,0:0:0:0:
132,104,146130,2,0,L|200:116,1,59.4999981842042,12|0,0:0|0:0,0:0:0:0:
240,32,146361,2,0,L|308:44,1,59.4999981842042,12|0,0:0|0:0,0:0:0:0:
448,104,146592,2,0,L|476:80,2,29.7499990921021
276,168,146822,6,0,P|292:208|332:240,1,76.4999976654053,12|0,0:0|0:0,0:0:0:0:
400,192,147053,2,0,P|383:231|388:282,1,76.4999976654053,12|0,0:0|0:0,0:0:0:0:
496,272,147284,2,0,P|456:288|424:328,1,76.4999976654053,12|0,0:0|0:0,0:0:0:0:
284,348,147515,2,0,L|322:348,2,38.2499988327027
132,304,147746,6,0,L|116:272,4,23.3750007133484
52,216,147976,6,0,L|68:184,4,23.3750007133484
172,124,148207,6,0,L|156:92,4,23.3750007133484
36,68,148438,6,0,L|52:36,4,23.3750007133484
88,140,148669,6,0,L|72:140,8,11.6875003566742
212,48,148899,6,0,L|228:48,8,11.6875003566742
172,124,149130,6,0,P|264:148|364:116,1,187.000005706787
412,312,150053,5,8,0:0:0:0:
36,152,150746,5,8,0:0:0:0:
224,28,150976,1,8,0:0:0:0:
412,72,151899,5,8,0:0:0:0:
36,232,152592,5,8,0:0:0:0:
224,356,152822,1,8,0:0:0:0:
100,72,153746,5,8,0:0:0:0:
476,232,154439,5,8,0:0:0:0:
288,356,154669,1,8,0:0:0:0:
412,72,155592,5,8,0:0:0:0:
36,232,156285,5,8,0:0:0:0:
224,356,156515,1,8,0:0:0:0:
256,84,157438,6,8,B|320:112|320:112|260:128|260:128|348:184|428:128,1,305.999990661621
120,56,158361,1,8,0:0:0:0:
256,300,159284,6,8,B|192:272|192:272|252:256|252:256|164:200|84:256,1,305.999990661621
392,328,160207,1,8,0:0:0:0:
44,192,161130,5,8,0:0:0:0:
468,192,162053,1,8,0:0:0:0:
176,104,162515,6,4,L|224:196,1,85
336,280,162746,2,4,L|288:188,1,85
125,197,162976,6,4,L|231:221,1,85
386,186,163207,2,4,L|280:162,1,85
168,304,163438,6,4,L|260:236,1,85
344,80,163669,2,4,L|252:147,1,85
295,356,163899,6,4,L|299:229,1,85
216,27,164130,2,4,L|212:154,1,85
124,196,164361,6,0,P|64:248|88:344,1,187.000005706787,12|0,0:0|0:0,0:0:0:0:
168,304,164707,1,0,0:0:0:0:
216,228,164822,2,0,P|276:176|252:80,1,187.000005706787,8|0,0:0|0:0,0:0:0:0:
172,120,165168,1,0,0:0:0:0:
172,120,165284,2,0,P|108:56|16:96,2,187.000005706787,8|0|8,0:0|0:0|0:0,0:0:0:0:
212,204,165861,5,0,0:0:0:0:
296,244,165976,1,0,0:0:0:0:
388,220,166092,1,0,0:0:0:0:
436,140,166207,6,0,L|376:56,1,93.5000028533936,8|0,0:0|0:0,0:0:0:0:
340,148,166438,2,0,L|246:105,1,93.5000028533936
244,204,166669,2,0,L|141:213,1,93.5000028533936,8|0,0:0|0:0,0:0:0:0:
200,292,166899,2,0,L|116:352,1,93.5000028533936
30,354,167130,6,0,L|71:254,1,93.5000028533936,10|0,1:0|0:0,0:0:0:0:
103,181,167361,1,2,1:0:0:0:
103,181,167476,2,0,P|111:87|21:52,1,187.000005706787,2|0,1:0|0:0,0:0:0:0:
125,84,167822,2,0,L|232:73,1,93.5000028533936,2|0,1:0|0:0,0:0:0:0:
311,65,168053,2,0,P|394:28|483:76,1,187.000005706787,8|0,0:0|0:0,0:0:0:0:
462,251,168399,1,0,0:0:0:0:
462,251,168515,2,0,P|390:192|397:100,1,187.000005706787,8|0,0:0|0:0,0:0:0:0:
473,154,168861,1,0,0:0:0:0:
385,185,168976,6,0,L|316:257,1,93.5000028533936,8|0,0:0|0:0,0:0:0:0:
168,355,169207,2,0,L|183:256,1,93.5000028533936
125,83,169438,2,0,L|202:145,1,93.5000028533936,8|0,0:0|0:0,0:0:0:0:
211,321,169669,2,0,L|226:222,1,93.5000028533936
367,55,169899,6,0,L|288:104,1,93.5000028533936,8|0,0:0|0:0,0:0:0:0:
367,328,170130,2,0,L|288:280,1,93.5000028533936
449,115,170361,6,0,L|360:144,1,93.5000028533936,8|0,0:0|0:0,0:0:0:0:
449,259,170592,2,0,L|360:232,1,93.5000028533936
124,191,170822,6,0,P|190:135|256:192,1,187.000005706787,8|0,0:0|0:0,0:0:0:0:
36,52,171284,5,8,0:0:0:0:
36,128,171399,1,0,0:0:0:0:
36,204,171515,1,0,0:0:0:0:
36,280,171630,1,0,0:0:0:0:
36,356,171746,6,0,P|100:292|208:280,1,187.000005706787,8|0,0:0|0:0,0:0:0:0:
476,356,172207,2,0,P|412:292|304:280,1,187.000005706787,8|0,0:0|0:0,0:0:0:0:
352,356,172553,1,0,0:0:0:0:
400,288,172669,2,0,P|444:271|480:216,1,93.5000028533936,8|0,0:0|0:0,0:0:0:0:
435,83,172899,2,0,P|392:104|365:145,1,93.5000028533936
330,229,173130,2,0,B|294:241|294:241|302:265|302:265|226:265|188:306,1,187.000005706787,8|0,0:0|0:0,0:0:0:0:
100,336,173476,1,0,0:0:0:0:
100,336,173592,6,0,L|204:300,1,93.5000028533936,8|0,0:0|0:0,0:0:0:0:
24,264,173823,6,0,P|0:216|12:160,1,93.5000028533936
124,52,174054,6,0,L|35:82,1,93.5000028533936,8|0,0:0|0:0,0:0:0:0:
184,134,174285,6,0,P|208:182|196:238,1,93.5000028533936
204,220,174515,2,0,B|228:188|228:188|244:32,1,187.000005706787,8|0,0:0|0:0,0:0:0:0:
242,41,174861,5,0,0:0:0:0:
242,41,174976,2,0,L|280:136,1,93.5000028533936,8|0,0:0|0:0,0:0:0:0:
388,312,175207,2,0,P|352:228|368:134,2,187.000005706787,0|8|0,0:0|0:0|0:0,0:0:0:0:
471,354,175784,1,0,0:0:0:0:
471,354,175899,2,0,L|382:308,1,93.5000028533936,8|0,0:0|0:0,0:0:0:0:
284,172,176130,6,0,P|368:136|461:152,2,187.000005706787,0|8|0,0:0|0:0|0:0,0:0:0:0:
248,260,176707,1,0,0:0:0:0:
172,316,176822,1,8,0:0:0:0:
80,304,176938,1,0,0:0:0:0:
36,220,177053,1,0,0:0:0:0:
64,132,177169,1,0,0:0:0:0:
152,100,177284,6,0,B|224:116|224:116|268:72|336:68,1,187.000005706787,8|0,0:0|0:0,0:0:0:0:
416,92,177630,1,0,0:0:0:0:
148,212,177746,6,0,B|220:196|220:196|264:240|332:244,1,187.000005706787,8|0,0:0|0:0,0:0:0:0:
412,220,178092,1,0,0:0:0:0:
312,144,178207,6,0,L|208:144,1,93.5000028533936,8|0,0:0|0:0,0:0:0:0:
148,212,178438,2,0,L|56:264,1,93.5000028533936
288,244,178669,6,0,L|184:244,1,93.5000028533936,8|0,0:0|0:0,0:0:0:0:
124,312,178900,2,0,L|32:364,1,93.5000028533936
228,328,179130,6,0,B|332:352|332:352|344:304|388:292,1,187.000005706787,8|0,0:0|0:0,0:0:0:0:
474,307,179476,1,0,0:0:0:0:
408,364,179592,2,0,P|456:292|396:220,1,187.000005706787,8|0,0:0|0:0,0:0:0:0:
402,221,179938,1,0,0:0:0:0:
402,221,180053,6,0,L|452:136,1,93.5000028533936,8|0,0:0|0:0,0:0:0:0:
462,47,180284,2,0,L|363:46,1,93.5000028533936
283,81,180515,2,0,L|331:166,1,93.5000028533936,8|0,0:0|0:0,0:0:0:0:
288,244,180746,6,0,P|256:148|168:96,1,187.000005706787,0|8,0:0|0:0,0:0:0:0:
100,72,181092,1,0,0:0:0:0:
36,140,181207,2,0,L|16:236,1,93.5000028533936
132,360,181438,2,0,L|112:268,1,93.5000028533936,8|0,0:0|0:0,0:0:0:0:
100,72,181669,2,0,P|136:160|208:224,1,187.000005706787,0|10,0:0|1:0,0:0:0:0:
348,348,182015,6,0,P|300:328|268:280,1,93.5000028533936,0|2,0:0|1:0,0:0:0:0:
300,208,182246,1,2,1:0:0:0:
203,221,182361,2,0,P|200:168|224:108,1,93.5000028533936,8|0,0:0|0:0,0:0:0:0:
336,16,182592,2,0,P|311:64|261:104,1,93.5000028533936,2|0,1:0|0:0,0:0:0:0:
300,208,182822,6,0,P|351:119|416:52,1,187.000005706787,8|0,0:0|0:0,0:0:0:0:
384,204,183169,1,0,0:0:0:0:
384,204,183284,2,0,P|410:160|456:116,1,93.5000028533936,8|0,0:0|0:0,0:0:0:0:
504,260,183515,2,0,P|472:304|432:348,1,93.5000028533936
424,252,183746,6,0,L|332:224,1,93.5000028533936,8|0,0:0|0:0,0:0:0:0:
268,360,183976,2,0,L|357:332,1,93.5000028533936
264,280,184207,6,0,B|200:276|160:212|160:212|96:212,1,187.000005706787,8|0,0:0|0:0,0:0:0:0:
40,284,184553,1,0,0:0:0:0:
120,344,184669,2,0,B|120:286|120:286|184:246|188:182,1,187.000005706787,8|0,0:0|0:0,0:0:0:0:
219,104,185015,5,0,0:0:0:0:
164,42,185130,1,8,0:0:0:0:
92,87,185246,1,0,0:0:0:0:
104,171,185361,1,0,0:0:0:0:
188,183,185476,1,0,0:0:0:0:
308,116,185592,6,0,L|396:64,1,93.5000028533936,8|0,0:0|0:0,0:0:0:0:
490,195,185822,2,0,L|409:242,1,93.5000028533936,2|0,1:0|0:0,0:0:0:0:
318,204,186053,2,0,L|399:157,1,93.5000028533936,8|0,0:0|0:0,0:0:0:0:
499,278,186284,2,0,L|418:325,1,93.5000028533936,2|0,1:0|0:0,0:0:0:0:
275,355,186515,6,0,P|156:315|244:218,1,280.500008560181,8|0,0:0|0:0,0:0:0:0:
174,156,186976,2,0,P|293:196|205:293,1,280.500008560181,8|0,0:0|0:0,0:0:0:0:
88,344,187438,6,0,L|49:150,1,187.000005706787,8|0,0:0|0:0,0:0:0:0:
27,69,187784,1,0,0:0:0:0:
27,69,187899,2,0,L|128:37,1,93.5000028533936,8|0,0:0|0:0,0:0:0:0:
209,32,188130,2,0,L|316:54,1,93.5000028533936
448,174,188361,6,0,L|347:142,1,93.5000028533936,8|0,0:0|0:0,0:0:0:0:
266,137,188592,2,0,L|159:159,1,93.5000028533936
48,299,188822,6,0,L|149:267,1,93.5000028533936,8|0,0:0|0:0,0:0:0:0:
230,262,189053,2,0,L|337:284,1,93.5000028533936
413,300,189284,6,0,B|463:255|448:174|448:174|474:188|496:173,1,187.000005706787,8|0,0:0|0:0,0:0:0:0:
498,79,189630,1,0,0:0:0:0:
422,22,189746,2,0,P|372:40|340:75,1,93.5000028533936,8|0,0:0|0:0,0:0:0:0:
266,137,189976,6,0,L|184:84,1,93.5000028533936
82,12,190207,2,0,B|68:154|68:154|59:163|59:163|76:163|76:163|59:183,1,187.000005706787,8|0,0:0|0:0,0:0:0:0:
49,298,190553,1,0,0:0:0:0:
49,298,190669,2,0,P|96:286|139:262,1,93.5000028533936,8|0,0:0|0:0,0:0:0:0:
203,185,190899,2,0,L|256:275,1,93.5000028533936
318,330,191130,2,0,B|460:344|460:344|469:353|469:353|469:336|469:336|489:353,1,187.000005706787,8|0,0:0|0:0,0:0:0:0:
505,255,191476,1,0,0:0:0:0:
505,255,191592,2,0,B|363:241|363:241|354:232|354:232|354:249|354:249|334:232,1,187.000005706787,8|0,0:0|0:0,0:0:0:0:
20,40,192053,6,0,P|48:120|152:124,1,187.000005706787,12|0,0:0|0:0,0:0:0:0:
200,60,192399,1,0,0:0:0:0:
268,124,192514,6,0,P|296:44|400:40,1,187.000005706787,4|0,0:0|0:0,0:0:0:0:
356,120,192860,1,0,0:0:0:0:
448,112,192976,6,0,P|420:192|316:196,1,187.000005706787,4|0,0:0|0:0,0:0:0:0:
284,284,193322,1,0,0:0:0:0:
228,360,193437,6,0,P|200:280|96:276,1,187.000005706787,4|8,0:0|0:0,0:0:0:0:
24,148,193784,1,8,0:0:0:0:
24,148,193899,6,0,P|124:136|152:44,1,203.999993774414,8|0,0:0|0:0,0:0:0:0:
488,236,194361,2,0,P|388:248|360:340,1,203.999993774414,12|0,0:0|0:0,0:0:0:0:
436,308,194707,5,0,0:0:0:0:
488,236,194822,2,0,L|504:120,1,101.999996887207,8|0,0:0|0:0,0:0:0:0:
364,24,195053,2,0,L|377:125,1,101.999996887207
326,315,195284,2,0,L|312:213,1,101.999996887207,8|0,0:0|0:0,0:0:0:0:
202,103,195515,2,0,L|188:204,1,101.999996887207
84,342,195746,6,0,L|40:124,2,203.999993774414,8|0|8,0:0|0:0|0:0,0:0:0:0:
209,281,196322,1,0,0:0:0:0:
209,281,196438,2,0,L|189:173,1,101.999996887207
175,7,196669,6,0,P|226:28|295:29,1,101.999996887207,10|0,1:0|0:0,0:0:0:0:
464,66,196899,1,2,1:0:0:0:
464,66,197015,2,0,P|379:118|259:114,1,203.999993774414,2|0,1:0|0:0,0:0:0:0:
94,205,197361,2,0,P|145:184|214:183,1,101.999996887207,2|0,1:0|0:0,0:0:0:0:
474,281,197592,2,0,P|389:229|269:233,1,203.999993774414,8|0,0:0|0:0,0:0:0:0:
161,348,197938,1,0,0:0:0:0:
161,348,198053,2,0,L|126:125,1,203.999993774414,8|0,0:0|0:0,0:0:0:0:
117,44,198399,1,0,0:0:0:0:
117,44,198515,6,0,L|214:14,1,101.999996887207,8|0,0:0|0:0,0:0:0:0:
335,210,198746,2,0,L|234:197,1,101.999996887207,0|0,0:0|0:0,0:0:0:0:
218,99,198976,2,0,L|320:113,1,101.999996887207,0|0,0:0|0:0,0:0:0:0:
437,266,199207,2,0,L|340:296,1,101.999996887207
161,348,199438,6,0,P|112:328|86:267,1,101.999996887207,8|0,0:0|0:0,0:0:0:0:
100,97,199669,6,0,P|120:48|181:22,1,101.999996887207
351,36,199899,6,0,P|400:56|426:117,1,101.999996887207,8|0,0:0|0:0,0:0:0:0:
412,287,200130,6,0,P|392:336|331:362,1,101.999996887207
224,305,200361,6,0,P|244:256|305:230,1,101.999996887207,8|0,0:0|0:0,0:0:0:0:
484,196,200592,2,0,L|364:165,1,101.999996887207,2|0,1:0|0:0,0:0:0:0:
284,128,200822,2,0,L|214:32,2,101.999996887207,0|0|2,0:0|0:0|1:0,0:0:0:0:
284,232,201169,1,0,0:0:0:0:
196,280,201284,6,0,P|100:240|56:148,1,203.999993774414,8|0,0:0|0:0,0:0:0:0:
76,56,201630,1,0,0:0:0:0:
132,140,201746,2,0,P|152:184|204:204,1,101.999996887207,8|0,0:0|0:0,0:0:0:0:
284,128,201976,2,0,P|264:84|212:64,1,101.999996887207
284,128,202207,6,0,L|340:120,2,50.9999984436036,8|0|0,0:0|0:0|0:0,0:0:0:0:
388,36,202438,6,0,L|443:47,2,50.9999984436036
480,160,202669,6,0,B|416:172|416:172|356:312,1,203.999993774414,8|0,0:0|0:0,0:0:0:0:
440,364,203015,1,0,0:0:0:0:
472,268,203130,2,0,B|343:216|343:216|272:232,1,203.999993774414,8|0,0:0|0:0,0:0:0:0:
156,368,203476,2,0,L|200:268,1,101.999996887207,0|8,0:0|0:0,0:0:0:0:
208,180,203707,1,0,0:0:0:0:
148,100,203822,1,0,0:0:0:0:
52,140,203938,1,0,0:0:0:0:
52,240,204053,2,0,B|124:260|124:260|132:184|216:180,1,203.999993774414,8|0,0:0|0:0,0:0:0:0:
256,12,204399,6,0,L|256:120,1,101.999996887207,0|8,0:0|0:0,0:0:0:0:
296,252,204630,1,0,0:0:0:0:
296,252,204746,2,0,P|324:144|408:76,1,203.999993774414,0|8,0:0|0:0,0:0:0:0:
492,108,205092,1,0,0:0:0:0:
420,180,205207,2,0,P|396:224|384:284,1,101.999996887207
508,236,205438,2,0,B|456:280|384:272|384:272|324:328,1,203.999993774414,12|0,0:0|0:0,0:0:0:0:
232,336,205784,5,0,0:0:0:0:
64,332,205899,2,0,L|176:296,1,101.999996887207,12|0,0:0|0:0,0:0:0:0:
176,220,206130,1,0,0:0:0:0:
176,220,206246,1,0,0:0:0:0:
12,200,206361,2,0,L|124:164,1,101.999996887207,8|0,0:0|0:0,0:0:0:0:
68,48,206592,2,0,L|180:84,1,101.999996887207
304,48,206822,5,12,0:0:0:0:
304,48,206938,2,0,P|352:32|416:36,2,101.999996887207,0|0|0,0:0|0:0|0:0,0:0:0:0:
304,336,207284,5,12,0:0:0:0:
304,336,207400,2,0,P|352:352|416:348,2,101.999996887207
268,148,207746,5,12,0:0:0:0:
268,148,207861,2,0,L|160:148,2,101.999996887207
320,232,208207,5,12,0:0:0:0:
320,232,208322,2,0,L|428:232,2,101.999996887207
200,264,208669,6,0,B|126:267|139:346|3:333,1,203.999993774414,12|0,0:0|0:0,0:0:0:0:
220,212,209130,2,0,B|146:215|159:294|23:281,1,203.999993774414,12|0,0:0|0:0,0:0:0:0:
312,120,209592,2,0,B|385:116|372:37|508:50,1,203.999993774414,12|0,0:0|0:0,0:0:0:0:
292,172,210053,2,0,B|365:168|352:89|488:102,1,203.999993774414,12|0,0:0|0:0,0:0:0:0:
396,232,210515,6,0,L|325:305,1,101.999996887207,12|0,0:0|0:0,0:0:0:0:
116,152,210746,2,0,L|186:78,1,101.999996887207
325,78,210976,6,0,L|396:152,1,101.999996887207,12|0,0:0|0:0,0:0:0:0:
186,305,211207,2,0,L|116:232,1,101.999996887207
336,40,211438,6,0,L|304:156,1,101.999996887207,12|0,0:0|0:0,0:0:0:0:
176,344,211669,2,0,L|208:228,1,101.999996887207
80,140,211899,6,0,L|196:172,1,101.999996887207,12|0,0:0|0:0,0:0:0:0:
432,244,212130,2,0,L|316:212,1,101.999996887207
196,80,212361,5,12,0:0:0:0:
316,304,212592,1,0,0:0:0:0:
142,90,212822,5,12,0:0:0:0:
369,293,213053,1,0,0:0:0:0:
90,125,213284,5,12,0:0:0:0:
421,258,213515,1,0,0:0:0:0:
52,185,213746,5,12,0:0:0:0:
459,198,213977,1,0,0:0:0:0:
142,90,214207,5,0,0:0:0:0:
220,60,214322,1,0,0:0:0:0:
212,140,214438,6,0,L|236:248,1,101.999996887207
292,324,214669,5,0,0:0:0:0:
370,294,214784,1,0,0:0:0:0:
300,244,214900,6,0,L|276:136,1,101.999996887207
142,90,215130,6,0,L|40:72,1,101.999996887207
136,184,215361,2,0,L|38:219,1,101.999996887207
196,256,215592,6,0,L|129:335,1,101.999996887207
300,244,215822,2,0,L|282:346,1,101.999996887207
112,212,216053,5,2,0:0:0:0:
112,212,216284,2,0,P|76:156|80:68,2,136,2|2|2,0:0|0:0|0:0,0:0:0:0:
260,296,216976,1,2,0:0:0:0:
260,136,217207,2,0,P|300:80|380:72,1,136,2|2,0:0|0:0,0:0:0:0:
460,200,217669,2,0,L|500:216,2,34,2|0|0,0:0|0:0|0:0,0:0:0:0:
256,192,217899,12,0,222053,0:0:0:0:
