osu file format v14

[General]
AudioFilename: 20050506011123atissueoflies.mp3
AudioLeadIn: 0
PreviewTime: 59361
Countdown: 1
SampleSet: Normal
StackLeniency: 0.7
Mode: 0
LetterboxInBreaks: 1
WidescreenStoryboard: 1

[Editor]
Bookmarks: 17198,27090,41766,59280,69901,90496,121631,132009,136388,146442,157063,167280
DistanceSpacing: 1.2
BeatDivisor: 4
GridSize: 8
TimelineZoom: 1

[Metadata]
Title:a tissue of lies
TitleUnicode:a tissue of lies
Artist:hicalculator
ArtistUnicode:hicalculator
Creator:HarryOrunitia
Version:Hard
Source:
Tags:hicalculator jpop
BeatmapID:48287
BeatmapSetID:9915

[Difficulty]
HPDrainRate:4
CircleSize:3.5
OverallDifficulty:6
ApproachRate:6
SliderMultiplier:1.7
SliderTickRate:1

[Events]
//Background and Video events
0,0,"tissuebg.jpg",0,0
//Break Periods
2,80642,89770
2,131885,135176
//Storyboard Layer 0 (Background)
//Storyboard Layer 1 (Fail)
//Storyboard Layer 2 (Pass)
//Storyboard Layer 3 (Foreground)
//Storyboard Sound Samples

[TimingPoints]
18496.2887700535,324.324324324324,4,1,0,100,1,0
43509,-100,4,1,0,50,0,0
43792,-100,4,1,0,100,0,0
64266,-100,4,1,0,50,0,0
64428,-100,4,1,0,100,0,0
69334,-200,4,1,0,100,0,0
69982,-100,4,1,0,100,0,0
132171,-100,4,2,0,100,0,0
135658,-100,4,1,0,100,0,0
136226,-100,4,1,0,100,0,1
145874,-200,4,1,0,100,0,1
146361,-100,4,1,0,100,0,1
156901,-100,4,1,0,100,0,0
156982,-100,4,1,0,100,0,1
180496,-100,4,1,0,0,0,0

[Colours]
Combo1 : 255,128,0
Combo2 : 5,240,5
Combo3 : 5,5,240
Combo4 : 240,5,5

[HitObjects]
120,152,18171,6,0,P|152:104|208:104,4,85
256,304,19144,5,8,0:0:0:0:
400,152,19469,2,0,P|368:104|312:104,4,85
256,304,20442,5,8,0:0:0:0:
192,40,21090,5,0,0:0:0:0:
136,128,21253,1,0,0:0:0:0:
240,120,21415,2,0,B|328:184|248:264,1,170,0|8,0:0|0:0,0:0:0:0:
352,88,22063,2,0,P|312:56|304:8,4,85
176,192,23036,5,8,0:0:0:0:
352,296,23361,5,0,0:0:0:0:
448,112,23685,5,0,0:0:0:0:
352,72,23847,1,0,0:0:0:0:
256,112,24009,2,0,B|296:176|208:224|264:288|264:296,1,170,0|8,0:0|0:0,0:0:0:0:
56,304,24658,6,0,P|96:312|136:280,1,85
112,192,24982,2,0,P|72:224|24:208,1,85
48,120,25307,2,0,B|104:32|224:80,2,170,0|8|0,0:0|0:0|0:0,0:0:0:0:
216,240,26280,5,0,0:0:0:0:
320,240,26442,1,0,0:0:0:0:
264,152,26604,1,0,0:0:0:0:
264,152,26928,1,8,0:0:0:0:
472,104,27253,6,8,B|368:64,2,85,8|0|8,0:0|0:0|0:0,0:0:0:0:
392,296,27901,2,0,B|480:248,2,85,8|0|8,0:0|0:0|0:0,0:0:0:0:
216,176,28550,1,8,0:0:0:0:
328,208,28712,5,0,0:0:0:0:
352,288,28874,1,0,0:0:0:0:
280,336,29036,2,0,B|208:232|97:317,2,170,0|2|0,0:0|0:0|0:0,0:0:0:0:
192,352,29847,1,8,0:0:0:0:
134,293,30009,1,0,0:0:0:0:
168,216,30171,1,8,0:0:0:0:
96,168,30334,2,0,B|128:72,1,85,0|8,0:0|0:0,0:0:0:0:
256,184,30820,1,0,0:0:0:0:
384,72,31469,6,0,B|456:144,1,85
376,184,31793,2,0,B|312:248,1,85
144,256,32280,2,0,B|192:352|304:336,2,170,0|2|0,0:0|0:0|0:0,0:0:0:0:
184,184,33090,1,8,0:0:0:0:
96,184,33253,2,0,B|48:136|112:88,1,85,0|8,0:0|0:0,0:0:0:0:
144,48,33577,1,0,0:0:0:0:
224,72,33739,6,0,B|344:48|384:128,1,170,8|0,0:0|0:0,0:0:0:0:
320,176,34226,1,0,0:0:0:0:
408,320,34550,1,2,0:0:0:0:
240,320,34874,1,0,0:0:0:0:
168,280,35036,1,0,0:0:0:0:
168,280,35117,1,0,0:0:0:0:
168,280,35198,1,0,0:0:0:0:
96,320,35361,2,0,B|48:296|72:216,1,85
128,200,35685,2,0,B|72:120|160:32,2,170,0|0|8,0:0|0:0|0:0,0:0:0:0:
256,88,36658,5,0,0:0:0:0:
328,128,36820,2,0,B|288:216,1,85
376,200,37144,2,0,B|296:368,1,170
256,192,37793,1,2,0:0:0:0:
88,152,38117,1,0,0:0:0:0:
88,152,38280,2,0,B|168:328,2,170,0|0|0,0:0|0:0|0:0,0:0:0:0:
96,72,39090,5,0,0:0:0:0:
176,48,39252,1,0,0:0:0:0:
256,72,39415,1,0,0:0:0:0:
256,240,39739,1,2,0:0:0:0:
392,336,40063,6,0,B|464:264,1,85,0|8,0:0|0:0,0:0:0:0:
384,232,40388,1,0,0:0:0:0:
456,184,40550,2,0,B|384:120,1,85,8|0,0:0|0:0,0:0:0:0:
440,56,40874,5,8,0:0:0:0:
256,192,41198,5,0,0:0:0:0:
56,336,41523,5,0,0:0:0:0:
64,168,41847,1,0,0:0:0:0:
104,96,42009,1,0,0:0:0:0:
176,136,42171,1,0,0:0:0:0:
216,64,42334,1,0,0:0:0:0:
384,88,42658,1,0,0:0:0:0:
496,216,42982,1,2,0:0:0:0:
328,248,43307,1,0,0:0:0:0:
400,176,43469,6,0,B|416:208,8,21.25,0|0|0|0|0|0|0|0|0,0:0|0:0|0:0|0:0|0:0|0:0|0:0|0:0|0:0,0:0:0:0:
104,320,44117,5,0,0:0:0:0:
168,272,44280,2,0,B|88:176,1,85
168,144,44604,2,0,B|264:72|352:160,2,170,0|2|0,0:0|0:0|0:0,0:0:0:0:
120,72,45415,2,0,B|56:136,1,85,8|0,0:0|0:0,0:0:0:0:
112,200,45739,2,0,B|192:280,1,85,8|0,0:0|0:0,0:0:0:0:
256,272,46063,1,8,0:0:0:0:
256,104,46388,1,0,0:0:0:0:
256,272,46712,1,0,0:0:0:0:
424,264,47036,5,0,0:0:0:0:
472,192,47198,1,0,0:0:0:0:
424,120,47361,1,0,0:0:0:0:
378,192,47523,1,0,0:0:0:0:
256,344,47847,5,0,0:0:0:0:
256,40,48171,1,0,0:0:0:0:
88,88,48496,1,0,0:0:0:0:
128,160,48658,1,8,0:0:0:0:
208,184,48820,1,0,0:0:0:0:
288,160,48982,1,8,0:0:0:0:
344,96,49144,1,0,0:0:0:0:
424,64,49307,1,8,0:0:0:0:
496,112,49469,1,0,0:0:0:0:
496,200,49631,1,8,0:0:0:0:
424,248,49793,2,0,B|384:344|256:288,1,170
424,248,50442,1,2,0:0:0:0:
496,200,50604,5,0,0:0:0:0:
424,152,50766,2,0,B|344:224,1,85,0|8,0:0|0:0,0:0:0:0:
296,264,51090,2,0,B|200:264,1,85,0|8,0:0|0:0,0:0:0:0:
168,192,51415,1,0,0:0:0:0:
120,120,51577,2,0,B|176:48,1,85,8|0,0:0|0:0,0:0:0:0:
120,120,51901,1,8,0:0:0:0:
48,280,52226,5,0,0:0:0:0:
120,320,52388,1,0,0:0:0:0:
200,304,52550,1,0,0:0:0:0:
232,224,52712,1,0,0:0:0:0:
400,216,53036,1,0,0:0:0:0:
280,96,53361,1,0,0:0:0:0:
448,80,53685,1,0,0:0:0:0:
448,80,53847,2,0,B|352:88|304:208,2,170,8|2|0,0:0|0:0|0:0,0:0:0:0:
472,160,54658,5,0,0:0:0:0:
496,240,54820,1,8,0:0:0:0:
416,224,54982,2,0,B|320:232|272:352,1,170,0|0,0:0|0:0,0:0:0:0:
456,312,55631,2,2,B|432:328|400:336,2,42.5
496,240,55955,1,0,0:0:0:0:
472,160,56117,1,2,0:0:0:0:
416,224,56280,1,0,0:0:0:0:
392,144,56442,2,0,B|344:104|280:128,3,85,2|0|2|0,0:0|0:0|0:0|0:0,0:0:0:0:
392,144,57090,1,8,0:0:0:0:
256,248,57415,5,0,0:0:0:0:
112,336,57739,1,0,0:0:0:0:
64,272,57901,1,0,0:0:0:0:
80,104,58226,2,0,B|128:16|256:40,1,170
304,56,58712,1,0,0:0:0:0:
376,104,58874,2,0,B|288:192,1,85
400,168,59198,2,0,B|368:248,1,85
448,208,59523,2,0,B|464:296,1,85
256,192,59766,12,0,61144,0:0:0:0:
256,192,61469,5,0,0:0:0:0:
256,192,61631,1,8,0:0:0:0:
256,360,61955,1,0,0:0:0:0:
72,56,62280,1,8,0:0:0:0:
440,56,62604,1,0,0:0:0:0:
256,192,62928,1,8,0:0:0:0:
256,192,63090,1,2,0:0:0:0:
136,312,63415,6,0,B|48:272|64:160,1,170
144,152,63901,1,8,0:0:0:0:
168,72,64063,1,0,0:0:0:0:
248,96,64226,2,0,B|280:120,3,21.25
344,40,64550,1,8,0:0:0:0:
424,280,65036,5,0,0:0:0:0:
344,264,65198,1,8,0:0:0:0:
400,200,65361,1,0,0:0:0:0:
232,216,65685,2,0,B|256:160|320:168,2,85,0|8|0,0:0|0:0|0:0,0:0:0:0:
368,112,66334,1,2,0:0:0:0:
208,64,66658,5,0,0:0:0:0:
128,96,66820,1,8,0:0:0:0:
72,160,66982,1,0,0:0:0:0:
56,240,67144,1,8,0:0:0:0:
96,312,67307,2,0,B|128:352|176:352,1,85,0|8,0:0|0:0,0:0:0:0:
256,200,67793,5,0,0:0:0:0:
336,344,68117,2,0,B|416:336|408:264,1,85,0|8,0:0|0:0,0:0:0:0:
256,200,68604,1,0,0:0:0:0:
328,48,68928,1,0,0:0:0:0:
400,96,69090,1,8,0:0:0:0:
440,176,69253,1,0,0:0:0:0:
424,256,69415,2,0,B|384:232|376:288|312:248,1,85,8|8,0:0|0:0,0:0:0:0:
184,304,70063,6,0,B|104:240,1,85,8|0,0:0|0:0,0:0:0:0:
120,168,70388,2,0,B|208:104,1,85,8|0,0:0|0:0,0:0:0:0:
344,192,70874,1,0,0:0:0:0:
424,40,71198,1,2,0:0:0:0:
256,40,71523,1,0,0:0:0:0:
88,40,71847,5,8,0:0:0:0:
88,80,71928,1,0,0:0:0:0:
88,120,72009,1,0,0:0:0:0:
176,120,72171,1,8,0:0:0:0:
176,208,72334,2,0,B|240:224|264:144,2,85,0|8|0,0:0|0:0|0:0,0:0:0:0:
256,352,72982,5,2,0:0:0:0:
344,208,73307,1,0,0:0:0:0:
344,120,73469,2,0,B|256:88|160:128,2,170,0|2|0,0:0|0:0|0:0,0:0:0:0:
408,64,74280,1,0,0:0:0:0:
472,120,74442,1,2,0:0:0:0:
416,184,74604,2,0,B|408:208,4,21.25
480,240,74928,1,8,0:0:0:0:
216,312,75415,6,0,B|256:352|312:336,2,85,8|0|8,0:0|0:0|0:0,0:0:0:0:
304,168,76063,2,0,B|264:136|216:152,2,85,0|0|2,0:0|0:0|0:0,0:0:0:0:
216,312,76713,1,0,0:0:0:0:
48,296,77037,5,8,0:0:0:0:
88,280,77118,1,0,0:0:0:0:
88,240,77199,1,0,0:0:0:0:
40,168,77361,1,8,0:0:0:0:
96,104,77524,2,0,B|96:40|184:40,2,85,0|8|0,0:0|0:0|0:0,0:0:0:0:
256,56,78172,5,2,0:0:0:0:
256,224,78497,1,0,0:0:0:0:
256,328,78658,5,0,0:0:0:0:
80,40,78982,5,2,0:0:0:0:
424,40,79307,5,0,0:0:0:0:
376,112,79469,1,0,0:0:0:0:
296,128,79632,1,2,0:0:0:0:
256,192,79793,12,0,80442,0:0:0:0:
416,56,90820,5,8,0:0:0:0:
432,136,90982,1,0,0:0:0:0:
352,160,91144,1,0,0:0:0:0:
328,240,91307,2,0,B|248:312|152:216,2,170,0|2|0,0:0|0:0|0:0,0:0:0:0:
256,192,92117,1,8,0:0:0:0:
168,160,92279,5,0,0:0:0:0:
88,136,92441,1,8,0:0:0:0:
104,56,92604,1,0,0:0:0:0:
184,80,92766,2,0,B|264:8|360:104,1,170,8|0,0:0|0:0,0:0:0:0:
416,128,93739,6,0,B|488:200,1,85
416,128,94063,2,0,B|352:192,1,85
416,344,94550,2,0,B|376:288|464:256|408:160,2,170,0|2|0,0:0|0:0|0:0,0:0:0:0:
336,304,95360,1,8,0:0:0:0:
256,344,95523,2,0,B|208:296|272:248,1,85,0|8,0:0|0:0,0:0:0:0:
312,208,95847,1,0,0:0:0:0:
296,128,96009,6,0,B|248:24|144:88,1,170,8|0,0:0|0:0,0:0:0:0:
208,144,96496,1,0,0:0:0:0:
56,216,96820,1,2,0:0:0:0:
192,312,97144,1,0,0:0:0:0:
160,232,97307,1,0,0:0:0:0:
160,232,97388,1,0,0:0:0:0:
160,232,97469,1,0,0:0:0:0:
120,160,97631,2,0,B|72:128|96:72,1,85
176,72,97955,2,0,B|256:8|368:88,2,170,0|0|8,0:0|0:0|0:0,0:0:0:0:
328,152,98928,6,0,B|384:160|408:112,1,85
456,192,99253,1,0,0:0:0:0:
456,192,99414,2,0,B|392:272|280:232,1,170,0|0,0:0|0:0,0:0:0:0:
256,72,100063,1,2,0:0:0:0:
128,184,100387,1,0,0:0:0:0:
56,232,100550,2,0,B|104:328|224:288,2,170,0|0|0,0:0|0:0|0:0,0:0:0:0:
48,144,101361,5,0,0:0:0:0:
88,72,101523,1,0,0:0:0:0:
256,72,101847,5,8,0:0:0:0:
256,328,102171,5,0,0:0:0:0:
360,240,102496,5,0,0:0:0:0:
360,240,102577,1,0,0:0:0:0:
360,240,102658,2,0,B|296:248|280:176,1,85,0|0,0:0|0:0,0:0:0:0:
360,152,102982,1,8,0:0:0:0:
440,176,103144,2,0,B|464:72|336:56,2,170,0|8|0,0:0|0:0|0:0,0:0:0:0:
256,144,104117,5,0,0:0:0:0:
256,232,104280,1,0,0:0:0:0:
192,288,104442,2,0,B|112:360|8:256,1,170,0|0,0:0|0:0,0:0:0:0:
128,144,105090,5,2,0:0:0:0:
128,144,105171,1,0,0:0:0:0:
128,144,105253,1,0,0:0:0:0:
56,96,105415,1,2,0:0:0:0:
128,56,105577,1,0,0:0:0:0:
200,96,105739,1,2,0:0:0:0:
272,56,105901,1,0,0:0:0:0:
320,128,106063,1,2,0:0:0:0:
400,88,106226,1,0,0:0:0:0:
408,176,106388,1,0,0:0:0:0:
240,192,106712,5,8,0:0:0:0:
160,208,106874,1,0,0:0:0:0:
88,256,107036,2,0,B|104:352|232:352,1,170
384,336,107685,2,0,B|304:280,1,85,8|0,0:0|0:0,0:0:0:0:
392,256,108009,2,8,B|368:168,1,85,8|0,0:0|0:0,0:0:0:0:
288,184,108334,1,8,0:0:0:0:
144,96,108658,1,0,0:0:0:0:
128,264,108982,1,0,0:0:0:0:
144,96,109307,5,0,0:0:0:0:
288,184,109469,1,0,0:0:0:0:
128,264,109631,1,0,0:0:0:0:
288,328,109955,5,0,0:0:0:0:
448,264,110280,1,0,0:0:0:0:
288,328,110604,1,0,0:0:0:0:
448,264,110928,1,8,0:0:0:0:
376,216,111090,1,0,0:0:0:0:
448,168,111252,1,8,0:0:0:0:
376,128,111414,1,0,0:0:0:0:
440,72,111577,1,8,0:0:0:0:
360,48,111739,1,0,0:0:0:0:
296,104,111901,1,8,0:0:0:0:
232,48,112063,2,0,B|128:32|96:136,1,170
256,192,112712,1,2,0:0:0:0:
168,192,112874,5,0,0:0:0:0:
80,192,113036,2,0,B|80:288,1,85,0|8,0:0|0:0,0:0:0:0:
144,328,113360,2,0,B|256:328,1,85,0|8,0:0|0:0,0:0:0:0:
312,336,113685,1,0,0:0:0:0:
400,336,113847,2,0,B|472:272,1,85,8|0,0:0|0:0,0:0:0:0:
448,192,114171,1,8,0:0:0:0:
336,64,114496,5,0,0:0:0:0:
192,112,114658,1,0,0:0:0:0:
336,168,114820,1,0,0:0:0:0:
192,216,114982,1,0,0:0:0:0:
88,344,115307,5,0,0:0:0:0:
256,368,115631,1,0,0:0:0:0:
424,344,115955,1,0,0:0:0:0:
416,256,116117,2,0,B|472:184|368:168|448:80,2,170,8|2|0,0:0|0:0|0:0,0:0:0:0:
344,208,116928,5,0,0:0:0:0:
296,136,117090,1,8,0:0:0:0:
240,72,117252,2,0,B|128:48|96:184,1,170,0|0,0:0|0:0,0:0:0:0:
176,304,117901,2,2,B|152:320|120:344,2,42.5
256,328,118225,1,0,0:0:0:0:
336,304,118387,1,2,0:0:0:0:
416,328,118550,1,0,0:0:0:0:
448,248,118712,2,0,B|392:160,3,85,2|0|2|0,0:0|0:0|0:0|0:0,0:0:0:0:
472,128,119360,1,8,0:0:0:0:
320,56,119685,5,0,0:0:0:0:
256,216,120009,1,0,0:0:0:0:
304,144,120171,1,0,0:0:0:0:
192,272,120496,2,0,B|80:288|48:208,1,170
80,128,120982,1,0,0:0:0:0:
80,128,121144,1,0,0:0:0:0:
80,128,121307,1,0,0:0:0:0:
360,320,121955,6,0,B|456:256,1,85,8|0,0:0|0:0,0:0:0:0:
360,224,122279,1,8,0:0:0:0:
392,144,122442,2,0,B|288:128|256:232,2,170,0|0|2,0:0|0:0|0:0,0:0:0:0:
384,56,123252,5,0,0:0:0:0:
296,56,123414,2,0,B|280:104|200:112,1,85,0|8,0:0|0:0,0:0:0:0:
184,40,123738,2,0,B|112:40|96:112,1,85,0|8,0:0|0:0,0:0:0:0:
144,152,124063,1,0,0:0:0:0:
72,192,124226,2,0,B|64:248|112:272,2,85,8|0|8,0:0|0:0|0:0,0:0:0:0:
168,336,124874,5,0,0:0:0:0:
256,336,125036,1,0,0:0:0:0:
256,248,125198,1,0,0:0:0:0:
344,248,125360,1,0,0:0:0:0:
416,96,125685,5,0,0:0:0:0:
256,144,126009,1,0,0:0:0:0:
96,96,126333,1,0,0:0:0:0:
96,184,126496,2,0,B|40:256|144:272|64:360,2,170,8|2|0,0:0|0:0|0:0,0:0:0:0:
168,232,127306,5,0,0:0:0:0:
256,240,127468,1,8,0:0:0:0:
344,232,127631,2,0,B|400:160|296:144|376:56,1,170
472,208,128280,1,2,0:0:0:0:
472,248,128361,1,2,0:0:0:0:
472,288,128442,1,2,0:0:0:0:
400,328,128603,1,0,0:0:0:0:
312,320,128765,1,2,0:0:0:0:
224,328,128928,1,0,0:0:0:0:
136,320,129090,2,0,B|80:312|80:232,3,85,2|0|2|0,0:0|0:0|0:0|0:0,0:0:0:0:
168,240,129738,1,8,0:0:0:0:
120,80,130063,5,0,0:0:0:0:
192,120,130226,1,0,0:0:0:0:
264,80,130387,1,0,0:0:0:0:
336,120,130549,1,0,0:0:0:0:
416,272,130874,2,0,B|488:104,2,170
336,256,131685,1,0,0:0:0:0:
296,152,136226,5,0,0:0:0:0:
256,64,136388,1,0,0:0:0:0:
168,64,136550,1,8,0:0:0:0:
136,144,136712,1,0,0:0:0:0:
176,312,137036,1,0,0:0:0:0:
256,344,137198,1,8,0:0:0:0:
336,312,137361,1,0,0:0:0:0:
456,192,137685,1,2,0:0:0:0:
344,64,138009,5,0,0:0:0:0:
376,144,138171,1,8,0:0:0:0:
288,144,138334,1,0,0:0:0:0:
248,64,138496,1,8,0:0:0:0:
160,64,138658,1,0,0:0:0:0:
200,144,138820,2,0,B|120:296,2,170,8|0|0,0:0|0:0|0:0,0:0:0:0:
288,144,139630,1,2,0:0:0:0:
120,144,139955,2,0,B|40:296,1,170
128,296,140441,1,8,0:0:0:0:
192,352,140603,1,0,0:0:0:0:
256,296,140766,2,0,B|288:320,3,21.25
192,240,141090,1,8,0:0:0:0:
408,104,141576,5,0,0:0:0:0:
464,168,141738,1,8,0:0:0:0:
408,232,141901,1,0,0:0:0:0:
248,168,142225,2,0,B|344:168,2,85,0|8|0,0:0|0:0|0:0,0:0:0:0:
80,168,142874,1,2,0:0:0:0:
136,328,143198,5,0,0:0:0:0:
216,360,143360,1,8,0:0:0:0:
296,344,143522,1,0,0:0:0:0:
360,288,143684,1,8,0:0:0:0:
376,200,143847,2,0,B|384:144|320:96,1,85,0|8,0:0|0:0,0:0:0:0:
192,56,144334,5,0,0:0:0:0:
88,192,144658,2,0,B|160:96,1,85,0|8,0:0|0:0,0:0:0:0:
296,192,145144,2,0,B|224:96,2,85
384,192,145630,1,8,0:0:0:0:
448,248,145793,1,0,0:0:0:0:
448,336,145955,2,0,B|336:336,1,85,8|8,0:0|0:0,0:0:0:0:
192,336,146604,6,0,B|64:336,1,85,8|0,0:0|0:0,0:0:0:0:
104,248,146929,2,0,B|216:248,1,85,8|0,0:0|0:0,0:0:0:0:
120,88,147415,1,0,0:0:0:0:
256,192,147739,1,2,0:0:0:0:
392,88,148064,1,0,0:0:0:0:
392,256,148388,5,8,0:0:0:0:
392,256,148469,1,0,0:0:0:0:
392,256,148550,1,0,0:0:0:0:
392,256,148712,1,8,0:0:0:0:
384,344,148875,2,0,B|448:360|472:280,2,85,0|8|0,0:0|0:0|0:0,0:0:0:0:
256,232,149523,5,2,0:0:0:0:
256,64,149848,1,0,0:0:0:0:
168,64,150010,2,0,B|48:72|48:184,2,170,0|2|0,0:0|0:0|0:0,0:0:0:0:
256,64,150821,1,0,0:0:0:0:
336,80,150983,1,2,0:0:0:0:
408,128,151144,2,0,B|392:152,4,21.25
464,192,151469,1,8,0:0:0:0:
224,288,151956,6,0,B|312:320,2,85,8|0|8,0:0|0:0|0:0,0:0:0:0:
392,256,152604,2,0,B|296:224,2,85,0|0|2,0:0|0:0|0:0,0:0:0:0:
232,200,153254,1,0,0:0:0:0:
80,280,153578,5,8,0:0:0:0:
80,240,153659,1,0,0:0:0:0:
80,200,153740,1,0,0:0:0:0:
80,112,153902,1,8,0:0:0:0:
168,104,154065,2,0,B|256:40,2,85,0|8|0,0:0|0:0|0:0,0:0:0:0:
328,56,154713,5,2,0:0:0:0:
448,176,155038,1,0,0:0:0:0:
448,176,155199,1,0,0:0:0:0:
256,336,155523,5,2,0:0:0:0:
256,168,155848,5,0,0:0:0:0:
256,168,156009,1,8,0:0:0:0:
256,168,156173,1,0,0:0:0:0:
256,192,156334,12,0,156983,0:0:0:0:
256,264,157307,6,0,B|256:352,1,85,8|0,0:0|0:0,0:0:0:0:
88,352,157793,1,0,0:0:0:0:
144,288,157955,1,8,0:0:0:0:
88,224,158117,2,0,B|24:144|96:48,1,170,0|2,0:0|0:0,0:0:0:0:
256,80,158766,1,0,0:0:0:0:
288,160,158928,2,0,B|344:144|352:72,4,85,8|0|8|0|8,0:0|0:0|0:0|0:0|0:0,0:0:0:0:
256,328,159901,5,0,0:0:0:0:
424,328,160226,1,8,0:0:0:0:
336,328,160389,1,0,0:0:0:0:
336,160,160712,1,2,0:0:0:0:
168,160,161036,2,0,B|104:176|120:240,2,85
208,232,161523,2,0,L|216:248|224:232|232:248|240:232|248:248|256:232|264:248|272:232|280:248|288:232,1,170,8|8,0:0|0:0,0:0:0:0:
456,240,162171,5,8,0:0:0:0:
384,192,162334,1,0,0:0:0:0:
456,144,162496,1,8,0:0:0:0:
384,96,162658,1,0,0:0:0:0:
216,80,162982,2,0,B|168:48|104:96,2,85,0|8|0,0:0|0:0|0:0,0:0:0:0:
56,128,163631,1,2,0:0:0:0:
216,192,163955,2,0,B|168:224|104:176,4,85,2|0|2|0|2,0:0|0:0|0:0|0:0|0:0,0:0:0:0:
272,128,164766,5,0,0:0:0:0:
440,128,165090,1,0,0:0:0:0:
360,280,165415,1,8,0:0:0:0:
296,336,165577,1,0,0:0:0:0:
208,352,165739,1,8,0:0:0:0:
120,344,165901,2,0,B|16:296|32:192,1,170
48,128,166388,1,0,0:0:0:0:
120,176,166550,1,2,0:0:0:0:
192,128,166712,2,0,L|200:144|208:128|216:144|224:128|232:144|240:128|248:144|256:128|264:144|272:128|280:144|288:128|296:144|304:128|312:144|320:128,1,255,8|0,0:0|0:0,0:0:0:0:
376,88,167361,5,8,0:0:0:0:
432,152,167523,1,0,0:0:0:0:
360,200,167685,1,8,0:0:0:0:
408,272,167847,1,0,0:0:0:0:
256,344,168171,1,0,0:0:0:0:
96,288,168496,1,2,0:0:0:0:
256,232,168820,1,0,0:0:0:0:
184,80,169144,5,2,0:0:0:0:
336,80,169307,1,0,0:0:0:0:
176,80,169469,1,2,0:0:0:0:
344,80,169631,1,0,0:0:0:0:
168,80,169793,1,2,0:0:0:0:
352,80,169955,1,0,0:0:0:0:
256,232,170280,5,2,0:0:0:0:
88,232,170604,1,2,0:0:0:0:
88,232,170766,1,0,0:0:0:0:
256,232,171090,1,2,0:0:0:0:
408,152,171415,1,0,0:0:0:0:
440,232,171577,1,2,0:0:0:0:
408,312,171739,1,0,0:0:0:0:
328,344,171901,2,0,B|344:384,4,42.5,2|0|0|0|2,0:0|0:0|0:0|0:0|0:0,0:0:0:0:
256,96,172712,5,0,0:0:0:0:
256,184,172874,1,8,0:0:0:0:
256,96,173036,1,0,0:0:0:0:
112,184,173361,1,0,0:0:0:0:
112,272,173523,1,8,0:0:0:0:
112,184,173685,1,0,0:0:0:0:
256,272,174009,1,2,0:0:0:0:
184,120,174334,5,2,0:0:0:0:
336,120,174497,1,0,0:0:0:0:
176,120,174658,1,2,0:0:0:0:
344,120,174821,1,0,0:0:0:0:
168,120,174982,1,2,0:0:0:0:
352,120,175145,1,0,0:0:0:0:
256,272,175469,5,8,0:0:0:0:
96,320,175793,1,0,0:0:0:0:
56,248,175955,1,2,0:0:0:0:
216,176,176280,2,0,B|304:224|336:136|408:192,1,170,2|0,0:0|0:0,0:0:0:0:
456,224,176766,1,0,0:0:0:0:
456,136,176928,1,2,0:0:0:0:
392,80,177090,2,0,B|416:24,4,42.5,2|0|2|0|2,0:0|0:0|0:0|0:0|0:0,0:0:0:0:
320,328,177739,5,0,0:0:0:0:
192,328,177901,1,0,0:0:0:0:
192,200,178063,1,0,0:0:0:0:
320,200,178226,1,0,0:0:0:0:
320,328,178388,1,0,0:0:0:0:
192,328,178550,1,0,0:0:0:0:
192,72,178874,5,0,0:0:0:0:
320,72,179036,1,0,0:0:0:0:
256,328,179361,1,0,0:0:0:0:
256,192,179685,12,0,180658,0:0:0:0:
