osu file format v12

[General]
AudioFilename: Helblinde-Love is War (clip) [myfreemp3.eu].mp3
AudioLeadIn: 0
PreviewTime: -1
Countdown: 0
SampleSet: Soft
StackLeniency: 0.7
Mode: 0
LetterboxInBreaks: 1
WidescreenStoryboard: 0

[Editor]
DistanceSpacing: 1
BeatDivisor: 4
GridSize: 32
TimelineZoom: 3.899999

[Metadata]
Title:love is war
TitleUnicode:love is war
Artist:helblinde
ArtistUnicode:helblinde
Creator:[Black Bunny]
Version:crazy jumper
Source:helblinde
Tags:hatsune miku vocaloid
BeatmapID:394519
BeatmapSetID:161699

[Difficulty]
HPDrainRate:6
CircleSize:4
OverallDifficulty:8
ApproachRate:9
SliderMultiplier:2.5
SliderTickRate:2

[Events]
//Background and Video events
0,0,"war.jpg",0,0
//Break Periods
//Storyboard Layer 0 (Background)
//Storyboard Layer 1 (Fail)
//Storyboard Layer 2 (Pass)
//Storyboard Layer 3 (Foreground)
//Storyboard Sound Samples
//Background Colour Transformations
3,100,163,162,255

[TimingPoints]
-8.98948899464941,300,4,2,1,100,1,0
20391,-133.333333333333,4,2,1,100,0,0
20691,-100,4,2,1,100,0,0
20991,-133.333333333333,4,2,1,100,0,0
21291,-100,4,2,1,100,0,0
21591,-133.333333333333,4,2,1,100,0,0
21891,-100,4,2,1,100,0,0
22791,-133.333333333333,4,2,1,100,0,0
23091,-100,4,2,1,100,0,0
23391,-133.333333333333,4,2,1,100,0,0
23691,-100,4,2,1,100,0,0
23991,-133.333333333333,4,2,1,100,0,0
24291,-100,4,2,1,100,0,0
26991,-133.333333333333,4,2,1,100,0,0
27291,-100,4,2,1,100,0,0
27591,-133.333333333333,4,2,1,100,0,0
27891,-100,4,2,1,100,0,0
28191,-133.333333333333,4,2,1,100,0,0
28491,-100,4,2,1,100,0,0
28791,-133.333333333333,4,2,1,100,0,0
29091,-100,4,2,1,100,0,0
29991,-133.333333333333,4,2,1,100,0,0
30291,-100,4,2,1,100,0,0
32391,-133.333333333333,4,2,1,100,0,0
32691,-100,4,2,1,100,0,0
33591,-133.333333333333,4,2,1,100,0,0
33891,-100,4,2,1,100,0,0
34191,-133.333333333333,4,2,1,100,0,0
34491,-100,4,2,1,100,0,0
35391,-133.333333333333,4,2,1,100,0,0
35691,-100,4,2,1,100,0,0
38391,-200,4,2,1,100,0,0
59841,-100,4,2,1,100,0,0
60066,-100,4,2,1,100,0,0
60966,-100,4,2,1,100,0,0
61191,-100,4,2,1,100,0,0
79791,-200,4,2,1,100,0,0
80391,-100,4,2,1,100,0,0
94791,-133.333333333333,4,2,1,100,0,0
95091,-100,4,2,1,100,0,0
99591,-133.333333333333,4,2,1,100,0,0
99891,-100,4,2,1,100,0,0
100191,-133.333333333333,4,2,1,100,0,0
100491,-100,4,2,1,100,0,0
101991,-133.333333333333,4,2,1,100,0,0
102591,-100,4,2,1,100,0,0
104391,-133.333333333333,4,2,1,100,0,0
104991,-100,4,2,1,100,0,0
109191,-133.333333333333,4,2,1,100,0,0
109791,-100,4,2,1,100,0,0
111591,-133.333333333333,4,2,1,100,0,0
112191,-100,4,2,1,100,0,0
113991,-133.333333333333,4,2,1,100,0,0
114591,-100,4,2,1,100,0,0

[HitObjects]
192,96,17991,6,0,P|192:160|128:256,1,125
64,256,18291,1,0,0:0:0:0:
224,320,18441,1,0,0:0:0:0:
320,160,18591,1,0,0:0:0:0:
96,96,18741,1,0,0:0:0:0:
149,281,18891,2,0,P|208:294|256:256,1,125
224,64,19191,6,0,P|128:96|96:128,1,125
352,256,19491,2,0,P|397:215|395:155,1,125
160,192,19791,2,0,L|128:256,2,62.5
160,192,20091,2,0,L|160:128,2,62.5
256,64,20391,6,0,P|352:128|416:224,1,187.500007152558
224,256,20841,1,0,0:0:0:0:
384,256,20991,2,0,P|412:169|368:89,1,187.500007152558
160,128,21441,1,0,0:0:0:0:
128,288,21591,6,0,L|224:288|192:288,2,93.7500035762788
128,96,22041,1,0,0:0:0:0:
320,128,22191,1,0,0:0:0:0:
320,288,22341,1,0,0:0:0:0:
128,256,22491,2,0,P|126:184|210:139,1,125
288,64,22791,6,0,P|416:128|416:192,1,187.500007152558
256,192,23241,1,0,0:0:0:0:
192,320,23391,2,0,P|96:192|96:160,1,187.500007152558
256,192,23841,1,0,0:0:0:0:
271,61,23991,6,0,P|373:65|439:159,1,187.500007152558
256,320,24441,1,0,0:0:0:0:
128,192,24591,1,0,0:0:0:0:
256,64,24741,1,0,0:0:0:0:
384,192,24891,1,0,0:0:0:0:
288,288,25041,1,0,0:0:0:0:
256,256,25116,1,0,0:0:0:0:
224,224,25191,6,0,P|288:160|352:192,1,125
352,160,25491,1,0,0:0:0:0:
384,160,25566,1,0,0:0:0:0:
416,160,25641,1,0,0:0:0:0:
448,192,25716,1,0,0:0:0:0:
480,224,25791,6,0,P|449:306|391:324,1,125
384,320,26091,1,0,0:0:0:0:
352,320,26166,1,0,0:0:0:0:
320,320,26241,1,0,0:0:0:0:
288,320,26316,1,0,0:0:0:0:
256,320,26391,6,0,P|214:302|218:230,1,125
256,192,26691,2,0,B|320:128|288:96|224:64,1,125
96,64,26991,2,0,P|64:192|96:224,1,187.500007152558
256,192,27441,1,0,0:0:0:0:
192,320,27591,2,0,P|352:320|384:288,1,187.500007152558
256,192,28041,1,0,0:0:0:0:
448,256,28191,6,0,P|448:128|384:64,1,187.500007152558
256,192,28641,1,0,0:0:0:0:
256,64,28791,2,0,P|125:161|127:206,1,187.500007152558
160,288,29241,1,0,0:0:0:0:
64,160,29391,1,0,0:0:0:0:
224,64,29541,1,0,0:0:0:0:
320,128,29691,6,0,L|384:192,3,62.5
320,128,29991,2,0,B|320:64|288:64|192:64|160:96,1,187.500007152558
128,192,30441,1,0,0:0:0:0:
256,320,30591,2,0,P|337:269|330:197,1,125
352,128,30891,2,0,P|256:96|224:128,1,125
224,128,31191,1,0,0:0:0:0:
192,160,31266,1,0,0:0:0:0:
160,192,31341,1,0,0:0:0:0:
128,224,31491,6,0,B|96:288|96:320|160:320,1,125
192,320,31791,1,0,0:0:0:0:
224,320,31866,1,0,0:0:0:0:
256,320,31941,1,0,0:0:0:0:
352,288,32091,5,0,0:0:0:0:
384,256,32166,1,0,0:0:0:0:
384,224,32241,1,0,0:0:0:0:
384,192,32391,2,0,P|320:96|224:64,1,187.500007152558
160,128,32841,1,0,0:0:0:0:
160,224,32991,1,0,0:0:0:0:
192,256,33066,1,0,0:0:0:0:
224,288,33141,1,0,0:0:0:0:
256,320,33291,6,0,P|352:320|352:256,1,125
384,192,33591,2,0,P|320:64|256:64,1,187.500007152558
256,192,34041,1,0,0:0:0:0:
96,96,34191,2,0,P|64:192|128:288,1,187.500007152558
256,192,34641,1,0,0:0:0:0:
352,64,34791,2,0,P|416:128|448:192,1,125
435,194,35091,1,0,0:0:0:0:
420,231,35166,1,0,0:0:0:0:
406,264,35241,1,0,0:0:0:0:
385,295,35391,6,0,P|246:259|233:196,1,187.500007152558
256,192,35841,12,0,36591,0:0:0:0:
256,64,36741,5,0,0:0:0:0:
384,192,36891,1,0,0:0:0:0:
256,320,37041,1,0,0:0:0:0:
128,192,37191,1,0,0:0:0:0:
160,96,38091,1,0,0:0:0:0:
288,288,38991,6,0,P|384:256|416:224,1,125
352,96,39591,2,0,P|256:96|224:128,1,125
96,192,40191,2,0,L|192:288|192:288,1,125
256,192,40791,1,0,0:0:0:0:
320,192,41091,1,0,0:0:0:0:
384,192,41391,1,0,0:0:0:0:
448,192,41691,1,0,0:0:0:0:
448,192,41991,6,0,P|454:263|417:324,1,125
160,320,42891,1,0,0:0:0:0:
384,96,43191,1,0,0:0:0:0:
384,320,43491,1,0,0:0:0:0:
128,96,43791,1,0,0:0:0:0:
160,224,44091,1,0,0:0:0:0:
288,96,44391,6,0,B|384:96|320:224|352:160|352:192,1,125
256,192,45291,1,0,0:0:0:0:
96,96,45591,1,0,0:0:0:0:
256,192,45891,1,0,0:0:0:0:
384,96,46191,1,0,0:0:0:0:
256,192,46491,1,0,0:0:0:0:
128,320,46791,1,0,0:0:0:0:
384,320,47091,1,0,0:0:0:0:
256,192,47391,1,0,0:0:0:0:
96,192,47691,1,0,0:0:0:0:
256,192,47991,1,0,0:0:0:0:
416,64,48291,1,0,0:0:0:0:
352,288,48591,1,0,0:0:0:0:
224,288,48741,1,0,0:0:0:0:
288,192,49041,1,0,0:0:0:0:
288,192,49191,6,0,L|192:96,1,125
128,96,49791,1,0,0:0:0:0:
384,128,50091,1,0,0:0:0:0:
384,128,50391,1,0,0:0:0:0:
320,288,50691,1,0,0:0:0:0:
96,320,50991,1,0,0:0:0:0:
160,96,51291,1,0,0:0:0:0:
256,192,51591,5,0,0:0:0:0:
160,96,51891,1,0,0:0:0:0:
224,128,52191,1,0,0:0:0:0:
384,320,52491,1,0,0:0:0:0:
416,64,52791,1,0,0:0:0:0:
384,96,53091,1,0,0:0:0:0:
352,128,53391,1,0,0:0:0:0:
160,128,53691,1,0,0:0:0:0:
320,320,53991,5,0,0:0:0:0:
128,192,54891,2,0,L|192:256,1,62.5
192,192,55191,6,0,L|256:256,1,62.5
256,192,55491,2,0,L|320:256,1,62.5
320,192,55791,2,0,L|384:256,1,62.5
320,288,56091,2,0,L|256:224,1,62.5
256,288,56391,2,0,L|192:224,1,62.5
192,288,56691,6,0,L|128:224,1,62.5
128,64,56991,2,0,L|192:128,1,62.5
192,64,57291,2,0,L|256:128,1,62.5
256,64,57591,2,0,L|320:128,1,62.5
320,64,57891,2,0,L|384:128,1,62.5
384,160,58191,1,0,0:0:0:0:
352,192,58266,1,0,0:0:0:0:
320,224,58341,1,0,0:0:0:0:
192,224,58491,1,0,0:0:0:0:
160,192,58566,1,0,0:0:0:0:
128,160,58641,1,0,0:0:0:0:
256,192,58791,12,0,59916,0:0:0:0:
256,192,59991,12,0,61041,0:0:0:0:
160,64,61191,6,0,L|160:224,1,125
160,224,61491,1,0,0:0:0:0:
160,256,61566,1,0,0:0:0:0:
160,288,61641,1,0,0:0:0:0:
416,320,61791,2,0,L|416:192,1,125
416,160,62091,1,0,0:0:0:0:
416,128,62166,1,0,0:0:0:0:
416,96,62241,1,0,0:0:0:0:
256,128,62391,1,0,0:0:0:0:
320,288,62616,1,0,0:0:0:0:
160,256,62916,5,0,0:0:0:0:
223,96,63291,1,0,0:0:0:0:
223,127,63366,1,0,0:0:0:0:
223,159,63441,1,0,0:0:0:0:
223,191,63516,1,0,0:0:0:0:
224,224,63591,2,0,P|232:283|160:288,1,125
128,256,63891,2,0,P|96:160|128:128,1,125
192,128,64191,2,0,L|320:128,1,125
320,192,64491,2,0,L|320:320,1,125
320,317,64791,1,0,0:0:0:0:
256,192,65091,5,0,0:0:0:0:
128,128,65391,1,0,0:0:0:0:
384,128,65541,1,0,0:0:0:0:
384,320,65691,1,0,0:0:0:0:
96,320,65841,1,0,0:0:0:0:
192,256,65991,2,0,P|288:192|288:160,1,125
288,96,66291,1,0,0:0:0:0:
256,288,66441,1,0,0:0:0:0:
288,192,66591,6,0,L|128:192,1,125
163,192,66891,2,0,P|128:96|160:64,1,125
384,64,67191,1,0,0:0:0:0:
128,288,67491,1,0,0:0:0:0:
416,192,67791,1,0,0:0:0:0:
320,192,68091,1,0,0:0:0:0:
288,192,68166,1,0,0:0:0:0:
256,192,68241,1,0,0:0:0:0:
224,192,68316,1,0,0:0:0:0:
192,192,68391,2,0,P|128:192|96:96,1,125
128,64,68691,6,0,P|224:96|256:128,1,125
288,192,68991,2,0,P|384:192|416:128,1,125
416,96,69291,2,0,P|320:64|256:96,1,125
96,128,69591,1,0,0:0:0:0:
256,320,69741,1,0,0:0:0:0:
352,96,69891,1,0,0:0:0:0:
96,288,70041,1,0,0:0:0:0:
192,64,70191,1,0,0:0:0:0:
352,288,70341,5,0,0:0:0:0:
320,192,70641,1,0,0:0:0:0:
288,160,70716,1,0,0:0:0:0:
256,128,70791,2,0,P|160:96|128:128,1,125
75,248,71091,1,0,0:0:0:0:
272,293,71166,1,0,0:0:0:0:
312,293,71241,1,0,0:0:0:0:
352,288,71391,2,0,P|416:192|384:160,1,125
341,88,71691,5,0,0:0:0:0:
311,62,71766,1,0,0:0:0:0:
287,45,71841,1,0,0:0:0:0:
256,32,71991,2,0,P|192:96|192:160,1,125
224,192,72291,2,0,P|224:288|160:320,1,125
160,320,72591,2,0,P|128:224|160:192,1,125
160,96,72891,1,0,0:0:0:0:
352,96,73041,1,0,0:0:0:0:
384,160,73191,6,0,L|416:224,2,62.5
384,160,73491,2,0,L|320:64,2,62.5
288,64,73791,2,0,P|192:64|160:96,1,125
150,98,74091,1,0,0:0:0:0:
128,124,74166,1,0,0:0:0:0:
112,151,74241,1,0,0:0:0:0:
94,194,74391,2,0,P|89:261|181:254,1,125
201,244,74691,6,0,P|331:205|345:212,1,125
445,210,74991,1,0,0:0:0:0:
135,294,75141,1,0,0:0:0:0:
365,96,75291,1,0,0:0:0:0:
138,74,75441,5,0,0:0:0:0:
241,62,75591,1,0,0:0:0:0:
275,67,75666,1,0,0:0:0:0:
308,76,75741,1,0,0:0:0:0:
342,87,75816,1,0,0:0:0:0:
375,105,75891,1,0,0:0:0:0:
404,123,75966,1,0,0:0:0:0:
419,148,76041,1,0,0:0:0:0:
432,176,76116,1,0,0:0:0:0:
439,201,76191,2,0,P|405:257|388:246,3,62.5
417,281,76491,1,0,0:0:0:0:
394,303,76566,1,0,0:0:0:0:
369,317,76641,1,0,0:0:0:0:
344,329,76716,1,0,0:0:0:0:
323,336,76791,1,0,0:0:0:0:
296,340,76866,1,0,0:0:0:0:
267,339,76941,1,0,0:0:0:0:
231,339,77016,1,0,0:0:0:0:
202,334,77091,2,0,P|159:277|169:253,3,62.5
153,269,77391,1,0,0:0:0:0:
141,233,77466,1,0,0:0:0:0:
137,192,77541,1,0,0:0:0:0:
144,155,77616,1,0,0:0:0:0:
157,123,77691,1,0,0:0:0:0:
180,98,77766,1,0,0:0:0:0:
202,75,77841,1,0,0:0:0:0:
228,60,77916,1,0,0:0:0:0:
259,41,77991,1,0,0:0:0:0:
398,73,78141,5,0,0:0:0:0:
417,203,78291,1,0,0:0:0:0:
397,247,78366,1,0,0:0:0:0:
363,285,78441,1,0,0:0:0:0:
324,317,78516,1,0,0:0:0:0:
290,332,78591,2,0,P|212:305|199:275,6,62.5
144,217,79191,5,0,0:0:0:0:
291,67,79791,2,0,P|433:141|436:162,1,187.5
317,303,80391,2,0,P|199:296|194:262,1,125
133,185,80691,1,0,0:0:0:0:
406,188,80841,1,0,0:0:0:0:
270,176,80991,2,0,P|267:326|270:349,1,125
159,313,81291,1,0,0:0:0:0:
388,99,81441,1,0,0:0:0:0:
271,86,81591,1,0,0:0:0:0:
230,90,81666,1,0,0:0:0:0:
192,98,81741,1,0,0:0:0:0:
156,108,81891,6,0,P|107:224|131:242,1,125
166,303,82191,1,0,0:0:0:0:
201,319,82266,1,0,0:0:0:0:
234,325,82341,1,0,0:0:0:0:
274,324,82491,2,0,P|415:242|424:228,1,125
406,124,82791,2,0,P|281:83|275:90,1,125
112,157,83091,1,0,0:0:0:0:
258,305,83241,1,0,0:0:0:0:
395,158,83391,1,0,0:0:0:0:
210,67,83541,5,0,0:0:0:0:
166,182,83691,2,0,P|315:182|328:187,1,125
331,199,83991,1,0,0:0:0:0:
370,227,84066,1,0,0:0:0:0:
406,253,84141,1,0,0:0:0:0:
447,248,84291,2,0,P|481:125|465:105,1,125
451,99,84591,5,0,0:0:0:0:
418,70,84666,1,0,0:0:0:0:
380,48,84741,1,0,0:0:0:0:
348,42,84891,2,0,P|263:152|268:162,1,125
283,169,85191,2,0,P|231:294|224:294,1,125
141,294,85491,5,0,0:0:0:0:
146,98,85641,1,0,0:0:0:0:
388,306,85791,1,0,0:0:0:0:
385,117,85941,1,0,0:0:0:0:
443,151,86091,2,0,P|429:283|404:292,1,125
308,313,86391,1,0,0:0:0:0:
268,315,86466,1,0,0:0:0:0:
218,318,86541,1,0,0:0:0:0:
176,315,86691,6,0,P|148:192|171:177,1,125
207,102,86991,1,0,0:0:0:0:
250,85,87066,1,0,0:0:0:0:
297,83,87141,1,0,0:0:0:0:
344,87,87291,6,0,P|449:164|458:182,1,125
456,267,87591,1,0,0:0:0:0:
195,330,87741,1,0,0:0:0:0:
97,145,87891,1,0,0:0:0:0:
310,43,88041,1,0,0:0:0:0:
399,194,88191,1,0,0:0:0:0:
257,314,88341,1,0,0:0:0:0:
131,192,88491,1,0,0:0:0:0:
260,73,88641,1,0,0:0:0:0:
353,114,88791,6,0,L|349:255,1,125
169,255,89091,2,0,L|171:114,1,125
219,55,89391,2,0,L|348:54,1,125
339,217,89691,2,0,L|185:212,1,125
258,105,89991,2,0,L|257:251,1,125
258,319,90291,5,0,0:0:0:0:
258,107,90441,1,0,0:0:0:0:
336,193,90591,2,0,L|201:193,1,125
176,192,90891,1,0,0:0:0:0:
131,192,90966,1,0,0:0:0:0:
87,194,91041,1,0,0:0:0:0:
33,187,91191,6,0,P|112:99|138:103,1,125
213,83,91491,1,0,0:0:0:0:
245,89,91566,1,0,0:0:0:0:
282,94,91641,1,0,0:0:0:0:
323,105,91791,2,0,P|247:210|242:208,1,125
176,265,92091,1,0,0:0:0:0:
141,270,92166,1,0,0:0:0:0:
108,271,92241,1,0,0:0:0:0:
72,270,92391,2,0,P|134:157|151:159,1,125
252,56,92691,1,0,0:0:0:0:
257,297,92841,1,0,0:0:0:0:
412,261,92991,6,0,P|430:167|393:97,1,125
306,55,93291,1,0,0:0:0:0:
254,45,93366,1,0,0:0:0:0:
204,44,93441,1,0,0:0:0:0:
161,56,93591,2,0,P|96:188|99:192,1,125
84,202,93891,1,0,0:0:0:0:
88,246,93966,1,0,0:0:0:0:
94,294,94041,1,0,0:0:0:0:
103,330,94191,2,0,P|214:283|210:246,1,125
216,205,94491,5,0,0:0:0:0:
218,169,94566,1,0,0:0:0:0:
218,139,94641,1,0,0:0:0:0:
220,110,94791,2,0,P|384:80|416:112,1,187.500007152558
431,201,95241,1,0,0:0:0:0:
198,312,95391,1,0,0:0:0:0:
173,99,95541,1,0,0:0:0:0:
398,73,95691,2,0,P|425:216|409:235,1,125
293,249,95991,5,0,0:0:0:0:
250,251,96066,1,0,0:0:0:0:
205,251,96141,1,0,0:0:0:0:
107,208,96291,1,0,0:0:0:0:
107,160,96366,1,0,0:0:0:0:
111,109,96441,1,0,0:0:0:0:
250,51,96591,2,0,P|375:80|382:87,1,125
389,220,96891,2,0,P|246:269|234:264,1,125
184,133,97191,5,0,0:0:0:0:
402,83,97341,1,0,0:0:0:0:
330,303,97491,1,0,0:0:0:0:
127,253,97641,1,0,0:0:0:0:
159,51,97791,1,0,0:0:0:0:
216,281,97941,1,0,0:0:0:0:
334,112,98091,1,0,0:0:0:0:
84,192,98241,1,0,0:0:0:0:
140,105,98391,2,0,P|257:50|291:64,1,125
395,137,98691,6,0,P|371:266|337:287,1,125
231,310,98991,2,0,P|102:249|96:228,1,125
109,125,99291,2,0,P|218:41|241:46,1,125
409,92,99591,2,0,P|413:296|407:307,1,187.500007152558
257,193,100041,1,0,0:0:0:0:
108,88,100191,2,0,P|108:254|140:295,1,187.500007152558
257,193,100641,5,0,0:0:0:0:
299,67,100791,2,0,P|204:60|193:74,1,125
230,279,101091,2,0,P|314:275|350:255,1,125
177,235,101391,1,0,0:0:0:0:
159,188,101466,1,0,0:0:0:0:
141,138,101541,1,0,0:0:0:0:
237,62,101691,2,0,L|371:64,1,125
248,130,101991,6,0,L|245:331,2,187.500007152558
245,317,102741,1,0,0:0:0:0:
123,244,102891,2,0,P|175:160|206:155,1,125
243,153,103191,1,0,0:0:0:0:
298,154,103266,1,0,0:0:0:0:
343,164,103341,1,0,0:0:0:0:
412,233,103491,2,0,P|356:287|308:296,1,125
186,313,103791,5,0,0:0:0:0:
145,286,103866,1,0,0:0:0:0:
110,258,103941,1,0,0:0:0:0:
93,222,104091,2,0,P|127:115|152:93,1,125
254,252,104391,2,0,L|256:53,2,187.500007152558
254,252,105141,1,0,0:0:0:0:
349,303,105291,2,0,P|412:253|419:210,1,125
344,97,105591,1,0,0:0:0:0:
295,79,105666,1,0,0:0:0:0:
251,68,105741,1,0,0:0:0:0:
213,71,105891,6,0,P|136:125|129:150,1,125
180,299,106191,1,0,0:0:0:0:
222,328,106266,1,0,0:0:0:0:
268,338,106341,1,0,0:0:0:0:
312,342,106491,2,0,P|388:294|388:258,1,125
410,103,106791,2,0,P|354:67|285:84,1,125
274,122,107091,2,0,P|184:133|161:108,1,125
166,71,107391,2,0,P|257:48|299:84,1,125
384,130,107691,1,0,0:0:0:0:
408,170,107766,1,0,0:0:0:0:
422,206,107841,1,0,0:0:0:0:
424,255,107991,6,0,P|322:297|302:276,1,125
221,224,108291,1,0,0:0:0:0:
196,196,108366,1,0,0:0:0:0:
169,160,108441,1,0,0:0:0:0:
173,78,108591,2,0,P|251:64|278:103,1,125
295,135,108891,1,0,0:0:0:0:
315,175,108966,1,0,0:0:0:0:
337,210,109041,1,0,0:0:0:0:
373,304,109191,2,0,L|172:304,2,187.500007152558
185,304,109941,5,0,0:0:0:0:
196,122,110091,2,0,P|278:90|319:111,1,125
353,245,110391,2,0,P|294:295|235:300,1,125
127,247,110691,2,0,P|100:142|136:106,1,125
378,126,110991,2,0,P|415:192|397:244,1,125
285,255,111291,1,0,0:0:0:0:
237,255,111366,1,0,0:0:0:0:
187,258,111441,1,0,0:0:0:0:
142,182,111591,6,0,L|335:184,2,187.500007152558
329,183,112341,1,0,0:0:0:0:
185,85,112491,2,0,P|265:56|310:89,1,125
303,133,112791,2,0,P|226:140|183:100,1,125
392,94,113091,2,0,P|399:196|376:212,1,125
162,210,113391,2,0,P|126:135|169:82,1,125
178,82,113691,1,0,0:0:0:0:
219,56,113766,1,0,0:0:0:0:
262,39,113841,1,0,0:0:0:0:
339,83,113991,6,0,L|192:214,2,187.500007152558
199,207,114741,1,0,0:0:0:0:
317,185,114891,2,0,P|365:258|342:310,1,125
310,313,115191,1,0,0:0:0:0:
260,326,115266,1,0,0:0:0:0:
203,337,115341,1,0,0:0:0:0:
114,288,115491,2,0,P|103:212|155:146,1,125
187,126,115791,1,0,0:0:0:0:
226,101,115866,1,0,0:0:0:0:
265,80,115941,1,0,0:0:0:0:
374,96,116091,6,0,P|394:169|356:240,1,125
319,267,116391,1,0,0:0:0:0:
280,292,116466,1,0,0:0:0:0:
238,313,116541,1,0,0:0:0:0:
157,326,116691,2,0,P|133:253|187:194,1,125
301,197,116991,2,0,P|303:117|265:67,1,125
178,71,117291,2,0,P|126:146|130:208,1,125
227,267,117591,2,0,P|274:212|261:128,1,125
239,124,117891,5,0,0:0:0:0:
192,103,117966,1,0,0:0:0:0:
146,82,118041,1,0,0:0:0:0:
89,187,118191,1,0,0:0:0:0:
92,235,118266,1,0,0:0:0:0:
92,278,118341,1,0,0:0:0:0:
183,317,118491,2,0,P|294:294|312:244,1,125
319,128,118791,1,0,0:0:0:0:
