osu file format v12

[General]
AudioFilename: Kaichou_wa_Maid-sama!_-__Loop_(TV_Size).mp3
AudioLeadIn: 2000
PreviewTime: 46087
Countdown: 0
SampleSet: Normal
StackLeniency: 0.7
Mode: 1
LetterboxInBreaks: 0

[Editor]
DistanceSpacing: 1
BeatDivisor: 4
GridSize: 4

[Metadata]
Title:Loop (TV Size)
TitleUnicode:∞ Loop (TV Size)
Artist:heidi.
ArtistUnicode:heidi.
Creator:PainSinger
Version:Taiko Oni
Source:Kaichou wa Maid-sama!
Tags:ending KuronumaSawako
BeatmapID:181889
BeatmapSetID:30329

[Difficulty]
HPDrainRate:6
CircleSize:5
OverallDifficulty:6
ApproachRate:8
SliderMultiplier:1.70000000596046
SliderTickRate:2

[Events]
//Background and Video events
0,0,"Background.jpg",0,0
//Break Periods
//Storyboard Layer 0 (Background)
//Storyboard Layer 1 (Fail)
//Storyboard Layer 2 (Pass)
//Storyboard Layer 3 (Foreground)
//Storyboard Sound Samples
//Background Colour Transformations
3,100,163,162,255

[TimingPoints]
655,441.096470588235,4,2,1,50,1,0
4183,-100,4,1,1,70,0,1
18298,-100,4,2,1,50,0,0
46529,-100,4,1,1,70,0,1
71230,-100,4,1,1,50,0,0

[Colours]
Combo1 : 0,0,255
Combo2 : 255,0,0

[HitObjects]
256,192,3742,1,4,0:0:0:0:
288,144,4183,5,8,0:0:0:0:
308,120,4294,1,8,0:0:0:0:
320,148,4404,1,0,0:0:0:0:
352,224,4624,1,8,0:0:0:0:
376,248,4735,1,8,0:0:0:0:
344,256,4845,5,0,0:0:0:0:
240,312,5065,1,0,0:0:0:0:
272,324,5176,5,8,0:0:0:0:
264,292,5286,5,8,0:0:0:0:
216,264,5396,5,0,0:0:0:0:
148,256,5507,5,8,0:0:0:0:
168,236,5617,5,8,0:0:0:0:
132,224,5727,5,0,0:0:0:0:
128,128,5948,1,0,0:0:0:0:
176,76,6168,1,0,0:0:0:0:
264,60,6389,5,8,0:0:0:0:
340,88,6609,5,0,0:0:0:0:
412,140,6830,1,0,0:0:0:0:
432,224,7050,5,8,0:0:0:0:
360,208,7271,1,8,0:0:0:0:
268,248,7712,1,8,0:0:0:0:
280,272,7822,5,0,0:0:0:0:
248,280,7933,5,8,0:0:0:0:
152,224,8153,1,8,0:0:0:0:
156,264,8263,5,0,0:0:0:0:
120,252,8374,5,8,0:0:0:0:
108,128,8594,1,8,0:0:0:0:
148,100,8705,5,0,0:0:0:0:
156,140,8815,5,8,0:0:0:0:
224,64,9035,1,0,0:0:0:0:
304,48,9256,5,8,0:0:0:0:
392,96,9476,1,8,0:0:0:0:
416,132,9587,5,0,0:0:0:0:
372,136,9697,5,8,0:0:0:0:
400,216,9918,1,8,0:0:0:0:
368,280,10138,5,0,0:0:0:0:
300,300,10359,5,8,0:0:0:0:
224,296,10579,5,0,0:0:0:0:
152,252,10800,5,8,0:0:0:0:
120,176,11020,1,8,0:0:0:0:
156,64,11241,1,8,0:0:0:0:
204,72,11351,5,0,0:0:0:0:
172,104,11461,5,8,0:0:0:0:
304,68,11682,1,8,0:0:0:0:
344,48,11792,5,0,0:0:0:0:
340,92,11902,5,8,0:0:0:0:
396,160,12123,1,8,0:0:0:0:
428,184,12233,1,8,0:0:0:0:
392,196,12344,1,8,0:0:0:0:
392,236,12454,5,0,0:0:0:0:
392,272,12564,5,8,0:0:0:0:
308,292,12785,1,8,0:0:0:0:
224,296,13005,1,8,0:0:0:0:
212,260,13115,5,0,0:0:0:0:
180,292,13226,5,8,0:0:0:0:
96,220,13446,1,8,0:0:0:0:
128,156,13667,1,8,0:0:0:0:
56,164,13887,1,8,0:0:0:0:
40,140,13998,5,0,0:0:0:0:
80,124,14108,5,8,0:0:0:0:
156,76,14328,1,8,0:0:0:0:
292,88,14770,5,0,0:0:0:0:
328,104,14880,5,8,0:0:0:0:
296,124,14990,5,0,0:0:0:0:
424,152,15211,5,8,0:0:0:0:
456,148,15321,5,0,0:0:0:0:
448,180,15431,5,8,0:0:0:0:
352,228,15652,5,0,0:0:0:0:
384,248,15762,5,8,0:0:0:0:
352,260,15872,5,0,0:0:0:0:
264,248,16093,5,8,0:0:0:0:
224,308,16313,1,8,0:0:0:0:
120,256,16534,1,8,0:0:0:0:
140,232,16644,5,0,0:0:0:0:
108,232,16755,5,8,0:0:0:0:
104,148,16975,1,8,0:0:0:0:
140,68,17196,1,8,0:0:0:0:
196,148,17416,1,8,0:0:0:0:
224,112,17526,5,0,0:0:0:0:
236,152,17637,5,8,0:0:0:0:
268,120,17747,5,0,0:0:0:0:
288,160,17857,5,8,0:0:0:0:
380,216,18298,1,8,0:0:0:0:
388,256,18409,5,0,0:0:0:0:
352,240,18519,1,0,0:0:0:0:
316,324,18739,5,8,0:0:0:0:
280,344,18850,5,0,0:0:0:0:
284,308,18960,1,0,0:0:0:0:
180,292,19181,5,8,0:0:0:0:
112,256,19401,1,8,0:0:0:0:
180,212,19622,5,0,0:0:0:0:
104,180,19842,1,0,0:0:0:0:
160,112,20063,5,8,0:0:0:0:
192,112,20173,5,0,0:0:0:0:
176,84,20283,1,0,0:0:0:0:
260,64,20504,5,8,0:0:0:0:
296,64,20614,5,0,0:0:0:0:
276,100,20724,5,8,0:0:0:0:
364,108,20945,1,0,0:0:0:0:
428,168,21165,1,8,0:0:0:0:
400,252,21386,5,8,0:0:0:0:
436,256,21496,5,0,0:0:0:0:
416,292,21607,1,8,0:0:0:0:
328,328,21827,5,8,0:0:0:0:
256,292,22048,1,8,0:0:0:0:
196,324,22268,5,0,0:0:0:0:
180,244,22489,1,0,0:0:0:0:
108,292,22709,5,8,0:0:0:0:
72,288,22820,5,0,0:0:0:0:
100,256,22930,1,0,0:0:0:0:
72,224,23040,1,0,0:0:0:0:
72,184,23150,5,8,0:0:0:0:
104,104,23371,1,8,0:0:0:0:
136,76,23481,5,0,0:0:0:0:
140,112,23592,1,0,0:0:0:0:
232,72,23812,1,0,0:0:0:0:
312,72,24033,5,8,0:0:0:0:
272,136,24253,5,0,0:0:0:0:
228,196,24474,5,8,0:0:0:0:
360,144,24915,5,0,0:0:0:0:
416,260,25135,5,8,0:0:0:0:
436,296,25246,5,0,0:0:0:0:
404,296,25356,1,0,0:0:0:0:
336,264,25576,1,0,0:0:0:0:
328,332,25797,5,8,0:0:0:0:
216,304,26018,1,0,0:0:0:0:
192,336,26128,5,8,0:0:0:0:
168,300,26238,1,8,0:0:0:0:
128,312,26348,1,0,0:0:0:0:
108,272,26459,1,8,0:0:0:0:
80,192,26679,5,8,0:0:0:0:
120,120,26900,5,0,0:0:0:0:
192,64,27120,5,8,0:0:0:0:
232,64,27231,5,0,0:0:0:0:
216,92,27341,1,0,0:0:0:0:
328,56,27561,5,8,0:0:0:0:
360,56,27672,5,0,0:0:0:0:
344,88,27782,1,0,0:0:0:0:
416,136,28002,5,8,0:0:0:0:
444,176,28113,5,0,0:0:0:0:
440,224,28223,1,8,0:0:0:0:
412,260,28333,1,8,0:0:0:0:
392,296,28444,1,0,0:0:0:0:
304,220,28664,5,8,0:0:0:0:
296,260,28774,5,0,0:0:0:0:
272,232,28885,5,8,0:0:0:0:
184,216,29105,5,0,0:0:0:0:
176,256,29215,5,8,0:0:0:0:
148,232,29326,5,0,0:0:0:0:
112,140,29546,5,8,0:0:0:0:
144,132,29657,5,0,0:0:0:0:
120,108,29767,5,8,0:0:0:0:
216,80,29987,5,0,0:0:0:0:
256,72,30098,5,8,0:0:0:0:
240,104,30208,5,0,0:0:0:0:
348,76,30429,1,0,0:0:0:0:
424,128,30649,5,8,0:0:0:0:
428,208,30870,5,0,0:0:0:0:
412,288,31090,5,8,0:0:0:0:
340,328,31311,5,0,0:0:0:0:
324,252,31531,5,8,0:0:0:0:
292,276,31642,1,0,0:0:0:0:
264,304,31752,1,8,0:0:0:0:
236,220,31972,5,0,0:0:0:0:
264,104,32413,1,12,0:0:0:0:
192,124,32634,1,8,0:0:0:0:
172,60,32855,5,12,0:0:0:0:
216,80,33075,1,8,0:0:0:0:
248,36,33296,5,12,0:0:0:0:
196,20,33406,1,0,0:0:0:0:
64,208,33516,1,8,0:0:0:0:
84,128,33737,1,8,0:0:0:0:
152,96,33957,5,0,0:0:0:0:
228,68,34178,5,8,0:0:0:0:
264,64,34288,5,0,0:0:0:0:
256,96,34398,1,0,0:0:0:0:
344,92,34619,1,0,0:0:0:0:
408,148,34839,5,8,0:0:0:0:
424,184,34950,5,0,0:0:0:0:
388,184,35060,1,0,0:0:0:0:
392,260,35281,5,8,0:0:0:0:
312,312,35501,5,0,0:0:0:0:
232,280,35722,1,0,0:0:0:0:
180,192,35942,1,12,0:0:0:0:
212,180,36163,5,8,0:0:0:0:
144,212,36383,1,12,0:0:0:0:
148,248,36604,5,8,0:0:0:0:
180,268,36714,5,0,0:0:0:0:
152,292,36824,5,8,0:0:0:0:
48,160,37045,1,8,0:0:0:0:
64,236,37266,5,0,0:0:0:0:
128,280,37486,5,8,0:0:0:0:
208,280,37707,1,8,0:0:0:0:
248,272,37817,5,0,0:0:0:0:
216,248,37927,1,0,0:0:0:0:
272,180,38148,5,8,0:0:0:0:
300,204,38258,5,0,0:0:0:0:
308,164,38368,5,8,0:0:0:0:
396,120,38589,1,8,0:0:0:0:
412,80,38699,5,0,0:0:0:0:
368,84,38809,1,0,0:0:0:0:
288,56,39030,5,8,0:0:0:0:
240,112,39250,1,8,0:0:0:0:
176,56,39471,5,12,0:0:0:0:
124,112,39692,5,8,0:0:0:0:
136,156,39912,1,12,0:0:0:0:
76,184,40133,5,8,0:0:0:0:
88,220,40243,5,0,0:0:0:0:
128,232,40353,5,8,0:0:0:0:
240,300,40574,1,8,0:0:0:0:
300,284,40794,1,8,0:0:0:0:
368,260,41015,5,0,0:0:0:0:
376,172,41235,5,8,0:0:0:0:
408,144,41346,5,0,0:0:0:0:
372,136,41456,1,0,0:0:0:0:
308,64,41676,5,8,0:0:0:0:
272,44,41787,5,0,0:0:0:0:
272,88,41897,5,8,0:0:0:0:
172,80,42118,1,8,0:0:0:0:
132,60,42228,5,0,0:0:0:0:
140,96,42338,1,0,0:0:0:0:
96,180,42559,5,8,0:0:0:0:
184,240,42779,1,8,0:0:0:0:
92,276,43000,1,8,0:0:0:0:
264,296,43220,5,0,0:0:0:0:
296,292,43331,1,0,0:0:0:0:
280,272,43441,1,0,0:0:0:0:
348,216,43661,5,8,0:0:0:0:
344,132,43882,5,0,0:0:0:0:
300,68,44103,1,0,0:0:0:0:
260,48,44213,1,0,0:0:0:0:
264,76,44323,1,0,0:0:0:0:
180,84,44544,1,0,0:0:0:0:
172,116,44654,1,0,0:0:0:0:
148,100,44764,5,8,0:0:0:0:
128,320,46529,1,0,0:0:0:0:
96,292,46639,5,8,0:0:0:0:
136,280,46749,5,0,0:0:0:0:
104,196,46970,1,0,0:0:0:0:
144,184,47080,5,8,0:0:0:0:
112,156,47190,5,0,0:0:0:0:
176,100,47411,1,0,0:0:0:0:
204,80,47521,5,8,0:0:0:0:
208,116,47631,5,0,0:0:0:0:
264,96,47742,1,0,0:0:0:0:
304,72,47852,5,8,0:0:0:0:
344,64,47962,1,8,0:0:0:0:
328,100,48072,5,0,0:0:0:0:
420,148,48293,1,0,0:0:0:0:
444,168,48403,1,0,0:0:0:0:
416,184,48513,5,8,0:0:0:0:
352,236,48734,1,8,0:0:0:0:
416,272,48955,5,0,0:0:0:0:
360,300,49175,1,0,0:0:0:0:
296,272,49396,1,0,0:0:0:0:
236,332,49616,5,8,0:0:0:0:
160,300,49837,1,8,0:0:0:0:
180,220,50057,1,8,0:0:0:0:
136,224,50168,5,0,0:0:0:0:
156,192,50278,1,0,0:0:0:0:
140,112,50498,5,8,0:0:0:0:
172,84,50609,5,0,0:0:0:0:
140,76,50719,1,0,0:0:0:0:
252,80,50939,5,8,0:0:0:0:
296,64,51050,5,0,0:0:0:0:
336,80,51160,1,0,0:0:0:0:
376,104,51270,1,0,0:0:0:0:
416,92,51381,5,8,0:0:0:0:
440,112,51491,5,0,0:0:0:0:
404,136,51601,1,0,0:0:0:0:
436,208,51822,5,8,0:0:0:0:
452,244,51932,5,0,0:0:0:0:
412,240,52042,1,0,0:0:0:0:
380,320,52263,5,8,0:0:0:0:
344,336,52373,5,0,0:0:0:0:
348,304,52483,1,0,0:0:0:0:
244,272,52704,5,8,0:0:0:0:
168,276,52924,5,0,0:0:0:0:
140,192,53145,5,8,0:0:0:0:
104,192,53255,5,0,0:0:0:0:
128,164,53366,5,8,0:0:0:0:
200,100,53586,1,8,0:0:0:0:
268,80,53807,5,0,0:0:0:0:
304,76,53917,1,0,0:0:0:0:
352,72,54027,5,8,0:0:0:0:
316,140,54248,5,0,0:0:0:0:
396,136,54468,5,8,0:0:0:0:
352,208,54689,5,0,0:0:0:0:
416,256,54909,5,8,0:0:0:0:
408,296,55020,5,0,0:0:0:0:
380,276,55130,5,8,0:0:0:0:
324,328,55350,1,8,0:0:0:0:
264,292,55571,5,0,0:0:0:0:
176,224,55792,5,8,0:0:0:0:
208,208,55902,5,0,0:0:0:0:
184,188,56012,1,0,0:0:0:0:
124,116,56233,5,8,0:0:0:0:
200,72,56453,1,8,0:0:0:0:
232,72,56563,5,0,0:0:0:0:
216,100,56674,1,0,0:0:0:0:
328,108,56894,5,8,0:0:0:0:
416,108,57115,1,8,0:0:0:0:
456,132,57225,5,0,0:0:0:0:
420,148,57335,5,8,0:0:0:0:
448,228,57556,1,8,0:0:0:0:
440,268,57666,5,0,0:0:0:0:
412,244,57776,5,8,0:0:0:0:
368,328,57997,1,8,0:0:0:0:
360,292,58107,5,0,0:0:0:0:
336,316,58218,5,8,0:0:0:0:
248,252,58438,5,0,0:0:0:0:
140,280,58659,1,0,0:0:0:0:
84,208,58879,5,8,0:0:0:0:
112,192,58990,1,8,0:0:0:0:
80,180,59100,1,8,0:0:0:0:
136,108,59320,5,0,0:0:0:0:
200,72,59541,5,8,0:0:0:0:
236,64,59651,5,0,0:0:0:0:
224,96,59761,5,8,0:0:0:0:
356,76,59982,1,8,0:0:0:0:
432,76,60203,1,8,0:0:0:0:
424,160,60423,1,8,0:0:0:0:
464,168,60533,5,0,0:0:0:0:
440,200,60644,5,8,0:0:0:0:
360,256,60864,5,0,0:0:0:0:
320,192,61085,5,8,0:0:0:0:
268,272,61305,1,8,0:0:0:0:
240,256,61416,5,0,0:0:0:0:
240,296,61526,1,0,0:0:0:0:
156,268,61746,5,8,0:0:0:0:
84,184,61967,5,0,0:0:0:0:
124,168,62077,5,8,0:0:0:0:
92,152,62187,1,8,0:0:0:0:
144,92,62408,1,8,0:0:0:0:
208,68,62629,5,0,0:0:0:0:
280,52,62849,5,8,0:0:0:0:
384,60,63070,1,8,0:0:0:0:
416,64,63180,5,0,0:0:0:0:
396,88,63290,5,8,0:0:0:0:
384,156,63511,1,8,0:0:0:0:
428,164,63621,5,0,0:0:0:0:
400,192,63731,5,8,0:0:0:0:
328,228,63952,5,0,0:0:0:0:
208,248,64172,5,8,0:0:0:0:
208,280,64283,5,0,0:0:0:0:
240,268,64393,1,0,0:0:0:0:
304,328,64613,5,8,0:0:0:0:
392,308,64834,5,0,0:0:0:0:
452,252,65055,5,8,0:0:0:0:
472,228,65165,5,0,0:0:0:0:
440,224,65275,5,8,0:0:0:0:
420,192,65385,5,0,0:0:0:0:
400,168,65496,5,8,0:0:0:0:
288,80,65716,1,8,0:0:0:0:
276,56,65827,5,0,0:0:0:0:
308,56,65937,1,0,0:0:0:0:
180,112,66157,1,0,0:0:0:0:
120,56,66378,5,8,0:0:0:0:
112,128,66598,5,0,0:0:0:0:
136,208,66819,5,8,0:0:0:0:
176,200,66929,5,0,0:0:0:0:
160,236,67040,1,0,0:0:0:0:
248,256,67260,5,8,0:0:0:0:
328,268,67481,1,8,0:0:0:0:
372,264,67591,5,0,0:0:0:0:
340,236,67701,5,8,0:0:0:0:
408,152,67922,5,0,0:0:0:0:
388,72,68142,5,8,0:0:0:0:
288,68,68363,5,0,0:0:0:0:
216,168,68583,5,8,0:0:0:0:
252,176,68694,5,0,0:0:0:0:
248,144,68804,1,0,0:0:0:0:
164,88,69024,5,8,0:0:0:0:
116,140,69245,5,0,0:0:0:0:
120,236,69466,5,8,0:0:0:0:
200,292,69686,5,0,0:0:0:0:
320,304,69907,5,8,0:0:0:0:
392,228,70127,5,0,0:0:0:0:
400,188,70237,5,8,0:0:0:0:
368,200,70348,5,0,0:0:0:0:
376,164,70458,1,0,0:0:0:0:
408,152,70568,1,0,0:0:0:0:
384,124,70679,1,0,0:0:0:0:
424,116,70789,5,0,0:0:0:0:
396,88,70899,5,8,0:0:0:0:
216,144,71230,5,8,0:0:0:0:
248,160,71340,5,0,0:0:0:0:
224,184,71450,1,0,0:0:0:0:
352,156,71671,5,8,0:0:0:0:
392,140,71781,5,0,0:0:0:0:
384,176,71892,1,0,0:0:0:0:
292,244,72112,5,8,0:0:0:0:
332,248,72222,5,0,0:0:0:0:
312,280,72333,1,0,0:0:0:0:
208,304,72553,1,0,0:0:0:0:
124,292,72774,1,0,0:0:0:0:
84,220,72994,5,8,0:0:0:0:
116,212,73105,5,0,0:0:0:0:
92,192,73215,1,0,0:0:0:0:
128,116,73435,5,8,0:0:0:0:
168,120,73546,5,0,0:0:0:0:
148,88,73656,5,8,0:0:0:0:
248,80,73877,1,8,0:0:0:0:
284,80,73987,5,0,0:0:0:0:
268,112,74097,5,8,0:0:0:0:
372,108,74318,5,0,0:0:0:0:
336,176,74538,5,8,0:0:0:0:
420,188,74759,1,8,0:0:0:0:
436,224,74869,5,0,0:0:0:0:
392,220,74979,1,0,0:0:0:0:
344,304,75200,5,8,0:0:0:0:
312,332,75310,5,0,0:0:0:0:
308,300,75420,1,0,0:0:0:0:
184,304,75641,5,8,0:0:0:0:
216,296,75751,5,0,0:0:0:0:
192,272,75861,1,0,0:0:0:0:
148,272,75972,1,0,0:0:0:0:
104,260,76082,5,8,0:0:0:0:
128,188,76303,5,0,0:0:0:0:
192,120,76523,5,8,0:0:0:0:
232,112,76633,5,0,0:0:0:0:
208,96,76744,1,0,0:0:0:0:
332,96,76964,5,8,0:0:0:0:
364,88,77074,5,0,0:0:0:0:
336,64,77185,1,0,0:0:0:0:
404,168,77405,5,8,0:0:0:0:
440,160,77516,5,0,0:0:0:0:
432,192,77626,1,0,0:0:0:0:
416,268,77846,1,0,0:0:0:0:
344,300,78067,5,8,0:0:0:0:
276,264,78287,1,8,0:0:0:0:
240,260,78398,5,0,0:0:0:0:
252,296,78508,5,8,0:0:0:0:
152,252,78729,1,8,0:0:0:0:
152,288,78839,5,0,0:0:0:0:
116,272,78949,5,8,0:0:0:0:
100,152,79170,1,8,0:0:0:0:
132,152,79280,5,0,0:0:0:0:
120,128,79390,5,8,0:0:0:0:
144,96,79500,5,0,0:0:0:0:
192,84,79611,5,8,0:0:0:0:
272,68,79831,5,0,0:0:0:0:
360,88,80052,5,8,0:0:0:0:
412,104,80162,5,0,0:0:0:0:
376,128,80272,5,8,0:0:0:0:
404,208,80493,1,8,0:0:0:0:
316,216,80714,5,0,0:0:0:0:
360,296,80934,5,8,0:0:0:0:
352,332,81044,5,0,0:0:0:0:
324,304,81155,5,8,0:0:0:0:
220,292,81375,1,8,0:0:0:0:
144,288,81596,1,8,0:0:0:0:
136,212,81816,1,8,0:0:0:0:
168,200,81927,5,0,0:0:0:0:
136,180,82037,5,8,0:0:0:0:
152,96,82257,1,8,0:0:0:0:
192,100,82368,5,0,0:0:0:0:
176,72,82478,5,8,0:0:0:0:
280,64,82698,1,8,0:0:0:0:
312,56,82809,5,0,0:0:0:0:
308,92,82919,5,8,0:0:0:0:
352,88,83029,5,0,0:0:0:0:
376,116,83140,5,8,0:0:0:0:
396,216,83360,5,0,0:0:0:0:
392,300,83581,5,8,0:0:0:0:
316,316,83801,5,0,0:0:0:0:
236,264,84022,5,8,0:0:0:0:
128,216,84242,5,0,0:0:0:0:
144,196,84353,1,0,0:0:0:0:
112,192,84463,1,0,0:0:0:0:
164,104,84683,5,8,0:0:0:0:
240,64,84904,1,8,0:0:0:0:
348,40,85124,1,0,0:0:0:0:
340,88,85235,1,0,0:0:0:0:
320,128,85345,5,4,0:0:0:0:
256,192,85566,12,0,88433,0:0:0:0:
