osu file format v12

[General]
AudioFilename: Kaichou_wa_Maid-sama!_-__Loop_(TV_Size).mp3
AudioLeadIn: 2000
PreviewTime: 46087
Countdown: 0
SampleSet: Normal
StackLeniency: 0.7
Mode: 0
LetterboxInBreaks: 0

[Editor]
DistanceSpacing: 1
BeatDivisor: 4
GridSize: 4

[Metadata]
Title:Loop (TV Size)
TitleUnicode:∞ Loop (TV Size)
Artist:heidi.
ArtistUnicode:heidi.
Creator:PainSinger
Version:Normal
Source:Kaichou wa Maid-sama!
Tags:ending KuronumaSawako
BeatmapID:181884
BeatmapSetID:30329

[Difficulty]
HPDrainRate:4
CircleSize:3
OverallDifficulty:4
ApproachRate:5
SliderMultiplier:1.10000000596046
SliderTickRate:1

[Events]
//Background and Video events
Video,0,"Kaichou-wa-Maid-sama-Ending-2.avi"
0,0,"Background.jpg",0,0
//Break Periods
//Storyboard Layer 0 (Background)
//Storyboard Layer 1 (Fail)
//Storyboard Layer 2 (Pass)
//Storyboard Layer 3 (Foreground)
//Storyboard Sound Samples
//Background Colour Transformations
3,100,163,162,255

[TimingPoints]
213,441.096470588235,4,2,1,50,1,0
655,441.096470588235,4,2,1,50,1,0
4183,-100,4,1,1,70,0,1
18298,-100,4,2,1,50,0,0
44764,-100,4,1,1,50,0,0
45205,-100,4,2,1,50,0,0
46529,-100,4,1,1,70,0,1
71230,-100,4,1,1,80,0,0
72112,-100,4,1,1,60,0,0
85786,-100,4,1,1,40,0,0
86227,-100,4,1,1,35,0,0
86668,-100,4,1,1,30,0,0
87109,-100,4,1,1,25,0,0
87551,-100,4,1,1,20,0,0
87992,-100,4,2,1,15,0,0
88433,-100,4,2,1,5,0,0

[Colours]
Combo1 : 60,157,255
Combo2 : 154,53,255
Combo3 : 232,151,0
Combo4 : 200,26,26

[HitObjects]
152,88,213,2,0,B|116:128|112:192,2,110.000000596046,0|0|0,0:0|0:0|0:0,0:0:0:0:
256,52,1537,1,0,0:0:0:0:
360,88,1978,2,0,B|396:128|400:192,1,110.000000596046,0|0,0:0|0:0,0:0:0:0:
340,280,2860,1,0,0:0:0:0:
340,280,3081,2,0,B|264:328|180:280,1,165.000000894069,0|0,0:0|0:0,0:0:0:0:
124,192,4183,6,0,B|120:128|172:96,1,110.000000596046,4|8,0:0|0:0,0:0:0:0:
276,80,5065,2,0,B|280:144|228:176,1,110.000000596046,0|8,0:0|0:0,0:0:0:0:
124,192,5948,2,0,B|128:264|176:280,2,110.000000596046,0|8|0,0:0|0:0|0:0,0:0:0:0:
232,196,7271,1,8,0:0:0:0:
292,288,7712,38,0,B|340:248|340:184,1,110.000000596046,4|8,0:0|0:0,0:0:0:0:
336,84,8594,2,0,B|396:88|428:136,1,110.000000596046,2|8,0:0|0:0,0:0:0:0:
476,236,9476,2,0,B|465:293|413:321,3,110.000000596046,0|8|2|8,0:0|0:0|0:0|0:0,0:0:0:0:
304,344,11241,22,0,B|248:376|196:344,1,110.000000596046,4|8,0:0|0:0,0:0:0:0:
140,256,12123,2,0,B|252:256,1,110.000000596046,2|8,0:0|0:0,0:0:0:0:
308,164,13005,38,0,B|252:132|200:164,1,110.000000596046,0|8,0:0|0:0,0:0:0:0:
108,112,13887,1,2,0:0:0:0:
80,220,14328,1,8,0:0:0:0:
188,232,14770,38,0,B|160:288|188:344,1,110.000000596046,4|8,0:0|0:0,0:0:0:0:
284,288,15652,2,0,B|344:276|364:220,1,110.000000596046,2|8,0:0|0:0,0:0:0:0:
440,144,16534,38,0,B|396:104|336:116,1,110.000000596046,0|8,0:0|0:0,0:0:0:0:
240,64,17416,1,2,0:0:0:0:
144,120,17857,1,8,0:0:0:0:
104,220,18298,38,0,B|124:276|184:296,1,110.000000596046,4|8,0:0|0:0,0:0:0:0:
284,264,19181,2,0,B|284:152,1,110.000000596046,2|8,0:0|0:0,0:0:0:0:
220,64,20063,2,0,B|160:68|132:120,1,110.000000596046,2|8,0:0|0:0,0:0:0:0:
92,224,20945,1,2,0:0:0:0:
156,312,21386,1,8,0:0:0:0:
248,252,21827,6,0,B|300:280|356:252,1,110.000000596046,2|8,0:0|0:0,0:0:0:0:
300,160,22709,1,2,0:0:0:0:
272,56,23150,2,0,B|208:80|200:132,1,110.000000596046,8|2,0:0|0:0,0:0:0:0:
148,228,24033,1,8,0:0:0:0:
212,316,24474,2,0,B|252:352|316:340,1,110.000000596046,2|2,0:0|0:0,0:0:0:0:
376,248,25356,6,0,B|408:192|388:136,1,110.000000596046,4|8,0:0|0:0,0:0:0:0:
284,180,26238,1,2,0:0:0:0:
212,96,26679,1,8,0:0:0:0:
104,88,27120,2,0,B|100:152|148:184,1,110.000000596046,0|8,0:0|0:0,0:0:0:0:
228,260,28002,2,0,B|208:316|148:328,1,110.000000596046,8|2,0:0|0:0,0:0:0:0:
52,276,28885,5,4,0:0:0:0:
48,168,29326,1,8,0:0:0:0:
112,80,29767,1,2,0:0:0:0:
216,44,30208,2,0,B|276:48|316:84,1,110.000000596046,8|4,0:0|0:0,0:0:0:0:
316,196,31090,2,0,B|276:232|216:236,1,110.000000596046,4|4,0:0|0:0,0:0:0:0:
164,140,31972,1,8,0:0:0:0:
56,120,32413,6,0,B|8:220|52:336,1,220.000001192092,4|2,0:0|0:0,0:0:0:0:
160,352,33737,1,0,0:0:0:0:
228,264,34178,5,4,0:0:0:0:
312,336,34619,1,0,0:0:0:0:
392,260,35060,2,0,B|448:236|456:176,1,110.000000596046,8|8,0:0|0:0,0:0:0:0:
444,68,35942,6,0,P|344:104|292:200,1,220.000001192092,4|0,0:0|0:0,0:0:0:0:
300,308,37266,1,2,0:0:0:0:
192,300,37707,6,0,B|88:268|60:136,1,220.000001192092,0|0,0:0|0:0,0:0:0:0:
136,56,39030,1,2,0:0:0:0:
232,112,39471,6,0,B|312:32|432:40,1,220.000001192092,4|8,0:0|0:0,0:0:0:0:
460,148,40794,1,2,0:0:0:0:
412,248,41235,5,4,0:0:0:0:
256,92,42118,1,0,0:0:0:0:
104,248,43000,2,0,P|176:332|240:344,1,165.000000894069,4|0,0:0|0:0,0:0:0:0:
336,224,44323,5,0,0:0:0:0:
440,192,44764,2,0,B|440:302,2,110.000000596046
440,84,46087,1,2,0:0:0:0:
344,140,46529,6,0,B|368:192|344:248,1,110.000000596046,4|8,0:0|0:0,0:0:0:0:
308,348,47411,2,0,B|256:372|200:348,1,110.000000596046,2|8,0:0|0:0,0:0:0:0:
164,244,48293,2,0,B|140:192|164:136,1,110.000000596046,0|8,0:0|0:0,0:0:0:0:
200,32,49175,2,0,B|256:12|308:32,1,110.000000596046,2|8,0:0|0:0,0:0:0:0:
364,128,50057,5,4,0:0:0:0:
408,228,50498,1,8,0:0:0:0:
300,216,50939,2,0,B|264:256|200:248,1,110.000000596046,2|8,0:0|0:0,0:0:0:0:
160,144,51822,2,0,B|100:168|88:228,1,110.000000596046,0|8,0:0|0:0,0:0:0:0:
148,316,52704,2,0,B|256:348|364:316,1,220.000001192092,2|4,0:0|0:0,0:0:0:0:
448,248,54027,5,8,0:0:0:0:
440,140,54468,2,0,B|416:88|356:76,1,110.000000596046,2|8,0:0|0:0,0:0:0:0:
276,152,55350,2,0,B|232:108|248:48,1,110.000000596046,0|8,0:0|0:0,0:0:0:0:
136,56,56233,1,2,0:0:0:0:
88,156,56674,1,8,0:0:0:0:
140,252,57115,6,0,B|192:276|248:252,1,110.000000596046,4|8,0:0|0:0,0:0:0:0:
316,168,57997,2,0,B|372:192|380:256,1,110.000000596046,2|8,0:0|0:0,0:0:0:0:
296,324,58879,1,0,0:0:0:0:
404,352,59320,2,0,L|444:312,1,55.000000298023,8|0,0:0|0:0,0:0:0:0:
480,208,59982,2,0,B|480:152,1,55.000000298023,0|8,0:0|0:0,0:0:0:0:
372,128,60644,5,4,0:0:0:0:
268,96,61085,1,8,0:0:0:0:
160,112,61526,2,0,B|120:156|132:216,1,110.000000596046,2|8,0:0|0:0,0:0:0:0:
148,324,62408,2,0,B|196:352|256:336,2,110.000000596046,0|8|2,0:0|0:0|0:0,0:0:0:0:
212,236,63731,1,8,0:0:0:0:
240,128,64172,6,0,B|300:148|316:204,1,110.000000596046,4|8,0:0|0:0,0:0:0:0:
392,284,65055,2,0,B|448:268|468:208,2,110.000000596046,2|8|0,0:0|0:0|0:0,0:0:0:0:
288,324,66378,1,8,0:0:0:0:
184,284,66819,1,2,0:0:0:0:
120,192,67260,5,8,0:0:0:0:
120,192,67481,2,0,L|120:164,2,27.5000001490115,0|4|0,0:0|0:0|0:0,0:0:0:0:
228,192,68142,1,8,0:0:0:0:
228,192,68363,2,0,L|256:192,2,27.5000001490115,0|0|0,0:0|0:0|0:0,0:0:0:0:
256,84,69024,1,8,0:0:0:0:
156,40,69466,1,4,0:0:0:0:
68,108,69907,2,0,B|72:168|116:204,2,110.000000596046,8|2|8,0:0|0:0|0:0,0:0:0:0:
172,144,71230,6,0,B|216:180|220:240,1,110.000000596046,4|8,0:0|0:0,0:0:0:0:
280,332,72112,2,0,B|324:296|328:236,1,110.000000596046,2|8,0:0|0:0,0:0:0:0:
380,140,72994,6,0,B|328:112|276:140,1,110.000000596046,0|8,0:0|0:0,0:0:0:0:
164,152,73877,1,2,0:0:0:0:
84,228,74318,1,8,0:0:0:0:
188,260,74759,6,0,B|184:324|228:356,1,110.000000596046,4|8,0:0|0:0,0:0:0:0:
296,268,75641,2,0,B|328:220|316:160,1,110.000000596046,2|8,0:0|0:0,0:0:0:0:
304,52,76523,21,0,0:0:0:0:
216,120,76964,1,8,0:0:0:0:
128,56,77405,2,0,B|72:68|44:120,1,110.000000596046,2|8,0:0|0:0,0:0:0:0:
44,232,78287,38,0,B|64:288|124:300,1,110.000000596046,4|8,0:0|0:0,0:0:0:0:
232,288,79170,1,2,0:0:0:0:
336,256,79611,2,0,B|384:220|380:156,1,110.000000596046,8|0,0:0|0:0,0:0:0:0:
360,52,80493,37,8,0:0:0:0:
276,120,80934,1,2,0:0:0:0:
188,52,81375,1,8,0:0:0:0:
100,120,81816,38,0,B|64:164|72:224,1,110.000000596046,4|8,0:0|0:0,0:0:0:0:
104,328,82698,2,0,B|156:356|212:328,1,110.000000596046,2|8,0:0|0:0,0:0:0:0:
256,228,83581,38,0,B|256:116,2,110.000000596046,0|8|2,0:0|0:0|0:0,0:0:0:0:
256,336,84904,1,8,0:0:0:0:
352,280,85345,1,4,0:0:0:0:
256,192,85566,12,2,88433,0:0:0:0:
