osu file format v12

[General]
AudioFilename: Kaichou_wa_Maid-sama!_-__Loop_(TV_Size).mp3
AudioLeadIn: 2000
PreviewTime: 46087
Countdown: 0
SampleSet: Soft
StackLeniency: 0.7
Mode: 0
LetterboxInBreaks: 0

[Editor]
DistanceSpacing: 1
BeatDivisor: 4
GridSize: 4

[Metadata]
Title:Loop (TV Size)
TitleUnicode:∞ Loop (TV Size)
Artist:heidi.
ArtistUnicode:heidi.
Creator:PainSinger
Version:Insane
Source:Kaichou wa Maid-sama!
Tags:ending KuronumaSawako
BeatmapID:181883
BeatmapSetID:30329

[Difficulty]
HPDrainRate:7
CircleSize:5
OverallDifficulty:7
ApproachRate:8
SliderMultiplier:1.60000000596046
SliderTickRate:2

[Events]
//Background and Video events
Video,0,"Kaichou-wa-Maid-sama-Ending-2.avi"
0,0,"Background.jpg",0,0
//Break Periods
//Storyboard Layer 0 (Background)
//Storyboard Layer 1 (Fail)
//Storyboard Layer 2 (Pass)
//Storyboard Layer 3 (Foreground)
//Storyboard Sound Samples
//Background Colour Transformations
3,100,163,162,255

[TimingPoints]
213,441.096470588235,4,2,1,50,1,0
655,441.096470588235,4,2,1,50,1,0
4183,-100,4,1,1,70,0,1
18298,-100,4,2,1,50,0,0
34178,-200,4,2,1,50,0,0
44103,-100,4,2,1,50,0,0
46529,-100,4,1,1,70,0,1
71230,-100,4,1,1,70,0,0
71671,-100,4,1,1,60,0,0
85786,-100,4,1,1,40,0,0
86227,-100,4,1,1,35,0,0
86668,-100,4,1,1,30,0,0
87109,-100,4,1,1,25,0,0
87551,-100,4,1,1,20,0,0
87992,-100,4,2,1,15,0,0
88433,-100,4,2,1,5,0,0

[Colours]
Combo1 : 60,157,255
Combo2 : 154,53,255
Combo3 : 232,151,0
Combo4 : 200,26,26

[HitObjects]
256,192,213,1,0,0:0:0:0:
116,116,655,2,0,B|76:192|112:272,2,160.000000596046,0|0|0,0:0|0:0|0:0,0:0:0:0:
256,48,1978,2,0,B|344:60|376:144,1,160.000000596046,0|0,0:0|0:0,0:0:0:0:
352,220,2639,1,0,0:0:0:0:
300,280,2860,1,0,0:0:0:0:
232,320,3081,2,0,B|144:308|112:224,1,160.000000596046,0|0,0:0|0:0,0:0:0:0:
164,168,3742,1,0,0:0:0:0:
316,88,4183,6,0,B|372:144,1,80.000000298023
356,224,4624,2,0,B|300:280,1,80.000000298023,8|0,0:0|0:0,0:0:0:0:
212,280,5065,2,0,B|152:220,1,80.000000298023,2|0,0:0|0:0,0:0:0:0:
140,144,5507,2,0,B|196:88,1,80.000000298023,8|0,0:0|0:0,0:0:0:0:
276,100,5948,6,0,B|220:156,1,80.000000298023
220,236,6389,2,0,B|276:292,1,80.000000298023,8|0,0:0|0:0,0:0:0:0:
356,292,6830,2,0,B|412:236,1,80.000000298023,2|0,0:0|0:0,0:0:0:0:
416,156,7271,2,0,B|356:96,1,80.000000298023,8|0,0:0|0:0,0:0:0:0:
324,188,7712,5,4,0:0:0:0:
308,224,7822,1,0,0:0:0:0:
276,244,7933,1,2,0:0:0:0:
204,276,8153,2,0,B|124:276,1,80.000000298023,8|0,0:0|0:0,0:0:0:0:
16,160,8594,2,0,B|96:160,1,80.000000298023,2|0,0:0|0:0,0:0:0:0:
204,40,9035,2,0,L|124:40,1,80.000000298023,8|0,0:0|0:0,0:0:0:0:
300,116,9476,6,0,B|276:152|300:192,1,80.000000298023,4|0,0:0|0:0,0:0:0:0:
368,152,9918,1,8,0:0:0:0:
432,100,10138,1,0,0:0:0:0:
480,164,10359,1,2,0:0:0:0:
420,216,10579,1,0,0:0:0:0:
448,292,10800,1,8,0:0:0:0:
368,284,11020,1,0,0:0:0:0:
316,344,11241,21,4,0:0:0:0:
276,332,11351,1,0,0:0:0:0:
256,296,11461,1,2,0:0:0:0:
280,220,11682,1,8,0:0:0:0:
260,184,11792,1,0,0:0:0:0:
224,168,11902,1,2,0:0:0:0:
144,184,12123,1,2,0:0:0:0:
108,168,12233,1,0,0:0:0:0:
92,132,12344,1,2,0:0:0:0:
128,60,12564,2,0,B|208:60,1,80.000000298023,8|0,0:0|0:0,0:0:0:0:
288,76,13005,38,0,B|320:108,2,40.0000001490115,4|0|0,0:0|0:0|0:0,0:0:0:0:
368,60,13446,1,8,0:0:0:0:
432,108,13667,2,0,B|428:152|392:176,1,80.000000298023,0|2,0:0|0:0,0:0:0:0:
312,176,14108,1,0,0:0:0:0:
236,196,14328,2,0,B|240:240|272:264,1,80.000000298023,8|0,0:0|0:0,0:0:0:0:
348,284,14770,38,0,B|336:324|296:340,1,80.000000298023,4|0,0:0|0:0,0:0:0:0:
216,340,15211,2,0,B|176:328|164:284,1,80.000000298023,8|0,0:0|0:0,0:0:0:0:
164,204,15652,2,0,B|176:160|216:148,1,80.000000298023,2|0,0:0|0:0,0:0:0:0:
296,148,16093,2,0,B|336:160|348:204,1,80.000000298023,8|0,0:0|0:0,0:0:0:0:
404,264,16534,37,4,0:0:0:0:
428,340,16755,1,0,0:0:0:0:
496,300,16975,1,8,0:0:0:0:
472,224,17196,1,0,0:0:0:0:
404,184,17416,1,2,0:0:0:0:
424,148,17526,1,0,0:0:0:0:
412,108,17637,1,2,0:0:0:0:
352,56,17857,1,8,0:0:0:0:
312,128,18078,1,4,0:0:0:0:
276,56,18298,5,4,0:0:0:0:
216,104,18519,1,0,0:0:0:0:
160,160,18739,2,0,B|124:184|132:232,2,80.000000298023,8|0|2,0:0|0:0|0:0,0:0:0:0:
240,160,19401,2,0,B|276:184|268:236,2,80.000000298023,0|8|0,0:0|0:0|0:0,0:0:0:0:
200,228,20063,2,0,B|200:308,1,80.000000298023
200,308,20394,1,0,0:0:0:0:
200,308,20504,1,8,0:0:0:0:
272,340,20724,1,0,0:0:0:0:
344,308,20945,5,2,0:0:0:0:
380,288,21055,1,0,0:0:0:0:
396,252,21165,1,0,0:0:0:0:
396,172,21386,1,8,0:0:0:0:
352,104,21607,1,0,0:0:0:0:
280,64,21827,6,0,B|196:76|144:144,1,160.000000596046,4|8,0:0|0:0,0:0:0:0:
68,124,22489,1,0,0:0:0:0:
96,204,22709,1,2,0:0:0:0:
80,240,22820,1,0,0:0:0:0:
96,276,22930,1,0,0:0:0:0:
168,240,23150,2,0,B|248:240,1,80.000000298023,8|0,0:0|0:0,0:0:0:0:
256,160,23592,6,0,B|296:144|336:160,1,80.000000298023,0|0,0:0|0:0,0:0:0:0:
256,316,24033,2,0,B|296:332|336:316,1,80.000000298023,8|0,0:0|0:0,0:0:0:0:
364,240,24474,2,0,B|404:240,2,40.0000001490115,2|0|0,0:0|0:0|0:0,0:0:0:0:
280,240,24915,1,8,0:0:0:0:
240,172,25135,1,8,0:0:0:0:
240,172,25246,1,0,0:0:0:0:
240,172,25356,6,0,B|248:124|288:108,1,80.000000298023,4|0,0:0|0:0,0:0:0:0:
320,180,25797,2,0,B|356:165|364:117,1,80.000000298023,8|0,0:0|0:0,0:0:0:0:
340,40,26238,1,2,0:0:0:0:
380,36,26348,1,0,0:0:0:0:
420,52,26459,1,0,0:0:0:0:
460,120,26679,1,8,0:0:0:0:
432,196,26900,1,0,0:0:0:0:
396,268,27120,6,0,B|424:296,2,40.0000001490115,0|0|0,0:0|0:0|0:0,0:0:0:0:
328,308,27561,1,8,0:0:0:0:
256,308,27782,1,0,0:0:0:0:
184,276,28002,1,2,0:0:0:0:
172,236,28113,1,0,0:0:0:0:
136,212,28223,1,0,0:0:0:0:
80,272,28444,1,8,0:0:0:0:
40,252,28554,1,0,0:0:0:0:
32,212,28664,1,0,0:0:0:0:
32,132,28885,5,4,0:0:0:0:
108,28,29105,1,0,0:0:0:0:
156,148,29326,1,4,0:0:0:0:
232,48,29546,1,0,0:0:0:0:
280,168,29767,1,4,0:0:0:0:
356,64,29987,1,0,0:0:0:0:
480,104,30208,2,0,B|500:140|480:180,1,80.000000298023,8|0,0:0|0:0,0:0:0:0:
456,212,30539,1,0,0:0:0:0:
432,244,30649,1,4,0:0:0:0:
352,256,30870,5,0,0:0:0:0:
300,320,31090,2,0,B|260:340|228:308,1,80.000000298023,4|0,0:0|0:0,0:0:0:0:
156,348,31531,1,2,0:0:0:0:
124,324,31642,1,0,0:0:0:0:
100,292,31752,1,0,0:0:0:0:
92,252,31862,1,0,0:0:0:0:
96,212,31972,2,0,B|124:140|204:96,1,160.000000596046,8|4,0:0|0:0,0:0:0:0:
256,192,32524,12,0,33737,0:0:0:0:
180,172,34178,6,0,B|184:128|220:108,1,80.000000298023,4|8,0:0|0:0,0:0:0:0:
296,84,34839,1,0,0:0:0:0:
280,164,35060,1,2,0:0:0:0:
356,140,35281,1,0,0:0:0:0:
428,108,35501,1,2,0:0:0:0:
416,188,35722,1,0,0:0:0:0:
428,268,35942,6,0,B|416:332|344:360,1,120.000000447034,4|0,0:0|0:0,0:0:0:0:
272,352,36824,1,8,0:0:0:0:
264,272,37045,1,0,0:0:0:0:
208,216,37266,1,2,0:0:0:0:
52,244,37707,6,0,B|28:212|32:168,1,80.000000298023,4|8,0:0|0:0,0:0:0:0:
92,116,38368,1,0,0:0:0:0:
148,56,38589,2,0,B|192:64|208:104,1,80.000000298023,8|8,0:0|0:0,0:0:0:0:
228,180,39250,1,0,0:0:0:0:
308,184,39471,2,0,B|356:180|372:144,1,80.000000298023,4|8,0:0|0:0,0:0:0:0:
412,72,40133,1,0,0:0:0:0:
468,128,40353,1,8,0:0:0:0:
468,128,40463,1,0,0:0:0:0:
468,128,40574,1,0,0:0:0:0:
452,208,40794,6,0,B|448:248|416:276,1,80.000000298023,0|4,0:0|0:0,0:0:0:0:
352,228,41456,1,0,0:0:0:0:
344,308,41676,2,0,B|316:332|268:324,1,80.000000298023,8|2,0:0|0:0,0:0:0:0:
192,296,42338,1,0,0:0:0:0:
220,220,42559,1,8,0:0:0:0:
152,180,42779,1,0,0:0:0:0:
152,180,42889,1,0,0:0:0:0:
152,180,43000,1,4,0:0:0:0:
92,232,43220,1,0,0:0:0:0:
88,344,43441,2,0,B|48:344,1,40.0000001490115,8|0,0:0|0:0,0:0:0:0:
32,184,44103,6,0,B|0:104|32:28,1,160.000000596046
104,64,44764,1,4,0:0:0:0:
260,32,45205,1,0,0:0:0:0:
356,160,45646,1,4,0:0:0:0:
288,200,45867,5,2,0:0:0:0:
308,276,46087,1,2,0:0:0:0:
236,308,46308,1,2,0:0:0:0:
128,192,46529,6,0,B|208:192,1,80.000000298023,4|0,0:0|0:0,0:0:0:0:
212,32,46970,2,0,B|212:112,1,80.000000298023,8|0,0:0|0:0,0:0:0:0:
372,116,47411,2,0,B|292:116,1,80.000000298023,2|0,0:0|0:0,0:0:0:0:
292,276,47852,2,0,B|292:192,1,80.000000298023,8|0,0:0|0:0,0:0:0:0:
372,192,48293,5,2,0:0:0:0:
400,220,48403,1,0,0:0:0:0:
428,248,48513,1,0,0:0:0:0:
428,328,48734,2,0,B|468:328,2,40.0000001490115,8|0|0,0:0|0:0|0:0,0:0:0:0:
348,336,49175,1,2,0:0:0:0:
292,276,49396,1,0,0:0:0:0:
268,308,49506,1,0,0:0:0:0:
240,336,49616,1,8,0:0:0:0:
168,336,49837,1,0,0:0:0:0:
92,232,50057,6,0,B|72:192|92:156,1,80.000000298023,4|0,0:0|0:0,0:0:0:0:
216,116,50498,2,0,B|236:152|216:192,1,80.000000298023,8|0,0:0|0:0,0:0:0:0:
320,192,50939,2,0,B|300:152|320:116,1,80.000000298023,4|0,0:0|0:0,0:0:0:0:
440,156,51381,2,0,B|460:192|440:232,1,80.000000298023,8|0,0:0|0:0,0:0:0:0:
384,116,51822,5,4,0:0:0:0:
340,32,52042,1,0,0:0:0:0:
288,116,52263,1,8,0:0:0:0:
240,32,52483,1,0,0:0:0:0:
192,116,52704,1,2,0:0:0:0:
192,156,52814,1,0,0:0:0:0:
224,180,52924,1,0,0:0:0:0:
208,260,53145,1,8,0:0:0:0:
132,232,53366,1,0,0:0:0:0:
256,132,53586,5,4,0:0:0:0:
308,192,53807,1,0,0:0:0:0:
256,244,54027,1,8,0:0:0:0:
200,192,54248,1,0,0:0:0:0:
180,268,54468,1,2,0:0:0:0:
156,300,54579,1,0,0:0:0:0:
116,300,54689,1,0,0:0:0:0:
60,240,54909,6,0,B|64:192|100:176,2,80.000000298023,8|0|4,0:0|0:0|0:0,0:0:0:0:
44,276,55461,1,0,0:0:0:0:
44,316,55571,1,0,0:0:0:0:
112,360,55792,1,8,0:0:0:0:
192,352,56012,1,0,0:0:0:0:
200,312,56122,1,0,0:0:0:0:
240,304,56233,1,2,0:0:0:0:
280,236,56453,2,0,B|304:200|348:196,1,80.000000298023,0|8,0:0|0:0,0:0:0:0:
404,248,56894,1,0,0:0:0:0:
460,180,57115,6,0,B|428:100|340:84,2,160.000000596046,4|8|2,0:0|0:0|0:0,0:0:0:0:
484,256,58218,1,0,0:0:0:0:
404,248,58438,2,0,B|372:220|328:232,1,80.000000298023,8|0,0:0|0:0,0:0:0:0:
312,312,58879,1,4,0:0:0:0:
236,292,59100,2,0,B|228:332|184:348,1,80.000000298023,0|8,0:0|0:0,0:0:0:0:
116,308,59541,1,0,0:0:0:0:
80,292,59651,1,0,0:0:0:0:
52,264,59761,1,2,0:0:0:0:
40,224,59872,1,0,0:0:0:0:
44,184,59982,6,0,B|56:140|84:112,1,80.000000298023,0|8,0:0|0:0,0:0:0:0:
144,152,60423,1,0,0:0:0:0:
168,76,60644,1,4,0:0:0:0:
228,128,60864,1,0,0:0:0:0:
248,48,61085,2,0,B|272:12|320:16,1,80.000000298023,8|0,0:0|0:0,0:0:0:0:
336,48,61416,1,0,0:0:0:0:
352,84,61526,2,0,B|396:96|408:136,1,80.000000298023,2|0,0:0|0:0,0:0:0:0:
404,216,61967,5,8,0:0:0:0:
428,292,62187,1,0,0:0:0:0:
348,280,62408,1,4,0:0:0:0:
324,312,62518,1,0,0:0:0:0:
284,300,62629,2,0,B|252:272|256:228,2,80.000000298023,0|8|0,0:0|0:0|0:0,0:0:0:0:
208,328,63290,5,2,0:0:0:0:
36,280,63511,1,0,0:0:0:0:
28,120,63731,1,8,0:0:0:0:
180,172,63952,1,0,0:0:0:0:
208,328,64172,5,4,0:0:0:0:
288,332,64393,2,0,B|332:324|348:280,1,80.000000298023,0|8,0:0|0:0,0:0:0:0:
276,248,64834,1,0,0:0:0:0:
288,212,64944,1,0,0:0:0:0:
316,184,65055,1,2,0:0:0:0:
396,196,65275,2,0,B|424:164|420:120,1,80.000000298023,0|8,0:0|0:0,0:0:0:0:
340,108,65716,5,0,0:0:0:0:
272,64,65937,1,4,0:0:0:0:
272,144,66157,1,0,0:0:0:0:
204,104,66378,1,8,0:0:0:0:
208,184,66598,2,0,B|152:240,1,80.000000298023,0|2,0:0|0:0,0:0:0:0:
76,212,67040,5,0,0:0:0:0:
80,172,67150,1,0,0:0:0:0:
100,136,67260,2,0,B|108:92|144:72,1,80.000000298023,8|0,0:0|0:0,0:0:0:0:
216,44,67701,2,0,B|256:28|296:40,1,80.000000298023,4|0,0:0|0:0,0:0:0:0:
368,76,68142,2,0,B|408:92|416:136,1,80.000000298023,8|0,0:0|0:0,0:0:0:0:
436,212,68583,1,2,0:0:0:0:
424,248,68694,1,0,0:0:0:0:
392,272,68804,1,0,0:0:0:0:
312,264,69024,6,0,B|272:284|260:324,1,80.000000298023,8|0,0:0|0:0,0:0:0:0:
188,360,69466,2,0,B|152:340|148:296,1,80.000000298023,4|0,0:0|0:0,0:0:0:0:
144,216,69907,1,8,0:0:0:0:
196,160,70127,1,0,0:0:0:0:
220,128,70237,1,0,0:0:0:0:
244,96,70348,2,0,B|284:76|320:96,2,80.000000298023,2|0|8,0:0|0:0|0:0,0:0:0:0:
164,92,71009,1,0,0:0:0:0:
96,132,71230,5,4,0:0:0:0:
80,168,71340,1,0,0:0:0:0:
84,208,71450,1,0,0:0:0:0:
120,280,71671,1,8,0:0:0:0:
180,324,71892,1,0,0:0:0:0:
260,308,72112,1,2,0:0:0:0:
296,292,72222,1,0,0:0:0:0:
316,256,72333,1,0,0:0:0:0:
340,180,72553,2,0,B|336:136|304:108,1,80.000000298023,8|0,0:0|0:0,0:0:0:0:
240,68,72994,6,0,B|200:48|160:68,1,80.000000298023,4|0,0:0|0:0,0:0:0:0:
112,128,73435,2,0,B|84:156|80:200,1,80.000000298023,8|0,0:0|0:0,0:0:0:0:
104,276,73877,2,0,B|76:304,2,40.0000001490115,2|0|0,0:0|0:0|0:0,0:0:0:0:
180,256,74318,1,8,0:0:0:0:
260,268,74538,1,0,0:0:0:0:
340,260,74759,6,0,B|372:236|380:192,1,80.000000298023,4|0,0:0|0:0,0:0:0:0:
372,112,75200,1,8,0:0:0:0:
356,76,75310,1,0,0:0:0:0:
316,64,75420,1,0,0:0:0:0:
236,60,75641,2,0,B|196:48,2,40.0000001490115,2|0|0,0:0|0:0|0:0,0:0:0:0:
212,136,76082,1,8,0:0:0:0:
140,100,76303,1,0,0:0:0:0:
140,180,76523,22,0,B|116:216|128:256,1,80.000000298023,4|0,0:0|0:0,0:0:0:0:
188,308,76964,2,0,B|220:332|264:328,1,80.000000298023,8|0,0:0|0:0,0:0:0:0:
340,312,77405,1,2,0:0:0:0:
388,252,77626,1,0,0:0:0:0:
356,228,77736,1,0,0:0:0:0:
312,236,77846,1,8,0:0:0:0:
296,156,78067,1,0,0:0:0:0:
304,76,78287,38,0,B|264:60|224:76,1,80.000000298023,4|0,0:0|0:0,0:0:0:0:
156,116,78729,2,0,B|128:88,2,40.0000001490115,8|0|0,0:0|0:0|0:0,0:0:0:0:
128,192,79170,2,0,B|88:192,2,40.0000001490115,2|0|0,0:0|0:0|0:0,0:0:0:0:
152,268,79611,2,0,B|124:296,2,40.0000001490115,8|0|0,0:0|0:0|0:0,0:0:0:0:
224,300,80052,38,0,B|260:320|300:300,1,80.000000298023,4|0,0:0|0:0,0:0:0:0:
356,244,80493,1,8,0:0:0:0:
392,172,80714,1,0,0:0:0:0:
312,180,80934,2,0,B|240:144,1,80.000000298023,2|0,0:0|0:0,0:0:0:0:
240,104,81265,1,0,0:0:0:0:
240,64,81375,1,8,0:0:0:0:
160,56,81596,1,0,0:0:0:0:
112,120,81816,37,4,0:0:0:0:
92,160,81927,1,0,0:0:0:0:
112,192,82037,1,0,0:0:0:0:
132,268,82257,2,0,B|104:296,2,40.0000001490115,8|0|0,0:0|0:0|0:0,0:0:0:0:
208,296,82698,1,2,0:0:0:0:
240,320,82809,1,0,0:0:0:0:
276,304,82919,1,0,0:0:0:0:
328,244,83140,2,0,B|356:272,2,40.0000001490115,8|0|0,0:0|0:0|0:0,0:0:0:0:
348,164,83581,6,0,B|336:116|300:100,1,80.000000298023,4|0,0:0|0:0,0:0:0:0:
224,80,84022,1,8,0:0:0:0:
152,112,84242,1,0,0:0:0:0:
120,140,84353,1,0,0:0:0:0:
128,180,84463,1,2,0:0:0:0:
164,252,84683,2,0,B|204:272|208:316,1,80.000000298023,0|8,0:0|0:0,0:0:0:0:
180,344,85014,1,0,0:0:0:0:
140,356,85124,1,8,0:0:0:0:
84,300,85345,1,4,0:0:0:0:
256,192,85566,12,2,88433,0:0:0:0:
