osu file format v5

[General]
AudioFilename: 05- לא שם זין.mp3
AudioLeadIn: 0
PreviewTime: -1
Countdown: 1
SampleSet: None
StackLeniency: 0.7
Mode: 0

[Metadata]
Title:lo sam zain
Artist:hatzel
Creator:idanlevi
Version:Easy
Source:
Tags:

[Difficulty]
HPDrainRate:2
CircleSize:4
OverallDifficulty:3
SliderMultiplier:1.4
SliderTickRate:4

[Events]
//Background and Video events
//Break Periods
//Storyboard Layer 0 (Background)
//Storyboard Layer 1 (Failing)
//Storyboard Layer 2 (Passing)
//Storyboard Layer 3 (Foreground)
//Storyboard Sound Samples
//Background Colour Transformations
3,100,163,162,255

[TimingPoints]
0,1000,4,0,0,100

[HitObjects]
32,160,22127,1,0
96,160,22665,1,0
160,160,23116,1,0
224,160,23588,1,0
480,160,24096,5,0
416,160,24620,1,0
352,160,25121,1,0
288,160,25517,1,0
32,160,26169,5,0
96,160,26681,1,0
160,192,27143,1,0
192,160,27604,1,0
288,160,28106,1,0
448,192,28630,5,0
384,192,29117,1,0
320,192,29629,1,0
256,192,30116,1,0
192,192,30629,1,0
128,192,31120,1,0
192,128,31555,5,0
288,128,32141,1,0
192,128,32617,1,0
288,128,33104,1,0
192,128,33617,1,0
320,64,34064,5,0
256,64,34540,1,0
192,64,35115,1,0
128,64,35628,1,0
256,96,36140,1,0
352,128,36653,1,0
256,160,37114,1,0
160,128,37601,5,0
192,64,38125,1,0
320,64,38575,1,0
288,160,39004,1,0
128,128,39441,2,0,B|352:256,3,140
288,160,42989,1,0
192,160,43590,1,0
288,96,44055,1,0
192,96,44641,5,0
192,96,45113,1,0
192,96,45626,1,0
256,192,46080,12,0,49819
160,96,50244,1,0
256,128,50632,1,0
192,160,51094,1,0
288,192,51643,1,0
192,224,52130,1,0
288,256,52569,1,0
256,192,53016,12,0,53792
128,96,54107,2,0,B|288:128|288:128,4,140
320,128,58641,1,0
224,128,59117,1,0
128,128,59615,1,0
288,64,60142,1,0
192,64,60615,1,0
256,128,61102,1,0
192,160,61442,1,0
256,192,61966,12,0,64676
128,96,65163,1,0
288,128,65602,1,0
128,160,66100,1,0
288,192,66613,1,0
128,224,67126,1,0
288,256,67613,1,0
256,192,68001,12,0,69836
160,128,70074,2,0,B|320:128,3,140
288,128,74098,1,0
192,128,74596,1,0
288,64,75124,1,0
192,64,75599,1,0
256,128,76098,1,0
224,96,76563,1,0
320,64,77035,5,0
256,96,77610,1,0
192,96,78107,1,0
128,96,78569,1,0
160,160,78998,5,0
224,160,79569,1,0
288,160,80082,1,0
256,96,80448,1,0
192,96,81045,1,0
256,192,81323,12,0,82319
96,96,82594,2,0,B|256:96,1,140
160,96,84656,1,0
96,96,85132,1,0
192,160,85582,1,0
128,160,86054,1,0
192,96,86618,1,0
128,96,87105,1,0
192,160,87593,1,0
192,160,88156,5,0
256,160,88607,1,0
256,160,89130,1,0
256,160,89618,1,0
192,160,90116,5,0
160,96,90592,1,0
224,96,91082,1,0
192,128,91628,1,0
160,128,92115,1,0
160,128,92580,1,0
128,128,93104,1,0
96,128,93602,1,0
128,128,94118,1,0
128,128,94580,1,0
160,128,95114,1,0
256,192,95477,12,0,96641
128,96,97103,2,0,B|288:96,3,140
256,96,100537,1,0
192,96,101101,1,0
128,96,101599,1,0
224,96,102087,1,0
192,96,102361,1,0
192,96,102599,1,0
192,96,102837,1,0
160,96,103101,1,0
160,96,103361,1,0
160,96,103562,1,0
224,96,104086,1,0
288,96,104613,1,0
256,192,105075,12,0,106675
160,128,106898,2,0,B|352:128,3,140
352,128,110872,1,0
352,128,111121,1,0
256,128,111564,1,0
256,128,112120,1,0
160,128,112596,1,0
64,96,113124,1,0
192,64,113607,1,0
192,160,114098,1,0
96,192,114657,5,0
128,224,115072,1,0
224,224,115585,1,0
256,192,115921,12,0,117522
192,128,118108,2,0,B|320:160|224:192|160:256|256:224|256:256|192:288|160:320|96:224|128:128|320:128|320:192|224:320|160:352|128:320|128:320|96:288|160:224|160:224,2,420
128,128,126655,1,0
224,160,127105,1,0
192,224,127640,1,0
128,192,128142,1,0
128,192,128380,1,0
160,160,128654,1,0
160,160,128892,1,0
256,192,129116,1,0
288,192,129416,1,0
320,192,129965,5,0
256,192,130566,1,0
160,160,131079,1,0
192,224,131565,1,0
224,160,132054,1,0
224,192,132591,1,0
224,224,133125,1,0
192,224,133664,1,0
128,224,134140,1,0
160,224,134638,1,0
160,192,135114,1,0
192,192,135714,5,0
192,224,136051,1,0
160,224,136549,1,0
128,192,137077,1,0
192,192,137501,1,0
160,192,138087,1,0
160,192,138366,1,0
160,224,138637,1,0
160,224,138890,1,0
128,224,139179,1,0
128,224,139387,1,0
96,224,139651,1,0
256,192,140101,12,0,141636
96,64,142112,1,0
224,96,142562,1,0
96,128,143053,1,0
224,160,143573,1,0
96,192,144086,1,0
224,224,144536,1,0
96,256,145111,1,0
224,288,145609,1,0
96,320,146111,1,0
224,352,146583,1,0
96,352,147136,1,0
128,288,147634,1,0
224,288,148096,1,0
128,224,148608,1,0
256,192,148996,12,0,149835
128,160,150110,2,0,B|224:160|320:160,2,140
288,128,153109,1,0
224,128,153607,1,0
256,160,154135,1,0
256,160,154369,1,0
256,224,154633,1,0
256,224,154882,1,0
256,256,155094,1,0
256,256,155358,1,0
224,256,155607,1,0
256,192,156020,12,0,157771
128,160,158082,2,0,B|352:160,2,140
320,160,160594,1,0
192,160,161107,1,0
256,64,161605,1,0
256,192,162081,1,0
160,128,162605,1,0
288,128,163044,5,0
224,160,163604,1,0
256,192,164117,1,0
224,192,164604,1,0
256,192,165131,1,0
224,192,165629,1,0
256,192,166168,12,0,167665
128,96,168090,2,0,B|256:128|256:128,4,0
192,96,172616,1,0
96,128,173100,1,0
192,160,173587,1,0
96,192,174089,1,0
192,224,174601,1,0
96,256,175077,1,0
128,128,175381,1,0
160,128,175616,1,0
224,160,176114,1,0
320,192,176626,1,0
256,192,176905,12,0,177776
160,128,178139,2,0,B|320:128,2,140
320,128,180610,1,0
192,128,181090,1,0
192,128,181336,1,0
192,128,181625,1,0
