osu file format v14

[General]
AudioFilename: .mp3
AudioLeadIn: 0
PreviewTime: -1
Countdown: 1
SampleSet: None
StackLeniency: 0.7
Mode: 0
LetterboxInBreaks: 1
WidescreenStoryboard: 0

[Editor]
DistanceSpacing: 0.6
BeatDivisor: 4
GridSize: 8
TimelineZoom: 1

[Metadata]
Title:tuki kage mai hana
TitleUnicode:月・影・舞・華
Artist:hatunemiku
ArtistUnicode:初音ミク
Creator:yousann
Version:
Source:
Tags:
BeatmapID:964669
BeatmapSetID:341276

[Difficulty]
HPDrainRate:7
CircleSize:5
OverallDifficulty:7
ApproachRate:9
SliderMultiplier:1.4
SliderTickRate:1

[Events]
//Background and Video events
Video,0,"_アイワナ.avi"
0,0,"screenshot102.png",0,0
//Break Periods
2,44668,50787
2,99784,111502
//Storyboard Layer 0 (Background)
//Storyboard Layer 1 (Fail)
//Storyboard Layer 2 (Pass)
//Storyboard Layer 3 (Foreground)
//Storyboard Sound Samples

[TimingPoints]
24203,373.668804882606,4,1,0,100,1,0
151361,-66.6666666666667,4,1,0,100,0,0
157127,-100,4,1,0,100,0,0
169365,-66.6666666666667,4,1,0,100,0,0
181509,-133.333333333333,4,1,0,100,0,0
189917,-66.6666666666667,4,1,0,100,0,0
193934,-100,4,1,0,100,0,0

[HitObjects]
256,192,12144,12,0,16534,0:0:0:0:
224,208,17386,6,0,L|288:208,2,35
112,72,17851,2,0,L|208:72,1,70
384,112,18224,2,0,L|464:120,1,70
280,248,18598,2,0,L|224:296,1,70
248,160,18972,1,0,0:0:0:0:
168,328,19159,1,0,0:0:0:0:
152,48,19346,1,0,0:0:0:0:
120,208,19533,1,0,0:0:0:0:
296,56,19720,1,0,0:0:0:0:
448,80,20465,5,0,0:0:0:0:
448,72,20558,1,0,0:0:0:0:
448,64,20652,1,0,0:0:0:0:
67,114,20839,2,0,L|147:130,1,70
136,128,21213,2,0,L|216:152,1,70
208,152,21586,2,0,L|264:200,1,70
136,256,21960,1,0,0:0:0:0:
384,256,22147,1,0,0:0:0:0:
384,192,22334,1,0,0:0:0:0:
136,192,22521,1,0,0:0:0:0:
136,128,22708,1,0,0:0:0:0:
384,128,22895,1,0,0:0:0:0:
256,192,23081,1,0,0:0:0:0:
72,80,23456,6,0,L|136:80,2,35
360,128,23830,2,0,L|320:192,1,70
112,216,24204,2,0,P|176:256|184:256,1,70
264,272,24577,2,0,L|336:256,1,70
424,160,24951,1,0,0:0:0:0:
248,160,25138,1,0,0:0:0:0:
264,64,25325,1,0,0:0:0:0:
272,288,25511,1,0,0:0:0:0:
64,152,25698,1,0,0:0:0:0:
72,304,26445,5,0,0:0:0:0:
72,304,26538,1,0,0:0:0:0:
72,304,26631,1,0,0:0:0:0:
128,72,26818,2,0,L|208:72|208:72,1,70
352,88,27192,2,0,L|440:80,1,70
256,216,27566,2,0,L|352:208,1,70
176,304,27939,2,0,L|256:296,1,70
416,168,28313,2,0,L|392:248,1,70
120,184,28687,2,0,L|216:184,2,70
256,192,29241,12,0,31676,0:0:0:0:
256,72,32145,6,0,L|256:144,2,70
384,200,32892,2,0,L|328:264,1,70
144,176,33265,2,0,L|184:256,1,70
240,56,33639,2,0,L|328:56,1,70
272,176,34012,1,0,0:0:0:0:
272,176,34293,1,0,0:0:0:0:
272,176,34386,1,0,0:0:0:0:
272,176,34573,1,0,0:0:0:0:
272,176,34760,1,0,0:0:0:0:
104,304,35133,6,0,L|176:304,2,70
416,200,35881,2,0,L|368:272,1,70
88,64,36254,2,0,L|176:64|176:64,1,70
320,120,36628,2,0,L|256:184,1,70
256,96,37002,1,0,0:0:0:0:
376,192,37189,1,0,0:0:0:0:
328,304,37375,1,0,0:0:0:0:
176,304,37562,1,0,0:0:0:0:
144,192,37749,1,0,0:0:0:0:
120,80,38123,5,0,0:0:0:0:
256,80,38310,1,0,0:0:0:0:
400,88,38496,1,0,0:0:0:0:
104,176,38870,2,0,L|144:256,1,70
424,176,39244,2,0,P|368:240|368:248,2,70
104,272,39991,2,0,L|248:272,1,140
244,272,40552,1,0,0:0:0:0:
244,272,40738,1,0,0:0:0:0:
256,224,41111,5,0,0:0:0:0:
96,80,41298,1,0,0:0:0:0:
400,80,41485,1,0,0:0:0:0:
120,240,41858,1,0,0:0:0:0:
320,72,42045,1,0,0:0:0:0:
176,328,42232,1,0,0:0:0:0:
368,280,42420,1,0,0:0:0:0:
368,280,42513,1,0,0:0:0:0:
368,280,42607,1,0,0:0:0:0:
360,280,42793,1,0,0:0:0:0:
256,192,43066,12,0,44468,0:0:0:0:
176,88,51387,5,0,0:0:0:0:
344,96,51761,1,0,0:0:0:0:
200,248,52134,1,0,0:0:0:0:
400,280,52508,1,0,0:0:0:0:
288,176,52882,1,0,0:0:0:0:
88,200,53255,1,0,0:0:0:0:
408,88,53629,1,0,0:0:0:0:
240,80,54003,1,0,0:0:0:0:
240,80,54189,1,0,0:0:0:0:
240,80,54376,1,0,0:0:0:0:
248,232,54750,1,0,0:0:0:0:
136,272,55304,6,0,L|208:272,2,70
352,96,56051,1,0,0:0:0:0:
264,264,56425,1,0,0:0:0:0:
104,72,56799,1,0,0:0:0:0:
296,152,57172,1,0,0:0:0:0:
96,168,57546,1,0,0:0:0:0:
440,64,58293,1,0,0:0:0:0:
136,144,59141,1,0,0:0:0:0:
376,152,59328,1,0,0:0:0:0:
136,144,59515,1,0,0:0:0:0:
376,152,59701,1,0,0:0:0:0:
128,280,59888,2,0,L|264:176,1,140
416,64,60635,6,0,L|312:192,1,140
328,176,61196,1,0,0:0:0:0:
328,176,61383,1,0,0:0:0:0:
120,88,61756,2,0,P|96:120|112:168,1,70
392,80,62130,2,0,P|400:128|392:168,1,70
400,152,62504,1,0,0:0:0:0:
400,152,62690,1,0,0:0:0:0:
400,152,62877,1,0,0:0:0:0:
144,272,63251,6,0,L|224:272,2,70
104,112,63998,2,0,P|184:128|256:80,2,140
240,248,65119,1,0,0:0:0:0:
280,64,65307,1,0,0:0:0:0:
280,64,65400,1,0,0:0:0:0:
280,64,65493,1,0,0:0:0:0:
136,160,65680,1,0,0:0:0:0:
344,168,65867,1,0,0:0:0:0:
432,88,66615,6,0,P|440:136|432:176,1,70
168,88,66989,2,0,B|152:128|168:160|168:160,1,70
392,240,67362,2,0,P|408:288|400:320,1,70
136,192,67736,2,0,P|128:240|136:272,1,70
272,200,68110,1,0,0:0:0:0:
368,120,68296,1,0,0:0:0:0:
168,304,68483,1,0,0:0:0:0:
368,304,68670,1,0,0:0:0:0:
168,120,68857,1,0,0:0:0:0:
240,48,69231,6,0,L|312:48,2,70
72,96,69978,2,0,B|48:136|72:184|72:184,1,70
384,160,70352,2,0,P|408:208|384:240,1,70
400,224,70725,1,0,0:0:0:0:
400,224,70912,1,0,0:0:0:0:
208,144,71099,1,0,0:0:0:0:
304,144,71286,1,0,0:0:0:0:
200,248,71473,1,0,0:0:0:0:
256,88,71659,1,0,0:0:0:0:
312,248,71846,2,0,L|208:144,1,140
40,136,72593,6,0,P|104:112|176:136,1,140
170,131,73153,1,0,0:0:0:0:
170,131,73340,2,0,P|240:136|304:112,1,140
304,111,73901,1,0,0:0:0:0:
120,216,74087,1,0,0:0:0:0:
272,224,74274,1,0,0:0:0:0:
248,56,74461,2,0,L|176:56,2,70
128,152,75582,6,0,L|280:152,1,140
264,160,76143,1,0,0:0:0:0:
264,160,76329,1,0,0:0:0:0:
416,240,76703,1,0,0:0:0:0:
416,240,76890,1,0,0:0:0:0:
416,240,77077,1,0,0:0:0:0:
416,240,77356,1,0,0:0:0:0:
416,240,77450,1,0,0:0:0:0:
416,240,77637,1,0,0:0:0:0:
416,240,77823,1,0,0:0:0:0:
92,80,78666,6,0,L|260:80,1,140
232,80,79226,1,0,0:0:0:0:
232,80,79413,1,0,0:0:0:0:
384,64,79787,2,0,L|384:136,1,70
112,168,80161,2,0,L|112:240,1,70
256,232,80534,2,0,L|336:232,2,70
136,72,81281,6,0,L|208:72,2,70
328,272,82029,2,0,L|408:280,2,70
384,96,82776,1,0,0:0:0:0:
128,256,82963,1,0,0:0:0:0:
256,40,83150,1,0,0:0:0:0:
328,272,83336,1,0,0:0:0:0:
360,112,83523,1,0,0:0:0:0:
128,112,83710,1,0,0:0:0:0:
184,272,83897,1,0,0:0:0:0:
112,80,84271,5,0,0:0:0:0:
248,296,84458,1,0,0:0:0:0:
400,80,84644,1,0,0:0:0:0:
176,152,85018,2,0,P|208:112|248:120,1,70
296,128,85392,2,0,P|312:176|288:208,1,70
256,240,85765,2,0,P|216:248|192:200,1,70
408,184,86139,1,0,0:0:0:0:
304,184,86419,1,0,0:0:0:0:
304,184,86512,1,0,0:0:0:0:
216,184,86699,1,0,0:0:0:0:
120,184,86886,1,0,0:0:0:0:
136,80,87259,6,0,L|224:80,1,70
376,128,87633,2,0,L|304:128,1,70
136,256,88007,2,0,L|216:256,1,70
384,328,88380,2,0,L|304:328,2,70
384,328,88941,2,0,L|384:256,1,70
384,258,89315,1,0,0:0:0:0:
384,258,89501,1,0,0:0:0:0:
384,264,89688,1,0,0:0:0:0:
384,264,89875,1,0,0:0:0:0:
120,256,90249,6,0,L|192:224,2,70
400,48,90996,2,0,L|400:96|400:120,1,70
128,40,91370,2,0,L|128:80|128:112,1,70
400,240,91743,2,0,L|400:304|400:320,1,70
88,160,92117,2,0,L|256:160,1,140
228,160,92677,1,0,0:0:0:0:
228,160,92864,1,0,0:0:0:0:
128,272,93238,6,0,L|200:272,2,70
112,192,93985,1,0,0:0:0:0:
184,192,94172,1,0,0:0:0:0:
256,192,94359,1,0,0:0:0:0:
328,192,94546,1,0,0:0:0:0:
336,192,94639,1,0,0:0:0:0:
344,192,94733,1,0,0:0:0:0:
408,192,94919,1,0,0:0:0:0:
256,192,95006,12,0,99584,0:0:0:0:
256,192,112102,12,0,116679,0:0:0:0:
160,112,117527,5,0,0:0:0:0:
384,128,117994,2,0,L|304:264,1,140
224,56,118742,2,0,L|264:128|224:208,1,140
120,96,119489,2,0,P|112:184|128:240,1,140
144,304,120610,2,0,L|64:184,1,140
288,280,121357,2,0,P|344:224|360:136,1,140
136,96,123038,1,0,0:0:0:0:
352,224,123412,1,0,0:0:0:0:
136,256,124159,1,0,0:0:0:0:
256,248,124533,5,0,0:0:0:0:
248,128,124906,1,0,0:0:0:0:
112,48,125280,1,0,0:0:0:0:
80,152,125654,1,0,0:0:0:0:
392,80,126027,1,0,0:0:0:0:
400,272,126401,1,0,0:0:0:0:
240,296,126775,1,0,0:0:0:0:
144,264,127149,2,0,L|216:264,2,70
248,96,127897,1,0,0:0:0:0:
344,320,128456,5,0,0:0:0:0:
344,320,128550,1,0,0:0:0:0:
344,320,128643,1,0,0:0:0:0:
344,320,128736,1,0,0:0:0:0:
344,320,128830,1,0,0:0:0:0:
216,56,129203,1,0,0:0:0:0:
336,112,129577,1,0,0:0:0:0:
176,232,129951,1,0,0:0:0:0:
328,240,130324,1,0,0:0:0:0:
136,128,130698,1,0,0:0:0:0:
112,120,131446,1,0,0:0:0:0:
120,120,132193,5,0,0:0:0:0:
384,120,132380,1,0,0:0:0:0:
120,288,132567,1,0,0:0:0:0:
256,32,132753,1,0,0:0:0:0:
384,288,132940,1,0,0:0:0:0:
120,120,133314,1,0,0:0:0:0:
384,120,133688,6,0,L|224:120,1,140
240,120,134248,1,0,0:0:0:0:
240,120,134435,1,0,0:0:0:0:
184,80,134902,1,0,0:0:0:0:
384,96,135089,1,0,0:0:0:0:
96,128,135276,1,0,0:0:0:0:
256,200,135462,1,0,0:0:0:0:
256,200,135556,1,0,0:0:0:0:
256,200,135649,1,0,0:0:0:0:
160,224,135836,1,0,0:0:0:0:
352,288,136023,1,0,0:0:0:0:
88,272,136397,6,0,L|160:272,2,70
96,272,137144,1,0,0:0:0:0:
320,96,137518,2,0,L|288:160,1,70
288,168,137798,1,0,0:0:0:0:
288,168,137891,1,0,0:0:0:0:
288,168,138078,1,0,0:0:0:0:
216,160,138265,2,0,L|136:176,1,70
147,173,138639,1,0,0:0:0:0:
147,173,138825,1,0,0:0:0:0:
147,173,139012,1,0,0:0:0:0:
128,40,139761,6,0,L|208:64,1,70
392,88,140134,2,0,L|352:152,1,70
120,264,140508,2,0,L|192:304,1,70
304,256,140882,2,0,L|376:304,1,70
256,256,141255,1,0,0:0:0:0:
256,136,141442,1,0,0:0:0:0:
256,136,141535,1,0,0:0:0:0:
256,136,141628,1,0,0:0:0:0:
376,144,141816,1,0,0:0:0:0:
136,136,142003,1,0,0:0:0:0:
128,208,142375,5,0,0:0:0:0:
128,208,142562,1,0,0:0:0:0:
128,208,142749,2,0,L|272:208,1,140
408,104,143496,2,0,L|240:96,1,140
96,72,144244,1,0,0:0:0:0:
176,72,144430,1,0,0:0:0:0:
184,72,144524,1,0,0:0:0:0:
192,72,144617,1,0,0:0:0:0:
264,72,144804,1,0,0:0:0:0:
352,72,144991,2,0,P|352:144|288:216,1,140
64,144,145739,6,0,L|160:256,1,140
416,160,146300,2,0,L|360:240,1,70
104,328,146860,2,0,L|176:328,1,70
232,328,147234,1,0,0:0:0:0:
288,328,147421,1,0,0:0:0:0:
304,328,147514,1,0,0:0:0:0:
320,328,147607,1,0,0:0:0:0:
376,328,147794,1,0,0:0:0:0:
432,328,147981,1,0,0:0:0:0:
424,48,148729,6,0,L|424:136,1,70
320,48,149102,2,0,L|320:136,1,70
192,48,149476,2,0,L|192:128,1,70
88,48,149850,2,0,L|88:128,1,70
424,200,150223,1,0,0:0:0:0:
320,200,150503,1,0,0:0:0:0:
304,200,150596,1,0,0:0:0:0:
192,200,150783,1,0,0:0:0:0:
88,200,150970,1,0,0:0:0:0:
200,104,151718,6,0,L|320:104,1,105.000004005432
344,160,152092,2,0,L|288:256,1,105.000004005432
224,248,152465,2,0,L|156:148,1,105.000004005432
160,160,152839,2,0,L|220:71,1,105.000004005432
291,69,153213,2,0,L|347:165,1,105.000004005432
304,240,153586,2,0,L|192:240,2,105.000004005432
352,288,154334,5,0,0:0:0:0:
344,280,154427,1,0,0:0:0:0:
336,272,154521,1,0,0:0:0:0:
328,264,154614,2,0,L|288:208,1,52.5000020027161
160,104,155081,1,0,0:0:0:0:
168,112,155174,1,0,0:0:0:0:
176,120,155268,1,0,0:0:0:0:
184,128,155361,2,0,L|232:168,1,52.5000020027161
168,192,155827,5,0,0:0:0:0:
344,192,156014,1,0,0:0:0:0:
192,256,156201,1,0,0:0:0:0:
320,128,156388,1,0,0:0:0:0:
192,128,156575,1,0,0:0:0:0:
320,256,156762,1,0,0:0:0:0:
256,192,156949,1,0,0:0:0:0:
440,64,157329,5,0,0:0:0:0:
424,64,157423,1,0,0:0:0:0:
408,64,157516,1,0,0:0:0:0:
392,64,157517,1,0,0:0:0:0:
376,64,157610,1,0,0:0:0:0:
360,64,157704,1,0,0:0:0:0:
264,72,158077,2,0,L|264:128|264:152,1,70
416,200,158450,2,0,L|416:280,1,70
152,192,158824,2,0,L|152:272,1,70
48,264,159190,5,0,0:0:0:0:
64,264,159284,1,0,0:0:0:0:
80,264,159377,1,0,0:0:0:0:
96,264,159470,1,0,0:0:0:0:
112,264,159564,1,0,0:0:0:0:
168,264,159751,1,0,0:0:0:0:
224,264,159938,1,0,0:0:0:0:
40,128,160312,2,0,L|112:128,1,70
432,232,160686,2,0,L|368:192,1,70
56,48,161060,2,0,L|144:56,1,70
344,312,161433,2,0,L|432:312,1,70
120,216,161807,2,0,L|192:256,1,70
480,120,162181,5,0,0:0:0:0:
464,120,162274,1,0,0:0:0:0:
448,120,162367,1,0,0:0:0:0:
432,120,162461,1,0,0:0:0:0:
416,120,162554,1,0,0:0:0:0:
352,120,162741,1,0,0:0:0:0:
288,120,162928,1,0,0:0:0:0:
112,192,163308,5,0,0:0:0:0:
128,192,163401,1,0,0:0:0:0:
144,192,163495,1,0,0:0:0:0:
160,192,163588,1,0,0:0:0:0:
176,192,163681,2,0,P|240:224|304:168,1,140
294,192,164429,2,0,P|358:216|430:184,1,140
422,191,164983,1,0,0:0:0:0:
472,112,165170,6,0,P|384:136|344:96,1,140
351,110,165730,2,0,L|255:110,1,70
64,296,166292,5,0,0:0:0:0:
80,296,166385,1,0,0:0:0:0:
96,296,166478,1,0,0:0:0:0:
112,296,166571,1,0,0:0:0:0:
128,296,166665,2,0,P|200:320|272:296,1,140
259,303,167412,2,0,P|336:336|408:296,1,140
416,224,168159,1,0,0:0:0:0:
112,216,168533,1,0,0:0:0:0:
256,80,168906,1,0,0:0:0:0:
48,48,169746,5,0,0:0:0:0:
64,48,169840,1,0,0:0:0:0:
80,48,169933,1,0,0:0:0:0:
96,48,170120,2,0,L|216:48,1,105.000004005432
184,144,170494,2,0,L|296:144,1,105
264,240,170868,2,0,L|408:240,1,105.000004005432
360,336,171241,2,0,L|488:336|488:336,1,105.000004005432
465,336,171615,2,0,L|464:232,2,105.000004005432
465,336,172738,5,0,0:0:0:0:
448,336,172831,1,0,0:0:0:0:
432,336,172924,1,0,0:0:0:0:
416,336,173111,2,0,L|304:336,1,105.000004005432
336,248,173484,2,0,L|208:248,1,105.000004005432
248,152,173858,2,0,L|112:152,1,105.000004005432
152,48,174232,2,0,L|8:48|0:48,1,105.000004005432
47,48,174605,2,0,L|47:168,4,105.000004005432
48,56,175725,5,0,0:0:0:0:
48,72,175819,1,0,0:0:0:0:
48,88,175912,1,0,0:0:0:0:
48,104,176099,2,0,L|168:104,1,105.000004005432
152,184,176473,2,0,L|264:184,1,105.000004005432
256,264,176846,2,0,L|376:264,1,105.000004005432
360,336,177220,2,0,L|480:336,1,105.000004005432
465,336,177594,2,0,L|464:232,2,105.000004005432
465,336,178715,5,0,0:0:0:0:
464,320,178808,1,0,0:0:0:0:
464,304,178902,1,0,0:0:0:0:
464,280,179088,2,0,L|352:280,1,105.000004005432
360,200,179462,2,0,L|232:200,1,105.000004005432
256,120,179836,2,0,L|128:120,1,105.000004005432
152,40,180209,2,0,L|32:40|32:40,1,105.000004005432
56,120,180583,1,0,0:0:0:0:
304,136,180770,1,0,0:0:0:0:
400,272,180957,1,0,0:0:0:0:
256,56,181144,1,0,0:0:0:0:
144,288,181331,1,0,0:0:0:0:
128,48,181711,6,0,L|128:160,1,105.000004005432
472,32,182458,2,0,L|472:144,1,105.000004005432
424,112,183206,1,0,0:0:0:0:
144,240,183392,1,0,0:0:0:0:
272,80,183579,1,0,0:0:0:0:
104,80,183766,1,0,0:0:0:0:
440,208,183953,2,0,B|408:280|344:288|344:288|304:264|304:264,1,157.500006008148
48,160,184693,6,0,L|48:208|48:272,1,105.000004005432
432,64,185441,2,0,P|440:128|400:120,1,105.000004005432
144,248,186189,2,0,B|144:184|144:184|168:176|168:176|144:112,1,157.500006008148
376,168,186936,2,0,B|440:184|408:256|384:272|384:272,1,105.000004005432
240,104,187684,6,0,B|248:32|248:32|152:72,1,157.500006008148
96,280,188431,2,0,B|176:224|160:336|208:320|240:264,1,157.500006008148
104,56,189178,1,0,0:0:0:0:
368,80,189365,1,0,0:0:0:0:
352,80,189459,1,0,0:0:0:0:
336,80,189552,1,0,0:0:0:0:
440,304,189739,1,0,0:0:0:0:
296,248,189926,2,0,B|216:216|160:128|216:144|232:152|264:104|256:208|208:216|240:240|208:240|152:240|128:248|128:248,1,315.000012016297
48,88,190673,5,0,0:0:0:0:
104,88,190766,1,0,0:0:0:0:
160,88,190860,1,0,0:0:0:0:
440,88,191046,2,0,L|376:88,2,52.5000020027161
448,272,191419,5,0,0:0:0:0:
392,272,191513,1,0,0:0:0:0:
336,272,191606,1,0,0:0:0:0:
96,272,191794,2,0,L|152:272,1,52.5000020027161
464,80,192167,6,0,B|408:136|384:184|368:224|352:248|320:256|288:232|256:192|256:184|264:168|264:168|248:136|248:136|232:128|232:128,1,315.000012016297
128,104,192914,1,0,0:0:0:0:
176,272,193101,1,0,0:0:0:0:
240,88,193288,1,0,0:0:0:0:
360,232,193475,1,0,0:0:0:0:
256,192,193748,12,0,195897,0:0:0:0:
256,16,196745,5,0,0:0:0:0:
160,304,197492,1,0,0:0:0:0:
424,120,198240,1,0,0:0:0:0:
352,304,198613,1,0,0:0:0:0:
96,120,198987,1,0,0:0:0:0:
256,168,199733,1,0,0:0:0:0:
256,168,200481,1,0,0:0:0:0:
120,56,201228,5,0,0:0:0:0:
128,288,201415,1,0,0:0:0:0:
384,56,201602,1,0,0:0:0:0:
376,288,201789,1,0,0:0:0:0:
256,168,201975,1,0,0:0:0:0:
120,32,202723,6,0,B|120:88|160:48|176:80|176:80|152:80|136:128|136:128|152:136,1,140
408,56,203471,2,0,B|416:112|408:136|384:144|368:136|352:112|376:96|416:128|424:144|424:160,1,140
320,192,204031,1,0,0:0:0:0:
104,136,204218,2,0,B|112:184|128:192|136:200|136:208|128:224|120:232|112:232|112:232|112:232|104:272|104:272,1,140
344,216,204778,2,0,L|344:304,1,70
