osu file format v5

[General]
AudioFilename: התקווה 6 - גידאמק.mp3
AudioLeadIn: 0
PreviewTime: -1
Countdown: 1
SampleSet: None
StackLeniency: 0.7
Mode: 0

[Metadata]
Title:gaidamak
Artist:hatikva 6
Creator:idanlevi
Version:Normal
Source:
Tags:

[Difficulty]
HPDrainRate:6
CircleSize:6
OverallDifficulty:6
SliderMultiplier:1.4
SliderTickRate:1

[Events]
//Background and Video events
1,0,"hatikva 6 gaidamak.avi"
//Break Periods
2,45666,50809
//Storyboard Layer 0 (Background)
//Storyboard Layer 1 (Failing)
//Storyboard Layer 2 (Passing)
//Storyboard Layer 3 (Foreground)
//Storyboard Sound Samples
//Background Colour Transformations
3,100,163,162,255

[TimingPoints]
0,1000,4,0,0,100

[HitObjects]
224,160,10286,5,0
288,160,11151,1,0
288,224,11908,1,0
288,224,12240,1,0
288,224,12646,1,0
224,224,13437,5,0
288,224,14208,1,0
352,224,14877,1,0
352,224,15223,1,0
352,224,15624,1,0
352,160,16256,5,0
288,160,17108,1,0
224,160,17787,1,0
224,160,18158,1,0
224,160,18490,1,0
224,96,19289,1,0
160,96,20008,1,0
160,160,20736,1,0
160,160,21068,1,0
224,160,21483,1,0
224,160,21845,1,0
224,96,22282,1,0
224,96,22562,1,0
160,96,22971,1,0
160,96,23299,1,0
160,160,23685,1,0
160,160,24032,1,0
192,160,24427,1,0
192,160,24799,1,0
224,128,25199,1,0
224,128,25550,1,0
192,128,25990,1,0
192,128,26302,1,0
128,128,26961,1,0
192,128,27435,1,0
256,128,27826,1,0
320,128,28209,1,0
352,128,28578,1,0
384,128,28929,1,0
384,160,29237,1,0
384,160,29632,1,0
384,160,29998,1,0
352,224,30379,1,0
352,224,30731,1,0
288,224,31146,1,0
288,224,31521,1,0
256,224,31927,1,0
256,224,32313,1,0
224,224,32698,1,0
224,224,33050,1,0
160,224,33460,1,0
256,192,33983,12,0,38370
160,96,38777,2,0,B|384:192,1,140
352,128,40135,1,0
256,160,40819,1,0
192,96,41608,1,0
288,96,42352,1,0
224,128,43050,1,0
224,128,43348,1,0
288,128,43738,1,0
288,128,44065,1,0
224,192,44490,1,0
224,192,44792,1,0
288,192,45188,1,0
288,192,45466,1,0
384,128,52009,5,0
288,160,52683,1,0
256,160,53059,1,0
192,160,53396,1,0
160,128,54104,1,0
256,96,54959,1,0
256,96,55271,1,0
320,96,55647,1,0
320,96,56017,1,0
288,160,56384,1,0
288,160,56755,1,0
128,128,57336,5,0
256,192,57922,12,0,61443
160,64,62233,1,0
224,96,62585,1,0
256,96,62942,1,0
320,96,63698,1,0
320,96,64050,1,0
320,96,64421,1,0
256,96,65158,1,0
256,96,65451,1,0
256,96,65803,1,0
192,96,66545,1,0
192,96,66882,1,0
256,96,68015,1,0
288,96,68723,1,0
192,96,69445,1,0
192,96,69787,1,0
256,96,70222,1,0
256,96,70529,1,0
352,96,70964,1,0
352,96,71355,1,0
256,96,71716,1,0
256,96,72058,1,0
320,64,72429,1,0
320,64,72799,1,0
256,64,73225,1,0
256,64,73596,1,0
288,96,73962,1,0
288,96,74338,1,0
256,128,74679,1,0
256,128,75051,1,0
320,128,75475,1,0
320,128,75827,1,0
224,160,76237,1,0
224,160,76559,1,0
320,160,76954,1,0
288,160,77297,1,0
256,160,77682,1,0
256,160,78044,1,0
192,160,78444,1,0
160,160,78820,1,0
96,160,79177,1,0
96,160,79548,1,0
160,96,79933,1,0
192,96,80305,1,0
256,192,80646,12,0,84401
64,32,85088,6,0,B|384:192,1,280
384,96,87808,1,0
224,96,88594,1,0
288,96,89390,1,0
96,96,90288,1,0
224,96,90949,1,0
160,96,91733,1,0
128,192,92950,1,0
160,160,93398,1,0
192,192,95428,1,0
224,160,96216,1,0
256,224,96899,1,0
256,160,97593,1,0
224,192,98251,1,0
320,192,98901,1,0
256,192,99487,12,0,102905
128,64,103754,1,0
128,64,104111,1,0
160,64,104472,1,0
160,64,104809,1,0
192,64,105219,1,0
192,64,105571,1,0
224,64,105962,1,0
224,64,106323,1,0
256,64,106749,1,0
256,64,107080,1,0
288,64,107460,1,0
288,64,107840,1,0
288,128,108212,1,0
256,128,108764,1,0
192,128,109744,1,0
224,96,110326,1,0
192,96,111273,1,0
224,96,111825,1,0
224,96,112782,1,0
288,96,113320,1,0
256,64,114266,1,0
160,64,114769,1,0
192,96,115678,1,0
288,128,116513,1,0
192,160,117226,1,0
288,192,117958,1,0
128,160,118627,1,0
256,96,119374,1,0
160,96,119906,2,0,B|320:192,1,140
128,160,121601,1,0
224,128,122264,1,0
288,128,122987,1,0
160,128,123744,1,0
224,128,124508,1,0
96,128,125245,1,0
160,128,126039,1,0
32,128,126788,1,0
160,96,128548,1,0
96,32,129960,1,0
128,64,130473,1,0
160,32,131000,1,0
224,32,132860,1,0
256,64,133407,1,0
288,32,133866,1,0
256,64,135537,1,0
224,96,136055,1,0
192,64,136563,1,0
256,64,138394,1,0
256,128,139102,1,0
256,192,139483,12,0,142280
96,96,142861,6,0,B|320:224|320:224,1,140
192,128,145254,1,0
288,128,145986,1,0
288,96,146636,1,0
256,96,146997,1,0
288,128,147329,1,0
96,160,148242,1,0
192,128,148604,1,0
288,160,149312,1,0
320,224,149668,1,0
320,256,149986,1,0
224,256,150698,1,0
224,256,150977,1,0
192,128,151323,1,0
256,192,151734,12,0,153613
96,96,154067,2,0,B|352:160,1,140
352,128,155405,1,0
256,192,156040,1,0
192,160,156728,1,0
288,128,157346,1,0
224,128,158047,1,0
256,64,158716,1,0
224,160,159316,1,0
288,160,159648,1,0
288,160,159971,1,0
224,128,160410,1,0
224,128,160718,1,0
288,96,161054,1,0
288,96,161377,1,0
224,64,161748,1,0
224,64,162129,1,0
256,64,162471,1,0
256,64,162847,1,0
256,96,163208,1,0
256,96,163579,1,0
256,128,163921,1,0
256,128,164213,1,0
192,160,164580,1,0
192,160,164961,1,0
128,96,165400,1,0
128,96,165732,1,0
192,64,166089,1,0
192,64,166450,1,0
256,64,166816,1,0
256,64,167192,1,0
256,160,167529,1,0
256,160,167919,1,0
256,192,168574,12,0,171259
128,96,171863,2,0,B|352:160|224:320|32:128|32:96,1,280
160,96,177055,1,0
128,96,177411,1,0
128,128,177768,1,0
160,128,179807,1,0
192,128,180129,1,0
192,192,180437,1,0
288,128,182468,1,0
288,128,182765,1,0
288,160,183127,1,0
288,160,183440,1,0
224,192,183762,1,0
224,192,184142,1,0
160,96,184460,1,0
160,96,184807,1,0
224,64,185124,1,0
224,64,185427,1,0
224,128,185759,1,0
224,160,186037,1,0
128,160,186428,1,0
128,160,186691,1,0
256,192,187087,12,0,189118
128,64,189513,2,0,B|512:160|352:256|224:320|64:256|96:96|160:64|160:64|192:32|224:32,1,700
160,96,195885,1,0
160,96,196198,1,0
160,128,196549,1,0
256,96,197381,1,0
256,96,197738,1,0
256,96,198099,1,0
160,96,198846,1,0
160,96,199193,1,0
160,96,199505,1,0
352,96,200291,1,0
352,96,200565,1,0
352,96,200931,1,0
160,128,201645,2,0,B|384:224|320:288|288:224,1,140
256,192,204476,12,0,208250
128,96,208577,1,0
128,96,208914,1,0
192,96,209280,1,0
192,96,209642,1,0
224,64,209993,1,0
256,96,210369,1,0
288,96,210706,1,0
288,96,211009,1,0
288,160,211341,1,0
288,192,211653,1,0
224,160,211976,1,0
224,160,212332,1,0
224,96,212684,1,0
224,96,213021,1,0
320,96,213494,1,0
320,96,213758,1,0
256,192,215105,12,0,217576
128,64,217825,2,0,B|416:192|416:160,2,280
352,64,222625,1,0
224,128,223328,1,0
320,128,223982,1,0
160,96,224685,1,0
288,64,225266,1,0
160,96,225999,1,0
288,64,226672,1,0
160,96,227410,1,0
256,64,228108,1,0
192,96,228811,1,0
224,64,229519,1,0
192,96,229958,1,0
192,96,230276,1,0
224,96,230857,1,0
224,96,231389,1,0
256,96,231755,1,0
256,96,232312,1,0
256,96,232781,1,0
288,96,233157,1,0
288,96,233733,1,0
256,96,234211,1,0
256,96,234553,1,0
256,96,235158,1,0
256,96,235622,1,0
256,96,235949,1,0
256,96,236540,1,0
256,96,237053,1,0
256,192,237546,12,0,245329
128,96,248288,1,0
192,96,248922,1,0
256,96,249592,1,0
320,96,250270,1,0
320,160,250876,1,0
256,160,251525,1,0
192,160,252233,1,0
128,160,252863,1,0
128,96,253576,1,0
192,64,254059,1,0
192,128,254909,1,0
160,96,255363,1,0
192,64,256154,1,0
160,96,256818,1,0
192,128,257452,1,0
224,96,258077,1,0
288,64,258771,1,0
288,96,259103,1,0
288,96,259440,1,0
288,128,259801,1,0
288,128,260138,1,0
256,128,260514,1,0
288,160,260909,1,0
288,192,261202,1,0
256,192,261520,1,0
256,192,261905,1,0
192,160,262350,1,0
256,192,263102,12,0,264889
