osu file format v9

[General]
AudioFilename: The Day Takeoff.mp3
AudioLeadIn: 0
PreviewTime: -1
Countdown: 0
SampleSet: Soft
StackLeniency: 0.7
Mode: 0
LetterboxInBreaks: 1

[Editor]
DistanceSpacing: 1
BeatDivisor: 4
GridSize: 8

[Metadata]
Title:The Day Takeoff
Artist:hashimoto miyuki
Creator:2KT
Version:Reisyth
Source:
Tags:

[Difficulty]
HPDrainRate:7
CircleSize:4
OverallDifficulty:7
ApproachRate:8
SliderMultiplier:1.4
SliderTickRate:1

[Events]
//Background and Video events
0,0,"Daiteikoku.jpg"
//Break Periods
2,62449,64687
//Storyboard Layer 0 (Background)
//Storyboard Layer 1 (Fail)
//Storyboard Layer 2 (Pass)
//Storyboard Layer 3 (Foreground)
//Storyboard Sound Samples
//Background Colour Transformations
3,100,163,162,255

[TimingPoints]
2437,375,4,2,0,100,1,0
13874,-100,4,2,0,100,0,1
13968,-100,4,1,0,100,0,1
14155,-100,4,2,0,100,0,1
14437,-83.3333333333333,4,2,0,100,0,1
14718,-83.3333333333333,4,1,0,100,0,1
14905,-83.3333333333333,4,2,0,100,0,1
15187,-83.3333333333333,4,1,0,100,0,1
15655,-83.3333333333333,4,2,0,100,0,1
16218,-83.3333333333333,4,1,0,100,0,1
16405,-83.3333333333333,4,2,0,100,0,1
17062,-83.3333333333333,4,1,0,100,0,1
17155,-83.3333333333333,4,2,0,100,0,1
17718,-83.3333333333333,4,1,0,100,0,1
17905,-83.3333333333333,4,2,0,100,0,1
18468,-83.3333333333333,4,1,0,100,0,1
18655,-83.3333333333333,4,2,0,100,0,1
19218,-83.3333333333333,4,1,0,100,0,1
19405,-83.3333333333333,4,2,0,100,0,1
19593,-83.3333333333333,4,1,0,100,0,1
20155,-83.3333333333333,4,2,0,100,0,1
25874,-83.3333333333333,4,2,0,100,0,0
25968,-83.3333333333333,4,1,0,100,0,0
25974,-83.3333333333333,4,1,0,100,0,0
26155,-83.3333333333333,4,2,0,100,0,0
26718,-83.3333333333333,4,1,0,100,0,0
26905,-83.3333333333333,4,2,0,100,0,0
27468,-83.3333333333333,4,1,0,100,0,0
27655,-83.3333333333333,4,2,0,100,0,0
28218,-83.3333333333333,4,1,0,100,0,0
28405,-83.3333333333333,4,2,0,100,0,0
28968,-83.3333333333333,4,1,0,100,0,0
29155,-83.3333333333333,4,2,0,100,0,0
29718,-83.3333333333333,4,1,0,100,0,0
29905,-83.3333333333333,4,2,0,100,0,0
30468,-83.3333333333333,4,1,0,100,0,0
30655,-83.3333333333333,4,2,0,100,0,0
31218,-83.3333333333333,4,1,0,100,0,0
31405,-83.3333333333333,4,2,0,100,0,0
31968,-83.3333333333333,4,1,0,100,0,0
32155,-83.3333333333333,4,2,0,100,0,0
34218,-83.3333333333333,4,1,0,100,0,0
34405,-83.3333333333333,4,2,0,100,0,0
34968,-83.3333333333333,4,1,0,100,0,0
35155,-83.3333333333333,4,2,0,100,0,0
38437,-83.3333333333333,4,2,0,80,0,0
41155,-83.3333333333333,4,1,0,80,0,0
41530,-83.3333333333333,4,2,0,80,0,0
46593,-83.3333333333333,4,1,0,80,0,0
46780,-83.3333333333333,4,2,0,80,0,0
46968,-83.3333333333333,4,1,0,80,0,0
47155,-83.3333333333333,4,2,0,80,0,0
51937,-83.3333333333333,4,1,0,80,0,0
52405,-83.3333333333333,4,2,0,80,0,0
57468,-83.3333333333333,4,2,0,90,0,0
57655,-83.3333333333333,4,2,0,100,0,0
57843,-83.3333333333333,4,2,0,80,0,0
58593,-83.3333333333333,4,1,0,80,0,0
58780,-83.3333333333333,4,2,0,80,0,0
58968,-83.3333333333333,4,1,0,80,0,0
59155,-83.3333333333333,4,2,0,80,0,0
66093,-83.3333333333333,4,1,0,80,0,0
66468,-83.3333333333333,4,2,0,80,0,0
67405,-83.3333333333333,4,1,0,80,0,0
67968,-83.3333333333333,4,2,0,80,0,0
69093,-83.3333333333333,4,1,0,80,0,0
69843,-83.3333333333333,4,2,0,80,0,0
78093,-83.3333333333333,4,1,0,80,0,0
78280,-83.3333333333333,4,2,0,80,0,0
78468,-83.3333333333333,4,1,0,80,0,0
78843,-83.3333333333333,4,2,0,80,0,0
79218,-83.3333333333333,4,1,0,80,0,0
79968,-83.3333333333333,4,2,0,80,0,0
84468,-83.3333333333333,4,1,0,80,0,0
84655,-83.3333333333333,4,2,0,80,0,0
85218,-83.3333333333333,4,1,0,80,0,0
86343,-83.3333333333333,4,2,0,80,0,0
87093,-83.3333333333333,4,1,0,80,0,0
87468,-83.3333333333333,4,2,0,80,0,0
87937,-83.3333333333333,4,2,0,70,0,0
88218,-83.3333333333333,4,2,0,85,0,0
88687,-83.3333333333333,4,2,0,100,0,0
89062,-83.3333333333333,4,1,0,100,0,1
89062,-83.3333333333333,4,1,0,100,0,1
89343,-83.3333333333333,4,2,0,100,0,1
89718,-83.3333333333333,4,1,0,100,0,1
89905,-83.3333333333333,4,2,0,100,0,1
90468,-83.3333333333333,4,1,0,100,0,1
90655,-83.3333333333333,4,2,0,100,0,1
91218,-83.3333333333333,4,1,0,100,0,1
91405,-83.3333333333333,4,2,0,100,0,1
91968,-83.3333333333333,4,1,0,100,0,1
92155,-83.3333333333333,4,2,0,100,0,1
92718,-83.3333333333333,4,1,0,100,0,1
92905,-83.3333333333333,4,2,0,100,0,1
93468,-83.3333333333333,4,1,0,100,0,1
93655,-83.3333333333333,4,2,0,100,0,1
94218,-83.3333333333333,4,1,0,100,0,1
94405,-83.3333333333333,4,2,0,100,0,1
94780,-83.3333333333333,4,1,0,100,0,1
94968,-83.3333333333333,4,2,0,100,0,1
95155,-83.3333333333333,4,2,0,100,0,1
95718,-83.3333333333333,4,1,0,100,0,1
95905,-83.3333333333333,4,2,0,100,0,1
96562,-83.3333333333333,4,1,0,100,0,1
96655,-83.3333333333333,4,2,0,100,0,1
97218,-83.3333333333333,4,1,0,100,0,1
97405,-83.3333333333333,4,2,0,100,0,1
97968,-83.3333333333333,4,1,0,100,0,1
98155,-83.3333333333333,4,2,0,100,0,1
100874,-83.3333333333333,4,2,0,100,0,0
101062,-83.3333333333333,4,1,0,100,0,0
101343,-83.3333333333333,4,2,0,100,0,0
101718,-83.3333333333333,4,1,0,100,0,0
101905,-83.3333333333333,4,2,0,100,0,0
102468,-83.3333333333333,4,1,0,100,0,0
102655,-83.3333333333333,4,2,0,100,0,0
103218,-83.3333333333333,4,1,0,100,0,0
103405,-83.3333333333333,4,2,0,100,0,0
103968,-83.3333333333333,4,1,0,100,0,0
104155,-83.3333333333333,4,2,0,100,0,0
104718,-83.3333333333333,4,1,0,100,0,0
104905,-83.3333333333333,4,2,0,100,0,0
105468,-83.3333333333333,4,1,0,100,0,0
105655,-83.3333333333333,4,2,0,100,0,0
106218,-83.3333333333333,4,1,0,100,0,0
106405,-83.3333333333333,4,2,0,100,0,0
106968,-83.3333333333333,4,1,0,100,0,0
107155,-83.3333333333333,4,2,0,100,0,0
108562,-83.3333333333333,4,1,0,100,0,0
108655,-83.3333333333333,4,2,0,100,0,0
109218,-83.3333333333333,4,1,0,100,0,0
109405,-83.3333333333333,4,2,0,100,0,0
109968,-83.3333333333333,4,1,0,100,0,0
110155,-83.3333333333333,4,2,0,100,0,0
113437,-83.3333333333333,4,2,0,100,0,1
113718,-83.3333333333333,4,1,0,100,0,1
113905,-83.3333333333333,4,2,0,100,0,1
114562,-83.3333333333333,4,1,0,100,0,1
114655,-83.3333333333333,4,2,0,100,0,1
119437,-83.3333333333333,4,1,0,100,0,0

[Colours]
Combo1 : 255,255,255
Combo2 : 255,0,128
Combo3 : 0,128,255

[HitObjects]
360,88,13874,1,0
416,152,14062,1,0
408,232,14249,1,0
248,272,14437,2,0,B|344:272,1,84.0000020027161
168,192,14812,2,0,B|64:192,1,84.0000020027161
288,160,15187,2,0,B|376:160,2,84.0000020027161
152,256,15749,6,4,B|152:80,1,168.000004005432
232,72,16312,1,0
312,104,16499,1,0
392,88,16687,1,4
392,88,16780,1,0
392,88,16874,1,0
392,88,16968,1,0
392,88,17062,6,0,B|432:200,1,84.0000020027161
328,312,17437,2,0,B|352:216,1,84.0000020027161
296,168,17812,1,0
216,144,17999,1,0
152,192,18187,2,0,B|112:224|56:200,2,84.0000020027161
224,144,18749,2,0,B|288:112|328:152,1,84.0000020027161
416,160,19124,5,2
376,320,19312,1,0
248,208,19499,1,0
248,208,19687,1,4
248,208,20062,1,4
112,312,20437,2,0,B|168:256|272:280,1,168.000004005432,2|0
328,344,20999,2,0,B|384:296|360:184,1,168.000004005432,2|0
320,112,21562,1,0
424,160,21749,5,4
392,192,21843,1,0
352,208,21937,1,0
312,200,22030,1,0
280,176,22124,1,0
240,160,22218,1,0
200,176,22312,1,0
168,200,22405,1,0
152,240,22499,5,4
320,256,22687,1,2
248,104,22874,1,2
152,240,23062,1,2
320,256,23249,1,2
248,104,23437,2,0,B|136:120|136:120|88:184,1,168.000004005432,4|0
224,192,23999,2,0,B|336:176|336:176|384:112,1,168.000004005432,4|0
368,132,24562,1,4
256,192,24749,12,0,25687
192,40,25874,5,0
144,104,26062,1,0
176,176,26249,1,0
240,120,26437,2,0,B|304:192,1,84.0000020027161
328,304,26812,2,0,B|224:288,1,84.0000020027161
88,232,27187,2,0,B|200:192,1,84.0000020027161
224,144,27562,1,0
296,192,27749,2,0,B|400:208,2,84.0000020027161
216,224,28312,1,0
216,224,28405,1,0
216,224,28499,1,0
216,224,28593,1,0
216,224,28687,6,0,B|144:224|128:184|128:184,1,84.0000020027161,4|2
296,144,29062,2,0,B|336:112|384:120,1,84.0000020027161
448,80,29437,1,0
480,160,29624,1,0
432,232,29812,1,0
456,312,29999,1,0
376,296,30187,2,0,B|280:272,1,84.0000020027161
208,272,30562,1,0
88,304,30749,6,0,B|48:232|112:144,1,168.000004005432
109,147,31312,1,0
168,208,31499,2,0,B|248:232|328:160,1,168.000004005432
392,120,32062,2,0,B|416:200,1,84.0000020027161
456,280,32437,5,2
440,256,32530,1,2
408,240,32624,1,2
376,248,32718,1,2
352,272,32812,2,2,B|336:304|304:304,3,42.0000010013581
288,312,33187,1,2
256,312,33280,1,2
224,304,33374,1,2
200,280,33468,1,2
192,248,33562,1,2
120,208,33749,6,0,B|88:304,2,84.0000020027161,4|0|4
40,112,34312,2,0,B|128:96,1,84.0000020027161
200,64,34687,2,0,B|280:96,1,84.0000020027161
344,144,35062,1,0
344,144,35249,1,2
256,192,35437,12,0,38249
176,104,38436,5,2
176,104,38530,1,2
176,104,38624,1,2
144,184,38812,1,4
144,184,38999,1,4
312,160,39186,1,2
312,160,39280,1,2
312,160,39374,1,2
344,240,39561,1,4
344,240,39749,1,4
304,312,39937,5,0
176,144,40124,1,4
304,312,40312,1,0
176,144,40499,1,4
288,80,40686,5,0
288,80,40780,1,0
288,80,40874,1,2
376,168,41062,1,2
344,288,41250,1,0
344,288,41343,1,0
344,288,41437,2,0,B|448:312,1,84.0000020027161
256,320,41812,5,0
184,280,42000,1,2
168,200,42187,1,0
168,200,42374,1,0
96,152,42562,2,0,B|72:240,1,84.0000020027161,2|0
168,200,42937,2,0,B|224:152|328:184,1,168.000004005432,2|0
408,200,43499,1,0
408,200,43687,1,0
432,120,43874,2,0,B|528:184,2,84.0000020027161,2|0|0
352,96,44437,1,2
304,160,44624,1,2
224,176,44812,1,2
152,128,44999,2,0,B|112:216,1,84.0000020027161,2|0
48,248,45374,5,0
88,240,45468,1,0
128,256,45562,1,0
208,232,45749,1,2
208,232,45937,1,0
288,264,46124,1,2
328,256,46218,1,2
360,232,46312,1,2
384,200,46405,1,2
400,160,46499,1,2
464,104,46687,6,0,B|488:200,1,84.0000020027161,4|0
408,216,47062,1,4
408,296,47249,1,0
336,336,47437,1,2
176,280,47624,1,0
304,168,47812,1,2
336,336,47999,1,2
176,280,48187,1,2
96,240,48374,6,0,B|80:144,1,84.0000020027161
24,96,48749,2,0,B|80:48|216:64,1,168.000004005432,2|0
264,80,49312,1,0
336,128,49499,2,0,B|384:32,2,84.0000020027161,2|0|0
296,200,50062,1,0
296,200,50249,1,2
256,192,50437,12,4,51937
176,88,52499,5,2
136,296,52874,1,2
136,296,53062,1,2
336,232,53437,1,2
144,152,53812,6,0,B|96:256,2,84.0000020027161,2|0|0
208,216,54374,1,2
56,136,54562,1,2
200,56,54749,1,0
256,120,54937,2,0,B|336:128|368:88,2,84.0000020027161,2|0|0
336,152,55499,1,0
376,224,55687,1,0
232,304,55874,6,0,B|328:280,1,84.0000020027161,2|0
152,288,56249,1,0
112,216,56437,1,0
152,144,56624,1,2
152,144,56718,1,2
152,144,56812,1,2
128,64,56999,2,0,B|64:48|24:104,2,84.0000020027161,0|0|4
288,136,57562,1,4
144,224,57749,1,4
296,296,58124,5,2
320,264,58218,1,2
336,224,58312,1,2
336,184,58405,1,2
320,144,58499,1,2
392,104,58687,2,0,B|432:192,1,84.0000020027161
384,256,59062,2,0,B|328:184,1,84.0000020027161
360,112,59437,2,0,B|184:144,1,168.000004005432,4|4
112,168,59999,5,2
112,168,60374,1,0
112,168,60749,2,0,B|88:272,1,84.0000020027161,2|0
176,224,61124,1,0
248,184,61312,1,0
320,224,61499,1,0
384,176,61687,2,0,B|424:216|424:264,2,84.0000020027161,2|0|0
320,120,62249,1,2
160,120,65437,5,2
240,88,65624,1,0
320,120,65812,2,0,B|400:184,1,84.0000020027161,2|0
464,152,66187,2,0,B|472:248,1,84.0000020027161
384,232,66562,1,0
384,232,66749,2,0,B|320:168|224:192,1,168.000004005432,2|0
152,152,67312,1,0
112,80,67499,2,0,B|40:144|48:232,1,168.000004005432
144,304,68062,2,0,B|176:256|168:208,1,84.0000020027161,2|0
96,176,68437,2,0,B|136:128|208:144,1,84.0000020027161,2|0
248,176,68812,2,0,B|312:184|336:128,1,84.0000020027161,2|0
376,216,69187,1,0
384,80,69374,6,0,B|424:160,2,84.0000020027161
312,120,69937,1,0
232,96,70124,1,0
176,160,70312,1,2
176,160,70499,1,2
96,192,70687,1,0
112,232,70780,1,0
144,256,70874,1,0
184,272,70968,1,0
224,272,71062,1,0
304,248,71249,5,4
440,152,71437,1,4
288,88,71624,1,0
288,88,71812,1,0
224,40,71999,2,0,B|136:80|136:192,1,168.000004005432
80,240,72562,2,0,B|176:280,1,84.0000020027161,2|0
216,216,72937,2,0,B|328:184,1,84.0000020027161,2|0
376,208,73312,1,2
440,160,73499,2,0,B|488:208|480:264,2,84.0000020027161
376,104,74062,1,0
376,104,74249,1,2
296,120,74437,5,2
256,136,74530,1,2
216,128,74624,1,2
176,136,74718,1,2
136,120,74812,1,2
72,64,74999,2,0,B|32:160,1,84.0000020027161,4|0
16,264,75374,2,0,B|104:224,1,84.0000020027161,4|0
168,192,75749,1,4
256,192,75937,12,0,77437
384,280,77624,5,0
432,208,77812,1,2
384,136,77999,2,0,B|336:96|280:120,1,84.0000020027161
224,136,78374,1,0
168,200,78562,2,0,B|128:216|80:200,1,84.0000020027161
224,136,78937,2,0,B|280:128|312:168,1,84.0000020027161,2|0
376,112,79312,2,0,B|432:200,2,84.0000020027161
296,144,79874,2,0,B|200:144,1,84.0000020027161
72,240,80249,1,0
72,240,80437,2,4,B|264:240,1,168.000004005432
376,224,80999,5,4
168,248,81374,1,4
248,56,81749,1,2
376,224,82124,1,2
328,152,82312,2,0,B|400:112|488:176,2,168.000004005432,0|4|4
248,136,83249,1,0
176,96,83437,2,0,B|136:192,1,84.0000020027161,2|0
64,192,83812,2,0,B|72:296,2,84.0000020027161,2|0|0
216,120,84374,5,0
216,120,84561,1,0
200,288,84749,2,0,B|272:232|360:272,1,168.000004005432
424,224,85312,2,0,B|456:304,2,84.0000020027161
384,152,85874,2,0,B|400:56,2,84.0000020027161
336,224,86437,5,2
160,112,86624,1,2
352,112,86812,1,2
176,224,86999,1,2
256,72,87187,2,0,B|256:240,1,168.000004005432,4|0
176,272,87749,1,4
112,216,87937,5,2
112,176,88030,1,2
128,136,88124,1,2
160,112,88218,1,2
200,104,88312,2,2,B|224:104|240:128,3,42.0000010013581,0|0|0|0
264,152,88687,1,2
296,176,88780,1,2
336,184,88874,1,2
376,168,88968,1,2
400,136,89062,5,0
440,296,89249,1,0
360,264,89437,1,0
288,304,89624,1,2
240,232,89812,2,0,B|184:216|144:256,1,84.0000020027161
88,200,90187,2,0,B|40:224|-8:192,2,84.0000020027161,2|0|0
160,160,90749,2,0,B|240:120|336:192,1,168.000004005432
400,32,91312,5,0
480,176,91499,1,0
312,176,91687,1,0
224,32,91874,1,0
144,176,92062,1,0
72,136,92249,6,0,B|56:224,1,84.0000020027161
136,200,92624,2,0,B|200:176|224:200,1,84.0000020027161
288,232,92999,1,0
400,288,93187,2,0,B|416:240|392:192,1,84.0000020027161
432,128,93562,1,0
432,128,93749,2,0,B|360:176|256:136,1,168.000004005432
200,96,94312,2,0,B|168:192,1,84.0000020027161
120,240,94687,2,4,B|152:336,2,84.0000020027161
168,96,95437,6,0,B|256:64|336:104,1,168.000004005432
416,88,95999,1,0
392,168,96187,1,2
368,208,96280,1,2
360,248,96374,1,2
376,288,96468,1,2
408,312,96562,1,0
448,240,96749,2,0,B|360:192|280:240,1,168.000004005432
224,296,97312,2,0,B|128:288|80:216,1,168.000004005432
81,218,97874,1,4
160,184,98062,2,0,B|216:160|256:192,1,84.0000020027161
256,192,98437,12,0,99937
168,120,100124,5,0
128,192,100312,1,2
128,224,100405,1,2
160,248,100499,1,2
200,248,100593,1,2
240,232,100687,1,2
272,208,100780,1,2
312,200,100874,1,2
352,216,100968,1,2
376,248,101062,5,0
416,88,101249,1,0
336,96,101437,2,0,B|280:88|248:136,1,84.0000020027161
200,176,101812,2,0,B|144:184|112:144,1,84.0000020027161
56,104,102187,2,0,B|24:144|32:200,2,84.0000020027161
136,72,102749,2,0,B|208:112|304:80,1,168.000004005432
368,184,103312,2,0,B|384:88,1,84.0000020027161
381,101,103687,5,4
432,264,103874,1,4
272,224,104062,1,0
216,160,104249,1,4
136,168,104437,2,0,B|96:200|48:184,1,84.0000020027161
224,192,104812,2,0,B|280:176|320:216,1,84.0000020027161
384,168,105187,1,0
432,240,105374,1,0
376,304,105562,1,0
328,232,105749,2,0,B|248:184|160:224,1,168.000004005432
104,280,106312,2,0,B|64:200,1,84.0000020027161
136,96,106687,2,0,B|152:192,1,84.0000020027161,2|0
232,152,107062,2,0,B|240:240,1,84.0000020027161
144,320,107437,5,4
144,280,107530,1,0
168,248,107624,1,0
208,232,107718,1,0
248,232,107812,1,0
280,256,107905,1,0
296,296,107999,1,0
328,320,108093,1,0
368,328,108187,1,4
408,312,108280,1,0
440,288,108374,1,0
456,248,108468,1,0
448,208,108562,1,0
344,176,108749,6,0,B|392:144|448:168,2,84.0000020027161
280,232,109312,2,0,B|208:248|192:224,1,84.0000020027161
128,184,109687,1,2
256,72,109874,1,2
392,176,110062,1,0
264,288,110249,1,2
184,256,110437,2,0,B|128:232|88:272,1,84.0000020027161,4|0
264,224,110812,2,0,B|320:240|352:216,1,84.0000020027161,4|0
256,192,111187,12,0,112687
128,192,113437,6,0,B|96:232|104:280,2,84.0000020027161,2|0|0
192,248,113999,1,0
272,232,114187,1,0
304,208,114280,1,0
328,176,114374,1,0
336,136,114468,1,0
328,96,114562,1,0
408,88,114749,2,0,B|336:40|240:80,1,168.000004005432,4|0
168,56,115312,5,4
144,88,115405,1,0
136,128,115499,1,0
152,168,115593,1,0
184,192,115687,2,0,B|216:192|248:184,3,42.0000010013581
256,160,116062,1,4
296,144,116155,1,0
336,160,116249,1,0
368,184,116343,1,0
384,224,116437,2,0,B|392:256|376:272,3,42.0000010013581
360,296,116812,2,0,B|328:320|298:311,2,42.0000010013581,4|0|0
256,192,117187,12,4,119437
