osu file format v12

[General]
AudioFilename: .mp3
AudioLeadIn: 0
PreviewTime: 60103
Countdown: 0
SampleSet: Soft
StackLeniency: 0.7
Mode: 3
LetterboxInBreaks: 0
SpecialStyle: 0
WidescreenStoryboard: 0

[Editor]
DistanceSpacing: 0.8
BeatDivisor: 1
GridSize: 4
TimelineZoom: 1

[Metadata]
Title:Maware! Setsugekka
TitleUnicode:Maware! Setsugekka
Artist:harada hitomi,kayano Ai & Ogura yui
ArtistUnicode:harada hitomi,kayano Ai & Ogura yui
Creator:nutzatalok01
Version:ยายะน่ารักน่า...
Source:Kikou Shoujo wa Kizutsukanai
Tags:
BeatmapID:387832
BeatmapSetID:158588

[Difficulty]
HPDrainRate:7
CircleSize:4
OverallDifficulty:8
ApproachRate:5
SliderMultiplier:1.4
SliderTickRate:1

[Events]
//Background and Video events
0,0,"lws.jpg",0,0
//Break Periods
//Storyboard Layer 0 (Background)
//Storyboard Layer 1 (Fail)
//Storyboard Layer 2 (Pass)
//Storyboard Layer 3 (Foreground)
//Storyboard Sound Samples
//Background Colour Transformations
3,100,163,162,255

[TimingPoints]
2813,375,4,2,0,28,1,0

[HitObjects]
192,192,4312,5,0,0:0:0:0:
320,192,4312,1,0,0:0:0:0:
448,192,4312,1,0,0:0:0:0:
64,192,4312,1,0,0:0:0:0:
64,192,4500,1,0,0:0:0:0:
320,192,4687,1,0,0:0:0:0:
64,192,4875,1,0,0:0:0:0:
448,192,5062,1,0,0:0:0:0:
192,192,5062,1,0,0:0:0:0:
64,192,5250,1,0,0:0:0:0:
320,192,5437,1,0,0:0:0:0:
64,192,5625,1,0,0:0:0:0:
64,192,5812,1,0,0:0:0:0:
448,192,5812,1,0,0:0:0:0:
320,192,6000,1,0,0:0:0:0:
64,192,6187,1,0,0:0:0:0:
448,192,6187,1,0,0:0:0:0:
320,192,6375,1,0,0:0:0:0:
192,192,6562,1,0,0:0:0:0:
320,192,6750,1,0,0:0:0:0:
448,192,6937,1,0,0:0:0:0:
64,192,6937,1,0,0:0:0:0:
320,192,7125,1,0,0:0:0:0:
192,192,7312,1,0,0:0:0:0:
192,192,7500,1,0,0:0:0:0:
448,192,7500,1,0,0:0:0:0:
320,192,7687,1,0,0:0:0:0:
64,192,7687,1,0,0:0:0:0:
192,192,7875,1,0,0:0:0:0:
448,192,8062,1,0,0:0:0:0:
64,192,8062,1,0,0:0:0:0:
192,192,8250,1,0,0:0:0:0:
320,192,8437,1,0,0:0:0:0:
64,192,8625,1,0,0:0:0:0:
448,192,8625,1,0,0:0:0:0:
320,192,8812,128,0,9562:0:0:0:0:
64,192,8812,128,0,9562:0:0:0:0:
448,192,9937,1,0,0:0:0:0:
320,192,9937,1,0,0:0:0:0:
192,192,9937,1,0,0:0:0:0:
64,192,9937,1,0,0:0:0:0:
320,192,10312,1,0,0:0:0:0:
64,192,10312,1,0,0:0:0:0:
320,192,10500,1,0,0:0:0:0:
64,192,10500,1,0,0:0:0:0:
192,192,10687,1,0,0:0:0:0:
448,192,10687,1,0,0:0:0:0:
320,192,10875,1,0,0:0:0:0:
448,192,11062,1,0,0:0:0:0:
64,192,11062,1,0,0:0:0:0:
320,192,11250,1,0,0:0:0:0:
320,192,11437,1,0,0:0:0:0:
64,192,11625,1,0,0:0:0:0:
448,192,11625,1,0,0:0:0:0:
320,192,11812,1,0,0:0:0:0:
192,192,12000,1,0,0:0:0:0:
448,192,12000,1,0,0:0:0:0:
320,192,12187,1,0,0:0:0:0:
320,192,12375,1,0,0:0:0:0:
192,192,12562,1,0,0:0:0:0:
448,192,12562,1,0,0:0:0:0:
448,192,12750,1,0,0:0:0:0:
64,192,12750,1,0,0:0:0:0:
192,192,12937,1,0,0:0:0:0:
320,192,13125,1,0,0:0:0:0:
64,192,13125,1,0,0:0:0:0:
320,192,13312,1,0,0:0:0:0:
448,192,13500,1,0,0:0:0:0:
192,192,13500,1,0,0:0:0:0:
320,192,13687,1,0,0:0:0:0:
64,192,13687,1,0,0:0:0:0:
192,192,13875,1,0,0:0:0:0:
448,192,13875,1,0,0:0:0:0:
192,192,14062,1,0,0:0:0:0:
448,192,14062,1,0,0:0:0:0:
448,192,14250,1,0,0:0:0:0:
192,192,14250,1,0,0:0:0:0:
192,192,14437,1,0,0:0:0:0:
448,192,14437,1,0,0:0:0:0:
192,192,14625,1,0,0:0:0:0:
448,192,14625,1,0,0:0:0:0:
192,192,14812,128,0,15562:0:0:0:0:
448,192,14812,128,0,15562:0:0:0:0:
64,192,15750,1,0,0:0:0:0:
448,192,15750,1,0,0:0:0:0:
448,192,15937,1,0,0:0:0:0:
64,192,15937,1,0,0:0:0:0:
64,192,16125,1,0,0:0:0:0:
448,192,16125,1,0,0:0:0:0:
448,192,16500,1,0,0:0:0:0:
192,192,16500,1,0,0:0:0:0:
192,192,16687,1,0,0:0:0:0:
64,192,16875,1,0,0:0:0:0:
192,192,17062,1,0,0:0:0:0:
320,192,17250,1,0,0:0:0:0:
448,192,17437,1,0,0:0:0:0:
320,192,17625,1,0,0:0:0:0:
192,192,17812,1,0,0:0:0:0:
64,192,18000,1,0,0:0:0:0:
64,192,18187,1,0,0:0:0:0:
192,192,18375,1,0,0:0:0:0:
448,192,18375,1,0,0:0:0:0:
192,192,18562,1,0,0:0:0:0:
448,192,18562,1,0,0:0:0:0:
192,192,18750,1,0,0:0:0:0:
448,192,18750,1,0,0:0:0:0:
64,192,18937,1,0,0:0:0:0:
320,192,18937,1,0,0:0:0:0:
320,192,19125,1,0,0:0:0:0:
64,192,19125,1,0,0:0:0:0:
192,192,19312,1,0,0:0:0:0:
320,192,19500,1,0,0:0:0:0:
448,192,19687,1,0,0:0:0:0:
320,192,19875,1,0,0:0:0:0:
192,192,20062,1,0,0:0:0:0:
64,192,20250,1,0,0:0:0:0:
192,192,20437,1,0,0:0:0:0:
448,192,20625,1,0,0:0:0:0:
192,192,20625,1,0,0:0:0:0:
448,192,21000,1,0,0:0:0:0:
192,192,21000,1,0,0:0:0:0:
64,192,21375,1,0,0:0:0:0:
320,192,21375,1,0,0:0:0:0:
448,192,21562,1,0,0:0:0:0:
64,192,21562,128,0,22312:0:0:0:0:
320,192,21937,1,0,0:0:0:0:
448,192,22312,1,0,0:0:0:0:
64,192,22500,1,0,0:0:0:0:
192,192,22687,1,0,0:0:0:0:
320,192,22875,1,0,0:0:0:0:
448,192,23062,1,0,0:0:0:0:
320,192,23250,1,0,0:0:0:0:
192,192,23437,1,0,0:0:0:0:
64,192,23625,1,0,0:0:0:0:
192,192,23812,1,0,0:0:0:0:
320,192,24000,1,0,0:0:0:0:
448,192,24187,1,0,0:0:0:0:
320,192,24375,1,0,0:0:0:0:
320,192,24562,1,0,0:0:0:0:
192,192,24750,1,0,0:0:0:0:
448,192,24750,1,0,0:0:0:0:
320,192,24937,1,0,0:0:0:0:
192,192,25125,1,0,0:0:0:0:
64,192,25312,1,0,0:0:0:0:
448,192,25312,1,0,0:0:0:0:
192,192,25500,1,0,0:0:0:0:
192,192,25687,1,0,0:0:0:0:
448,192,25875,1,0,0:0:0:0:
192,192,26062,1,0,0:0:0:0:
448,192,26062,1,0,0:0:0:0:
320,192,26250,1,0,0:0:0:0:
64,192,26250,1,0,0:0:0:0:
320,192,26437,1,0,0:0:0:0:
192,192,26625,1,0,0:0:0:0:
448,192,26812,1,0,0:0:0:0:
64,192,26812,128,0,27562:0:0:0:0:
320,192,27187,1,0,0:0:0:0:
448,192,27562,1,0,0:0:0:0:
448,192,27937,1,0,0:0:0:0:
192,192,27937,1,0,0:0:0:0:
320,192,28312,1,0,0:0:0:0:
64,192,28312,1,0,0:0:0:0:
64,192,28687,1,0,0:0:0:0:
448,192,28687,1,0,0:0:0:0:
320,192,29062,1,0,0:0:0:0:
192,192,29062,1,0,0:0:0:0:
320,192,29437,1,0,0:0:0:0:
192,192,29437,1,0,0:0:0:0:
192,192,29812,1,0,0:0:0:0:
320,192,29812,1,0,0:0:0:0:
320,192,30000,1,0,0:0:0:0:
448,192,30187,1,0,0:0:0:0:
320,192,30375,1,0,0:0:0:0:
192,192,30562,1,0,0:0:0:0:
64,192,30750,1,0,0:0:0:0:
192,192,30937,1,0,0:0:0:0:
320,192,31125,1,0,0:0:0:0:
448,192,31312,1,0,0:0:0:0:
320,192,31500,1,0,0:0:0:0:
192,192,31687,1,0,0:0:0:0:
64,192,31875,1,0,0:0:0:0:
192,192,32062,1,0,0:0:0:0:
320,192,32250,1,0,0:0:0:0:
448,192,32437,1,0,0:0:0:0:
320,192,32625,1,0,0:0:0:0:
192,192,32812,1,0,0:0:0:0:
64,192,33000,1,0,0:0:0:0:
192,192,33187,1,0,0:0:0:0:
320,192,33375,1,0,0:0:0:0:
448,192,33562,1,0,0:0:0:0:
320,192,33750,1,0,0:0:0:0:
192,192,33937,1,0,0:0:0:0:
64,192,34125,1,0,0:0:0:0:
64,192,34312,128,0,35062:0:0:0:0:
192,192,34500,1,0,0:0:0:0:
320,192,34687,1,0,0:0:0:0:
448,192,34875,1,0,0:0:0:0:
64,192,35437,1,0,0:0:0:0:
448,192,35437,1,0,0:0:0:0:
320,192,35437,1,0,0:0:0:0:
192,192,35437,1,0,0:0:0:0:
64,192,35812,1,0,0:0:0:0:
192,192,36000,1,0,0:0:0:0:
320,192,36187,1,0,0:0:0:0:
448,192,36375,1,0,0:0:0:0:
320,192,36562,1,0,0:0:0:0:
448,192,36750,1,0,0:0:0:0:
320,192,36937,1,0,0:0:0:0:
192,192,37125,1,0,0:0:0:0:
64,192,37312,1,0,0:0:0:0:
192,192,37500,1,0,0:0:0:0:
192,192,37687,1,0,0:0:0:0:
64,192,37875,1,0,0:0:0:0:
192,192,38062,1,0,0:0:0:0:
320,192,38250,1,0,0:0:0:0:
448,192,38437,1,0,0:0:0:0:
320,192,38625,1,0,0:0:0:0:
192,192,38812,1,0,0:0:0:0:
64,192,39000,1,0,0:0:0:0:
192,192,39187,1,0,0:0:0:0:
320,192,39375,1,0,0:0:0:0:
320,192,39562,1,0,0:0:0:0:
320,192,39750,1,0,0:0:0:0:
192,192,39937,1,0,0:0:0:0:
320,192,40125,1,0,0:0:0:0:
320,192,40312,1,0,0:0:0:0:
320,192,40500,1,0,0:0:0:0:
192,192,40687,1,0,0:0:0:0:
192,192,40875,1,0,0:0:0:0:
448,192,41062,1,0,0:0:0:0:
192,192,41062,1,0,0:0:0:0:
320,192,41437,1,0,0:0:0:0:
64,192,41437,1,0,0:0:0:0:
192,192,41812,1,0,0:0:0:0:
448,192,41812,1,0,0:0:0:0:
192,192,42000,1,0,0:0:0:0:
64,192,42187,1,0,0:0:0:0:
192,192,42375,1,0,0:0:0:0:
320,192,42562,1,0,0:0:0:0:
448,192,42750,1,0,0:0:0:0:
320,192,42937,1,0,0:0:0:0:
192,192,43125,1,0,0:0:0:0:
64,192,43312,1,0,0:0:0:0:
192,192,43500,1,0,0:0:0:0:
192,192,43687,1,0,0:0:0:0:
320,192,43875,1,0,0:0:0:0:
448,192,44062,1,0,0:0:0:0:
320,192,44250,1,0,0:0:0:0:
64,192,44437,1,0,0:0:0:0:
192,192,44625,1,0,0:0:0:0:
448,192,44812,1,0,0:0:0:0:
192,192,44812,1,0,0:0:0:0:
192,192,45187,1,0,0:0:0:0:
448,192,45187,1,0,0:0:0:0:
320,192,45562,1,0,0:0:0:0:
64,192,45562,1,0,0:0:0:0:
320,192,45750,1,0,0:0:0:0:
64,192,45750,1,0,0:0:0:0:
192,192,45937,1,0,0:0:0:0:
320,192,46125,1,0,0:0:0:0:
448,192,46312,128,0,47062:0:0:0:0:
192,192,46687,1,0,0:0:0:0:
64,192,47062,1,0,0:0:0:0:
192,192,47250,1,0,0:0:0:0:
64,192,47437,1,0,0:0:0:0:
192,192,47812,1,0,0:0:0:0:
320,192,48000,1,0,0:0:0:0:
192,192,48187,1,0,0:0:0:0:
320,192,48375,1,0,0:0:0:0:
64,192,48562,1,0,0:0:0:0:
192,192,48750,1,0,0:0:0:0:
192,192,48937,1,0,0:0:0:0:
64,192,49125,1,0,0:0:0:0:
192,192,49312,1,0,0:0:0:0:
448,192,49312,128,0,50812:0:0:0:0:
64,192,49500,1,0,0:0:0:0:
192,192,49687,1,0,0:0:0:0:
320,192,49875,1,0,0:0:0:0:
192,192,50062,1,0,0:0:0:0:
64,192,50250,1,0,0:0:0:0:
192,192,50437,1,0,0:0:0:0:
320,192,50625,1,0,0:0:0:0:
448,192,50812,1,0,0:0:0:0:
64,192,50812,128,0,51562:0:0:0:0:
320,192,51000,1,0,0:0:0:0:
320,192,51187,1,0,0:0:0:0:
320,192,51375,1,0,0:0:0:0:
192,192,51562,1,0,0:0:0:0:
448,192,51562,128,0,52312:0:0:0:0:
192,192,51750,1,0,0:0:0:0:
64,192,51937,1,0,0:0:0:0:
192,192,52125,1,0,0:0:0:0:
192,192,52312,1,0,0:0:0:0:
64,192,52312,128,0,53062:0:0:0:0:
448,192,53062,128,0,53437:0:0:0:0:
192,192,53625,1,0,0:0:0:0:
448,192,53750,1,0,0:0:0:0:
320,192,53812,1,0,0:0:0:0:
64,192,53812,128,0,54375:0:0:0:0:
192,192,54562,1,0,0:0:0:0:
320,192,54750,1,0,0:0:0:0:
192,192,54937,1,0,0:0:0:0:
448,192,55312,1,0,0:0:0:0:
64,192,55312,128,0,56437:0:0:0:0:
448,192,56062,1,0,0:0:0:0:
192,192,56437,1,0,0:0:0:0:
192,192,56812,1,0,0:0:0:0:
448,192,56812,128,0,57375:0:0:0:0:
192,192,57375,1,0,0:0:0:0:
64,192,57562,128,0,58312:0:0:0:0:
320,192,58312,1,0,0:0:0:0:
192,192,58687,128,0,59437:0:0:0:0:
448,192,59437,1,0,0:0:0:0:
64,192,59812,1,0,0:0:0:0:
320,192,59812,1,0,0:0:0:0:
448,192,60562,128,0,61125:0:0:0:0:
320,192,60562,128,0,61125:0:0:0:0:
192,192,60562,128,0,61125:0:0:0:0:
64,192,60562,128,0,61125:0:0:0:0:
64,192,61312,1,0,0:0:0:0:
192,192,61500,1,0,0:0:0:0:
320,192,61687,1,0,0:0:0:0:
448,192,61875,1,0,0:0:0:0:
320,192,62062,1,0,0:0:0:0:
192,192,62250,1,0,0:0:0:0:
64,192,62437,1,0,0:0:0:0:
192,192,62625,1,0,0:0:0:0:
320,192,62812,1,0,0:0:0:0:
448,192,63000,1,0,0:0:0:0:
320,192,63187,1,0,0:0:0:0:
192,192,63375,1,0,0:0:0:0:
64,192,63562,128,0,64312:0:0:0:0:
192,192,63937,1,0,0:0:0:0:
448,192,64312,1,0,0:0:0:0:
192,192,64500,1,0,0:0:0:0:
320,192,64687,1,0,0:0:0:0:
192,192,64875,1,0,0:0:0:0:
64,192,65062,1,0,0:0:0:0:
320,192,65250,1,0,0:0:0:0:
448,192,65250,1,0,0:0:0:0:
192,192,65437,1,0,0:0:0:0:
448,192,65625,1,0,0:0:0:0:
320,192,65625,1,0,0:0:0:0:
192,192,65812,1,0,0:0:0:0:
64,192,66000,1,0,0:0:0:0:
192,192,66187,1,0,0:0:0:0:
192,192,66375,1,0,0:0:0:0:
448,192,66562,1,0,0:0:0:0:
64,192,66562,1,0,0:0:0:0:
64,192,66937,1,0,0:0:0:0:
192,192,67125,1,0,0:0:0:0:
320,192,67312,1,0,0:0:0:0:
448,192,67500,1,0,0:0:0:0:
320,192,67687,1,0,0:0:0:0:
192,192,67875,1,0,0:0:0:0:
64,192,68062,1,0,0:0:0:0:
192,192,68250,1,0,0:0:0:0:
320,192,68437,1,0,0:0:0:0:
448,192,68625,1,0,0:0:0:0:
320,192,68812,1,0,0:0:0:0:
192,192,69000,1,0,0:0:0:0:
64,192,69187,1,0,0:0:0:0:
192,192,69375,1,0,0:0:0:0:
320,192,69562,128,0,70312:0:0:0:0:
64,192,69937,1,0,0:0:0:0:
64,192,70312,1,0,0:0:0:0:
192,192,70500,1,0,0:0:0:0:
320,192,70687,1,0,0:0:0:0:
192,192,70875,1,0,0:0:0:0:
448,192,71062,1,0,0:0:0:0:
64,192,71062,1,0,0:0:0:0:
448,192,71250,1,0,0:0:0:0:
192,192,71437,1,0,0:0:0:0:
448,192,71437,1,0,0:0:0:0:
448,192,71625,1,0,0:0:0:0:
448,192,71812,1,0,0:0:0:0:
192,192,71812,1,0,0:0:0:0:
64,192,72000,1,0,0:0:0:0:
320,192,72000,1,0,0:0:0:0:
192,192,72187,1,0,0:0:0:0:
320,192,72375,1,0,0:0:0:0:
64,192,72375,1,0,0:0:0:0:
192,192,72562,1,0,0:0:0:0:
320,192,72562,1,0,0:0:0:0:
320,192,72937,1,0,0:0:0:0:
192,192,72937,1,0,0:0:0:0:
64,192,73312,1,0,0:0:0:0:
192,192,73312,1,0,0:0:0:0:
320,192,73312,1,0,0:0:0:0:
448,192,73312,1,0,0:0:0:0:
192,192,73500,1,0,0:0:0:0:
64,192,73625,1,0,0:0:0:0:
192,192,73687,1,0,0:0:0:0:
320,192,73875,1,0,0:0:0:0:
192,192,74000,1,0,0:0:0:0:
448,192,74062,1,0,0:0:0:0:
320,192,74250,1,0,0:0:0:0:
192,192,74437,1,0,0:0:0:0:
192,192,74625,1,0,0:0:0:0:
192,192,74812,1,0,0:0:0:0:
320,192,75000,1,0,0:0:0:0:
192,192,75187,1,0,0:0:0:0:
192,192,75375,1,0,0:0:0:0:
320,192,75562,1,0,0:0:0:0:
64,192,75750,1,0,0:0:0:0:
192,192,75937,1,0,0:0:0:0:
320,192,76125,1,0,0:0:0:0:
448,192,76312,1,0,0:0:0:0:
320,192,76500,1,0,0:0:0:0:
320,192,76687,1,0,0:0:0:0:
320,192,76875,1,0,0:0:0:0:
64,192,77062,1,0,0:0:0:0:
192,192,77062,1,0,0:0:0:0:
192,192,77437,1,0,0:0:0:0:
64,192,77437,1,0,0:0:0:0:
192,192,77625,1,0,0:0:0:0:
320,192,77812,1,0,0:0:0:0:
192,192,78000,1,0,0:0:0:0:
448,192,78000,1,0,0:0:0:0:
320,192,78187,1,0,0:0:0:0:
64,192,78375,1,0,0:0:0:0:
64,192,78562,1,0,0:0:0:0:
448,192,78562,128,0,79312:0:0:0:0:
192,192,78937,1,0,0:0:0:0:
64,192,79312,1,0,0:0:0:0:
192,192,79500,1,0,0:0:0:0:
320,192,79625,1,0,0:0:0:0:
192,192,79687,1,0,0:0:0:0:
192,192,79875,1,0,0:0:0:0:
64,192,80062,1,0,0:0:0:0:
448,192,80062,1,0,0:0:0:0:
320,192,80250,1,0,0:0:0:0:
192,192,80250,1,0,0:0:0:0:
192,192,80437,1,0,0:0:0:0:
64,192,80437,1,0,0:0:0:0:
192,192,80625,1,0,0:0:0:0:
320,192,80625,1,0,0:0:0:0:
320,192,80812,1,0,0:0:0:0:
320,192,81000,1,0,0:0:0:0:
64,192,81187,1,0,0:0:0:0:
192,192,81187,1,0,0:0:0:0:
192,192,81375,1,0,0:0:0:0:
448,192,81375,1,0,0:0:0:0:
320,192,81562,1,0,0:0:0:0:
64,192,81562,1,0,0:0:0:0:
192,192,81937,1,0,0:0:0:0:
64,192,81937,1,0,0:0:0:0:
192,192,82312,1,0,0:0:0:0:
448,192,82312,1,0,0:0:0:0:
192,192,82500,1,0,0:0:0:0:
64,192,82687,1,0,0:0:0:0:
192,192,82875,1,0,0:0:0:0:
320,192,83062,1,0,0:0:0:0:
448,192,83250,1,0,0:0:0:0:
320,192,83437,1,0,0:0:0:0:
64,192,83625,1,0,0:0:0:0:
448,192,83625,1,0,0:0:0:0:
64,192,83812,1,0,0:0:0:0:
448,192,83812,1,0,0:0:0:0:
192,192,84187,1,0,0:0:0:0:
320,192,84187,1,0,0:0:0:0:
64,192,84562,1,0,0:0:0:0:
448,192,84562,1,0,0:0:0:0:
192,192,85312,1,0,0:0:0:0:
320,192,85500,1,0,0:0:0:0:
448,192,85687,1,0,0:0:0:0:
320,192,85875,1,0,0:0:0:0:
192,192,86062,1,0,0:0:0:0:
64,192,86250,1,0,0:0:0:0:
192,192,86437,1,0,0:0:0:0:
320,192,86625,1,0,0:0:0:0:
448,192,86812,1,0,0:0:0:0:
320,192,87000,1,0,0:0:0:0:
192,192,87187,1,0,0:0:0:0:
64,192,87375,1,0,0:0:0:0:
192,192,87562,1,0,0:0:0:0:
320,192,87750,1,0,0:0:0:0:
448,192,87937,1,0,0:0:0:0:
320,192,88125,1,0,0:0:0:0:
192,192,88312,1,0,0:0:0:0:
64,192,88500,1,0,0:0:0:0:
192,192,88687,1,0,0:0:0:0:
320,192,88875,1,0,0:0:0:0:
448,192,89062,1,0,0:0:0:0:
320,192,89250,1,0,0:0:0:0:
192,192,89437,1,0,0:0:0:0:
64,192,89625,1,0,0:0:0:0:
192,192,89812,128,0,90750:0:0:0:0:
448,192,90937,1,0,0:0:0:0:
320,192,90937,1,0,0:0:0:0:
192,192,90937,1,0,0:0:0:0:
64,192,90937,1,0,0:0:0:0:
