osu file format v12

[General]
AudioFilename: hanser.mp3
AudioLeadIn: 0
PreviewTime: 149550
Countdown: 0
SampleSet: Soft
StackLeniency: 0.7
Mode: 0
LetterboxInBreaks: 1
WidescreenStoryboard: 0

[Editor]
DistanceSpacing: 1.6
BeatDivisor: 6
GridSize: 8

[Metadata]
Title:Ama no Jaku
TitleUnicode:Ama no Jaku
Artist:hanser
ArtistUnicode:hanser
Creator:KevinKang
Version:Hard
Source:
Tags:hanser
BeatmapID:325968
BeatmapSetID:128827

[Difficulty]
HPDrainRate:5
CircleSize:4
OverallDifficulty:5
ApproachRate:7
SliderMultiplier:2.4
SliderTickRate:1

[Events]
//Background and Video events
0,0,"bg.jpg",0,0
//Break Periods
2,38338,47473
//Storyboard Layer 0 (Background)
//Storyboard Layer 1 (Fail)
//Storyboard Layer 2 (Pass)
//Storyboard Layer 3 (Foreground)
//Storyboard Sound Samples
//Background Colour Transformations
3,100,163,162,255

[TimingPoints]
9903,705.882352941176,4,2,1,50,1,0
38138,-100,4,2,1,30,0,0
48373,-100,4,2,1,50,0,0
70961,-125,4,2,1,40,0,0
79785,-100,4,2,1,60,0,1
102020,-100,4,2,1,30,0,0

[Colours]
Combo1 : 192,192,192
Combo2 : 170,255,170
Combo3 : 128,185,255
Combo4 : 255,153,153

[HitObjects]
136,96,12373,53,0,0:0:0:0:
40,208,12726,2,0,P|96:224|136:272,1,120,4|0,0:0|0:0,0:0:0:0:
184,320,13255,1,0,0:0:0:0:
200,248,13432,2,0,L|224:120,1,120
368,104,14138,2,0,P|384:168|336:240,1,120
104,96,15197,22,0,L|72:48,2,40
128,136,15550,1,0,0:0:0:0:
24,232,15902,2,0,P|56:280|136:304,1,120
208,320,16491,2,0,L|272:312,1,40
368,240,16961,2,0,L|408:296,1,60
464,232,17314,2,0,L|424:176,1,60
392,120,17667,1,0,0:0:0:0:
288,24,18020,22,0,P|240:32|208:56,1,80
184,80,18373,1,0,0:0:0:0:
48,120,18726,2,0,P|88:144|136:232,1,120
56,272,19314,1,0,0:0:0:0:
88,304,19432,2,0,L|184:320,1,80
184,272,19785,2,0,P|208:224|280:184,2,120
312,336,20844,22,0,L|416:360,1,80
440,344,21197,1,0,0:0:0:0:
472,208,21550,2,0,P|448:152|400:112,2,120
336,264,22608,2,0,L|296:344,1,80
240,352,22961,1,0,0:0:0:0:
192,216,23314,1,0,0:0:0:0:
144,80,23667,22,0,L|120:144,1,60,0|0,0:0|0:0,0:0:0:0:
56,160,24020,1,4,0:0:0:0:
0,224,24373,2,0,P|56:256|72:344,1,120
216,336,25079,1,0,0:0:0:0:
296,216,25432,2,0,L|328:96,1,120
40,48,26491,22,0,L|16:128,1,60
64,168,26844,1,0,0:0:0:0:
176,256,27197,2,0,P|136:304|144:400,1,120
264,304,27902,2,0,L|288:360,1,60
344,312,28255,2,0,P|402:319|456:297,2,120
360,168,29314,2,0,L|328:80,1,80
312,136,29667,2,0,P|264:104|176:112,1,120
64,152,30373,1,0,0:0:0:0:
40,248,30608,2,0,L|16:304,2,40
136,224,31079,2,0,P|184:264|256:272,1,120
448,72,32138,2,0,L|480:16,2,40
416,112,32491,2,0,L|440:216,1,80
424,240,32844,1,0,0:0:0:0:
368,320,33079,2,0,P|304:336|240:320,1,120
216,296,33550,2,0,L|160:216,1,80
136,176,33902,21,4,0:0:0:0:
320,48,34255,1,0,0:0:0:0:
336,240,34608,2,0,B|384:216|384:240|384:272|440:272|440:272|448:280,1,120
256,192,35314,12,0,38138,0:0:0:0:
80,320,48373,22,0,L|112:240,1,80
136,184,48726,1,4,0:0:0:0:
272,48,49079,1,0,0:0:0:0:
344,224,49432,2,0,L|400:280,1,80
456,320,49785,2,0,L|480:240,1,80,2|0,0:0|0:0,0:0:0:0:
424,208,50138,2,0,P|448:144|512:112,1,120
112,56,51197,21,2,0:0:0:0:
96,80,51373,1,0,0:0:0:0:
80,104,51550,2,0,P|64:168|88:248,1,120,0|0,0:0|0:0,0:0:0:0:
128,296,52079,1,0,0:0:0:0:
208,344,52255,2,0,L|352:360,1,120,0|2,0:0|0:0,0:0:0:0:
240,184,52961,2,0,L|304:248,1,80
320,184,53314,2,0,L|384:120,1,80
424,80,53667,1,0,0:0:0:0:
384,272,54020,21,2,0:0:0:0:
368,288,54197,1,0,0:0:0:0:
352,304,54373,2,0,B|336:336|320:336|320:336|296:312|232:304,1,120
264,216,54961,2,0,P|192:176|96:208,1,160
32,312,55785,1,0,0:0:0:0:
224,352,56138,1,0,0:0:0:0:
144,32,56844,22,0,L|168:120,1,80,2|0,0:0|0:0,0:0:0:0:
184,168,57197,1,0,0:0:0:0:
368,104,57550,2,0,P|408:48|480:16,2,120,0|0|2,0:0|0:0|0:0,0:0:0:0:
448,280,58608,2,0,L|384:360,1,80
344,312,58961,2,0,B|304:320|318:348|296:352|296:352|240:344|192:360,1,120
184,168,59667,21,2,0:0:0:0:
24,272,60020,2,0,P|64:328|64:400,1,120
224,264,60726,2,0,P|200:288|184:336,2,60,0|0|2,0:0|0:0|0:0,0:0:0:0:
344,120,61432,1,0,0:0:0:0:
472,264,61785,2,0,P|416:288|336:280,1,120
232,136,62491,2,0,L|200:88,2,40
264,192,62844,2,0,P|216:232|184:304,1,120
88,208,63432,2,0,P|40:144|32:48,1,160
208,80,64255,2,0,L|272:16,1,80
336,64,64608,2,0,L|272:128,1,80
232,168,64961,1,0,0:0:0:0:
72,272,65314,21,2,0:0:0:0:
72,272,65432,1,0,0:0:0:0:
192,312,65667,2,0,B|232:320|218:348|240:352|240:352|296:344|344:360,1,120
408,288,66255,2,0,P|440:224|440:160,1,120
416,120,66726,2,0,L|368:40,1,80,2|0,0:0|0:0,0:0:0:0:
328,8,67079,1,0,0:0:0:0:
168,112,67432,2,0,P|128:160|120:232,1,120
240,368,68138,21,2,0:0:0:0:
296,184,68491,2,0,P|352:216|392:296,1,120
472,352,69079,2,0,B|480:312|496:296|496:296|464:264|464:240|440:216,1,120
424,200,69550,2,0,L|440:112,1,80
392,72,69902,2,0,P|360:128|296:168,2,120
248,120,70961,22,0,L|176:64,1,64
152,64,71314,2,0,P|112:152|16:232,1,192
120,352,72373,1,0,0:0:0:0:
200,224,72726,22,0,P|248:248|288:304,1,96
408,360,73432,2,0,L|456:200,1,160
496,176,74138,2,0,P|480:128|416:72,1,96
368,224,74844,1,0,0:0:0:0:
312,136,75079,2,0,L|280:88,1,32
240,24,75432,1,0,0:0:0:0:
208,8,75550,2,0,P|176:72|56:136,1,192
56,288,76608,22,0,L|136:392,1,96
264,336,77314,1,0,0:0:0:0:
200,200,77667,2,0,P|248:200|320:240,1,96
440,272,78373,2,0,P|392:272|320:232,1,96
392,104,79079,1,0,0:0:0:0:
32,152,79785,6,0,L|72:280,1,120
208,136,80491,2,0,P|232:72|280:32,1,120,2|0,0:0|0:0,0:0:0:0:
384,192,81197,2,0,P|360:256|312:296,1,120
136,328,81902,1,2,0:0:0:0:
432,88,82608,22,0,L|312:48,1,120
144,128,83314,2,0,P|112:152|96:208,1,80,2|0,0:0|0:0,0:0:0:0:
160,192,83667,2,0,P|192:168|208:112,1,80,0|0,0:0|0:0,0:0:0:0:
248,176,84020,1,0,0:0:0:0:
264,208,84138,1,0,0:0:0:0:
280,240,84255,1,0,0:0:0:0:
328,280,84373,2,0,P|378:233|464:205,1,120,0|2,0:0|0:0,0:0:0:0:
96,56,85432,22,0,L|40:120,1,80
96,192,85785,2,0,L|40:256,1,80
144,288,86138,2,0,P|208:320|304:312,1,120,2|0,0:0|0:0,0:0:0:0:
416,56,87197,2,0,L|472:112,1,80
368,152,87550,2,0,P|344:216|280:272,1,120,2|0,0:0|0:0,0:0:0:0:
128,320,88255,1,0,0:0:0:0:
128,128,88608,2,0,L|216:152,1,80
232,96,88961,22,0,P|296:80|376:88,1,120,2|0,0:0|0:0,0:0:0:0:
472,224,89667,2,0,P|408:240|328:232,1,120
184,320,90373,2,0,L|88:208,1,120,2|0,0:0|0:0,0:0:0:0:
168,48,91079,22,0,P|200:104|264:128,1,120
416,216,91785,2,0,L|440:256,3,40
232,264,92491,2,0,L|72:288,1,120
88,88,93197,2,0,P|120:144|216:160,1,120,2|0,0:0|0:0,0:0:0:0:
328,64,93902,22,0,L|264:128,1,80
304,200,94255,2,0,L|368:136,1,80
376,248,94608,2,0,B|352:272|360:280|360:280|336:312|296:344|264:352,1,120,2|0,0:0|0:0,0:0:0:0:
208,320,95138,1,0,0:0:0:0:
168,296,95314,1,0,0:0:0:0:
144,280,95432,1,0,0:0:0:0:
64,176,95667,1,0,0:0:0:0:
192,32,96020,2,0,P|248:56|304:144,1,120,2|0,0:0|0:0,0:0:0:0:
432,224,96726,2,0,P|416:280|368:336,1,120
256,192,97432,12,0,99550,0:0:0:0:
72,208,99902,38,0,P|104:264|184:288,1,120,0|0,0:0|0:0,0:0:0:0:
296,280,100608,1,2,0:0:0:0:
344,144,100961,2,0,P|360:80|400:32,2,120,0|0|0,0:0|0:0|0:0,0:0:0:0:
304,280,102020,1,2,0:0:0:0:
