osu file format v14

[General]
AudioFilename: Blessing-ver+Vocaloid.mp3
AudioLeadIn: 0
PreviewTime: 132039
Countdown: 0
SampleSet: Soft
StackLeniency: 0.3
Mode: 0
LetterboxInBreaks: 1
SkinPreference:Snow Miku 2014
EpilepsyWarning: 1
WidescreenStoryboard: 1

[Editor]
Bookmarks: 19675,36584,51321,67675,75594,93857,111039,141857
DistanceSpacing: 1
BeatDivisor: 4
GridSize: 8
TimelineZoom: 1.1

[Metadata]
Title:Blessing
TitleUnicode:Blessing
Artist:halyoshy
ArtistUnicode:halyoshy
Creator:blue dolphin
Version:Hard
Source:
Tags:vocaloid,blessing,world,korea,utaite,miku,kaito,len,rin,ruka,meiko,edition
BeatmapID:722703
BeatmapSetID:325358

[Difficulty]
HPDrainRate:3
CircleSize:4
OverallDifficulty:5
ApproachRate:6
SliderMultiplier:1.6
SliderTickRate:1

[Events]
//Background and Video events
0,0,"blessing2.jpg",0,0
//Break Periods
2,158430,160453
2,163340,164817
2,167703,169180
2,172067,173544
//Storyboard Layer 0 (Background)
Sprite,Background,Centre,"blessing2.png",320,240 F,0,178412,178958,0,1 S,0,178958,,0.6861938 F,0,178958,187140,1 F,0,187140,187685,1,0
Sprite,Background,Centre,"blessing2.png",320,240 F,0,19140,19686,0,1 S,0,19686,,0.6861938 F,0,19686,27868,1 F,0,27868,36049,1 F,0,36049,36594,1,0
Sprite,Background,Centre,"blessing2.png",320,240 F,0,93321,93867,0,1 S,0,93867,,0.6861938 F,0,93867,102049,1 F,0,102049,110230,1 F,0,110230,110775,1,0
//Storyboard Layer 1 (Fail)
//Storyboard Layer 2 (Pass)
//Storyboard Layer 3 (Foreground)
Sprite,Foreground,Centre,"blessing2.jpg",320,240 M,0,57867,,320,240 F,0,57867,58412,0.355871 S,0,57867,58412,0.7109678,0.7274841 S,0,58412,,0.7274841 F,0,58412,58958,0.355871,0
Sprite,Foreground,Centre,"blessing2.jpg",320,240 M,0,66594,,320,240 S,0,66594,67139,0.7109678,0.7274841 F,0,66594,67140,0.355871 F,0,67140,67685,0.355871,0
Sprite,Foreground,Centre,"blessing2.jpg",320,240 M,0,76412,,320,240 S,0,76412,76957,0.7109678,0.7274841 F,0,76412,76958,0.355871 F,0,76958,77503,0.355871,0
Sprite,Foreground,Centre,"blessing2.jpg",320,240 M,0,80776,,320,240 F,0,80776,81321,0.355871 S,0,80776,81321,0.7109678,0.7274841 F,0,81321,81867,0.355871,0
Sprite,Foreground,Centre,"blessing2.jpg",320,240 M,0,132049,,320,240 F,0,132049,132594,0.355871 S,0,132049,132594,0.7109678,0.7274841 F,0,132594,133140,0.355871,0
Sprite,Foreground,Centre,"blessing2.jpg",320,240 M,0,140776,,320,240 F,0,140776,141321,0.355871 S,0,140776,141321,0.7109678,0.7274841 F,0,141321,141867,0.355871,0
Sprite,Foreground,Centre,"blessing2.jpg",320,240 M,0,150594,,320,240 S,0,150594,151139,0.7109678,0.7274841 F,0,150594,151140,0.355871 F,0,151140,151685,0.355871,0
Sprite,Foreground,Centre,"blessing2.jpg",320,240 M,0,154958,,320,240 F,0,154958,155503,0.355871 S,0,154958,155503,0.7109678,0.7274841 F,0,155503,156049,0.355871,0
Sprite,Foreground,Centre,"blessing2.jpg",320,240 M,0,195321,,320,240 S,0,195321,195866,0.7109678,0.7274841 F,0,195321,195867,0.355871 F,0,195867,196412,0.355871,0
Sprite,Foreground,Centre,"blessing2.jpg",320,240 M,0,204049,,320,240 F,0,204049,204594,0.355871 S,0,204049,204594,0.7109678,0.7274841 F,0,204594,205140,0.355871,0
Sprite,Foreground,Centre,"blessing2.jpg",320,240 M,0,230230,,320,240 S,0,230230,230775,0.7109678,0.7274841 F,0,230230,230776,0.355871 F,0,230776,231321,0.355871,0
Sprite,Foreground,Centre,"blessing2.jpg",320,240 M,0,238958,,320,240 F,0,238958,239503,0.355871 S,0,238958,239503,0.7109678,0.7274841 F,0,239503,240049,0.355871,0
Sprite,Foreground,Centre,"blessing2.jpg",320,240 M,0,248776,,320,240 F,0,248776,249321,0.355871 S,0,248776,249321,0.7109678,0.7274841 F,0,249321,249867,0.355871,0
Sprite,Foreground,Centre,"blessing2.jpg",320,240 M,0,253140,,320,240 F,0,253140,253685,0.355871 S,0,253140,253685,0.7109678,0.7274841 F,0,253685,254230,0.355871,0
Sprite,Foreground,Centre,"blessing2.jpg",320,240 M,0,257503,,320,240 S,0,257503,258048,0.7109678,0.7274841 F,0,257503,258049,0.355871 F,0,258049,258594,0.355871,0
Sprite,Foreground,Centre,"blessing2.jpg",320,240 M,0,261867,,320,240 F,0,261867,262412,0.355871 S,0,261867,262412,0.7109678,0.7274841 F,0,262412,262958,0.355871,0
Sprite,Foreground,Centre,"blessing2.jpg",320,240 M,0,266230,,320,240 S,0,266230,266775,0.7109678,0.7274841 F,0,266230,266776,0.355871 F,0,266776,,0.355871 F,0,266776,267867,0.355871,0.00457082
Sprite,Foreground,Centre,"ef.png",320,240 F,0,230230,,0 V,0,230230,,1.379872,1.181677 F,0,230230,230776,0,1 F,0,230776,247685,1 F,0,247685,248230,1,0
Sprite,Foreground,Centre,"Black Ring.png",320,240 F,0,178412,178958,0,1 M,0,178818,,320,240 V,0,178818,,1.181677,0.9339355 F,0,178958,193685,1 F,0,193685,194230,1,0
Sprite,Foreground,Centre,"bless.png",320,240 F,0,132049,132594,0,1 M,0,132049,158776,304,144,307,247 F,0,132594,133140,1 V,0,133140,,1,1 F,0,133140,158231,1 F,0,158231,158776,1,0
Sprite,Foreground,Centre,"bless.png",320,240 F,0,195321,195866,0,1 M,0,195321,213321,304,144,306,213 F,0,195866,196412,1 V,0,196412,,1,1 F,0,196412,213321,1 M,0,213321,213867,306,213,306,215 F,0,213321,213867,1,0 M,0,213867,,306,215 F,0,213867,,0,1
Sprite,Foreground,Centre,"bless.png",320,240 F,0,57867,58412,0,1 M,0,57867,84594,304,144,307,247 F,0,58412,58958,1 V,0,58958,,1,1 F,0,58958,70958,1,0.991742 F,0,70958,74230,0.991742,0.7243323 F,0,70958,84049,0.991742,1 F,0,74230,84049,0.7243323,1 F,0,84049,84594,1,0
Sprite,Foreground,Centre,"bless.png",320,240 F,0,230230,230775,0,1 M,0,230230,265685,314,147,310,320 F,0,230775,231321,1 V,0,231321,,1,1 F,0,231321,256412,1 F,0,256412,265140,1 F,0,265140,265685,1,0
Sprite,Foreground,Centre,"b75.png",320,240 F,0,243867,244412,0,1 F,0,244412,247685,1 F,0,247685,248230,1,0
Sprite,Foreground,Centre,"b17.png",320,240 F,0,75321,,0 F,0,75321,75867,0,1 F,0,75867,76958,1 F,0,76958,77503,1,0
Sprite,Foreground,Centre,"b17.png",320,240 F,0,79685,,0 F,0,79685,80231,0,1 F,0,80231,81322,1 F,0,81322,81867,1,0
Sprite,Foreground,Centre,"b17.png",320,240 F,0,149503,,0 F,0,149503,150049,0,1 F,0,150049,151140,1 F,0,151140,151685,1,0
Sprite,Foreground,Centre,"b17.png",320,240 F,0,153867,,0 F,0,153867,154413,0,1 F,0,154413,155504,1 F,0,155504,156049,1,0
Sprite,Foreground,Centre,"b17.png",320,240 F,0,247685,,0 F,0,247685,248231,0,1 F,0,248231,249322,1 F,0,249322,249867,1,0
Sprite,Foreground,Centre,"b17.png",320,240 F,0,252049,,0 F,0,252049,252595,0,1 F,0,252595,253686,1 F,0,253686,254231,1,0
Sprite,Foreground,Centre,"b17.png",320,240 F,0,256412,,0 F,0,256412,256958,0,1 F,0,256958,258049,1 F,0,258049,258594,1,0
Sprite,Foreground,Centre,"b17.png",320,240 F,0,260776,,0 F,0,260776,261322,0,1 F,0,261322,262413,1 F,0,262413,262958,1,0
Sprite,Foreground,Centre,"b17.png",320,240 F,0,265140,,0 F,0,265140,265686,0,1 F,0,265686,266777,1 F,0,266777,267322,1,0
Sprite,Foreground,Centre,"b76.png",320,240 F,0,77503,,0 F,0,77503,78049,0,1 F,0,78049,79685,1 F,0,79685,80230,1,0
Sprite,Foreground,Centre,"b76.png",320,240 F,0,151685,,0 F,0,151685,152231,0,1 F,0,152231,153867,1 F,0,153867,154412,1,0
Sprite,Foreground,Centre,"b76.png",320,240 F,0,249867,,0 F,0,249867,250413,0,1 F,0,250413,252049,1 F,0,252049,252594,1,0
Sprite,Foreground,Centre,"b76.png",320,240 F,0,258594,,0 F,0,258594,259140,0,1 F,0,259140,260776,1 F,0,260776,261321,1,0
Sprite,Foreground,Centre,"b77.png",320,240 F,0,81867,82412,0,1 F,0,82412,84049,1 F,0,84049,84594,1,0
Sprite,Foreground,Centre,"b77.png",320,240 F,0,156049,156594,0,1 F,0,156594,158231,1 F,0,158231,158776,1,0
Sprite,Foreground,Centre,"b77.png",320,240 F,0,254230,254775,0,1 F,0,254775,256412,1 F,0,256412,256957,1,0
Sprite,Foreground,Centre,"b77.png",320,240 F,0,262958,263503,0,1 F,0,263503,265140,1 F,0,265140,265685,1,0
Sprite,Foreground,Centre,"main3.png",320,240 S,0,14776,15049,1.023953,1.015959 F,0,14776,15321,0,0.9952824 M,0,15321,,208,400 S,0,15321,15594,1.023953,1 F,0,15321,18594,0.9952824 S,0,15867,16140,1.047907,1 S,0,16412,16685,1.03593,1 S,0,16958,17230,1.03593,1 S,0,17503,17776,1.03593,1 S,0,18049,18321,1.03593,1 S,0,18594,18867,1.083836,1 F,0,18594,19140,0.9952824,0.01840181 S,0,19140,,1
Sprite,Foreground,Centre,"main.png",320,240 M,0,10958,,221,414 S,0,10958,11230,1.029942,1 F,0,10958,11503,0,1 S,0,11503,11776,1.065872,1 F,0,11503,14776,1 S,0,12049,12321,1.041918,1 S,0,12594,12867,1.03593,1 S,0,12867,,1 S,0,13140,,1.03593 S,0,13140,,1.03593 S,0,13140,13412,1.03593,1.017998 S,0,13685,,1.07186 S,0,13685,13958,1.07186,1 S,0,14230,14503,1.029942,1 S,0,14776,15049,1.041918,1 F,0,14776,15321,1,0
//Storyboard Sound Samples

[TimingPoints]
1140,545.454545454546,4,2,1,50,1,0
54594,-100,4,2,2,50,0,0
57867,-100,4,2,1,50,0,0
58958,-100,4,2,1,70,0,1
84049,-100,4,2,1,60,0,0
128776,-100,4,2,2,60,0,0
130958,-100,4,2,1,60,0,0
133140,-100,4,2,1,70,0,1
158230,-100,4,2,1,70,0,0
196412,-100,4,2,1,70,0,1
213321,-100,4,2,1,70,0,0
231321,-80,4,2,1,70,0,1
247685,-80,4,2,1,70,0,0

[Colours]
Combo1 : 255,240,202
Combo2 : 125,255,209
Combo3 : 255,255,128
Combo4 : 68,162,255
Combo5 : 255,128,192
Combo6 : 255,128,128

[HitObjects]
96,88,1140,6,0,L|96:184,2,80,0|0|4,0:0|0:0|0:0,0:0:0:0:
248,80,2230,2,0,L|248:16,2,40,8|0|0,0:0|0:0|0:0,0:0:0:0:
336,136,2776,2,0,P|400:136|448:112,2,80,2|0|8,0:0|0:0|0:0,0:0:0:0:
448,240,3867,6,0,P|408:264|368:272,1,80,2|0,0:0|0:0,0:0:0:0:
288,312,4412,2,0,P|240:296|200:296,2,80,8|0|2,0:0|0:0|0:0,0:0:0:0:
210,294,5230,1,0,0:0:0:0:
128,312,5503,1,8,0:0:0:0:
136,200,6049,6,0,P|80:200|40:184,1,80,2|0,0:0|0:0,0:0:0:0:
112,112,6594,2,0,P|176:80|208:80,1,80,8|0,0:0|0:0,0:0:0:0:
224,80,7003,2,0,L|264:80,1,40,0|2,0:0|0:0,0:0:0:0:
368,80,7412,1,0,0:0:0:0:
312,176,7685,6,0,L|208:176,1,80,8|0,0:0|0:0,0:0:0:0:
184,272,8230,2,0,L|272:272,1,80,2|0,0:0|0:0,0:0:0:0:
384,272,8776,6,0,P|416:224|424:160,1,120,8|0,0:0|0:0,0:0:0:0:
424,163,9321,1,2,0:0:0:0:
424,64,9594,1,0,0:0:0:0:
328,64,9867,1,8,0:0:0:0:
216,72,10140,6,0,P|184:104|168:112,4,40,0|0|2|0|0,0:0|0:0|0:0|0:0|0:0,0:0:0:0:
264,168,10958,6,0,P|208:192|128:176,1,120,8|0,0:0|0:0,0:0:0:0:
104,176,11503,2,0,L|96:272,1,80,2|0,0:0|0:0,0:0:0:0:
192,320,12049,6,0,P|248:328|296:304,1,80,8|0,0:0|0:0,0:0:0:0:
312,304,12458,1,0,0:0:0:0:
352,280,12594,2,0,P|408:264|464:272,1,80,2|0,0:0|0:0,0:0:0:0:
424,128,13140,6,0,B|376:136|376:136|352:176,1,80,8|0,0:0|0:0,0:0:0:0:
320,160,13549,2,0,L|320:96,1,40,0|2,0:0|0:0,0:0:0:0:
320,32,13958,1,0,0:0:0:0:
208,32,14230,6,0,L|104:32,3,80,8|0|2|0,0:0|0:0|0:0|0:0,0:0:0:0:
56,120,15321,6,0,P|80:152|128:168,1,80,8|0,0:0|0:0,0:0:0:0:
160,168,15730,2,0,L|224:168,1,40,0|2,0:0|0:0,0:0:0:0:
296,168,16140,1,0,0:0:0:0:
432,192,16412,6,0,P|408:272|392:288,1,80,8|0,0:0|0:0,0:0:0:0:
384,296,16821,1,0,0:0:0:0:
352,304,16958,2,0,P|280:304|248:288,1,80,2|0,0:0|0:0,0:0:0:0:
168,304,17503,6,0,B|120:288|96:272|96:272|104:224,1,120,8|0,0:0|0:0,0:0:0:0:
112,200,18049,2,0,L|112:112,1,80,2|0,0:0|0:0,0:0:0:0:
112,80,18458,2,0,L|152:80,1,40,0|8,0:0|0:0,0:0:0:0:
264,80,18867,1,0,0:0:0:0:
264,176,19140,1,2,0:0:0:0:
360,176,19412,1,0,0:0:0:0:
448,240,19685,6,0,P|432:288|392:304,1,80,8|0,0:0|0:0,0:0:0:0:
368,304,20094,2,0,L|304:304,1,40,0|8,0:0|0:0,0:0:0:0:
224,304,20503,1,0,0:0:0:0:
64,200,20776,6,0,P|112:232|160:224,1,80,8|0,0:0|0:0,0:0:0:0:
176,224,21185,2,0,L|224:208,1,40,0|8,0:0|0:0,0:0:0:0:
280,144,21594,1,0,0:0:0:0:
400,56,21867,6,0,P|384:112|392:152,1,80,8|0,0:0|0:0,0:0:0:0:
400,176,22276,2,0,L|456:176,2,40,0|8|0,0:0|0:0|0:0,0:0:0:0:
376,216,22685,2,0,L|376:312,1,80,0|8,0:0|0:0,0:0:0:0:
376,296,23230,1,0,0:0:0:0:
376,296,23503,1,8,0:0:0:0:
376,296,23776,1,0,0:0:0:0:
280,168,24049,6,0,B|248:232|248:232|216:224,1,80,8|0,0:0|0:0,0:0:0:0:
200,216,24458,2,0,L|144:192,1,40,0|8,0:0|0:0,0:0:0:0:
120,184,24867,1,0,0:0:0:0:
152,64,25140,6,0,L|264:64,1,80,8|0,0:0|0:0,0:0:0:0:
272,64,25549,2,0,L|320:64,1,40,0|8,0:0|0:0,0:0:0:0:
232,64,25958,1,0,0:0:0:0:
288,152,26230,6,0,L|344:216,1,80,8|0,0:0|0:0,0:0:0:0:
384,192,26640,2,0,P|392:224|384:264,2,40,0|8|0,0:0|0:0|0:0,0:0:0:0:
392,144,27049,2,0,B|392:104|392:104|448:104,1,80,0|4,0:0|0:0,0:0:0:0:
432,104,27594,1,4,0:0:0:0:
432,104,27867,1,4,0:0:0:0:
440,216,28140,6,0,P|400:264|376:264,1,80,0|8,0:0|0:0,0:0:0:0:
280,264,28685,2,0,L|248:312,2,40,0|0|8,0:0|0:0|0:0,0:0:0:0:
304,176,29230,1,0,0:0:0:0:
304,176,29503,1,8,0:0:0:0:
304,80,29776,2,0,P|264:64|200:80,1,80,0|8,0:0|0:0,0:0:0:0:
80,176,30321,6,0,P|120:184|184:168,1,80,0|8,0:0|0:0,0:0:0:0:
240,280,30867,2,0,P|176:288|144:272,1,80,0|8,0:0|0:0,0:0:0:0:
160,176,31412,1,0,0:0:0:0:
160,176,31685,1,8,0:0:0:0:
160,72,31958,1,0,0:0:0:0:
160,72,32230,1,8,0:0:0:0:
280,56,32503,6,0,B|320:88|320:88|368:64,1,80,0|8,0:0|0:0,0:0:0:0:
400,144,33049,2,0,L|464:144,2,40,0|0|8,0:0|0:0|0:0,0:0:0:0:
400,240,33594,1,0,0:0:0:0:
400,240,33867,1,8,0:0:0:0:
304,240,34140,2,0,L|304:160,1,80,0|8,0:0|0:0,0:0:0:0:
208,80,34685,6,0,P|231:73|247:81,2,40,0|0|8,0:0|0:0|0:0,0:0:0:0:
179,176,35230,2,0,P|160:170|144:160,2,40,0|0|8,0:0|0:0|0:0,0:0:0:0:
184,272,35776,2,0,P|240:296|272:280,1,80,0|4,0:0|0:0,0:0:0:0:
352,296,36321,1,4,0:0:0:0:
440,248,36594,6,0,P|424:200|440:152,1,80,4|0,0:0|0:0,0:0:0:0:
424,72,37140,2,0,B|360:112|312:128|312:128|256:112,1,160,2|8,0:0|0:0,0:0:0:0:
192,64,37958,1,0,0:0:0:0:
96,96,38230,2,0,P|88:144|64:184,1,80,2|0,0:0|0:0,0:0:0:0:
128,248,38776,1,8,0:0:0:0:
224,256,39049,1,0,0:0:0:0:
216,208,39185,1,0,0:0:0:0:
208,160,39321,2,0,L|312:160,1,80,2|0,0:0|0:0,0:0:0:0:
384,160,39867,2,0,L|448:160,2,40,8|0|0,0:0|0:0|0:0,0:0:0:0:
384,264,40412,2,0,B|336:296|336:296|280:296,1,80,2|0,0:0|0:0,0:0:0:0:
272,296,40821,2,0,L|200:296,1,40,0|8,0:0|0:0,0:0:0:0:
120,296,41230,1,0,0:0:0:0:
184,192,41503,6,0,B|88:192|88:192|136:152|96:120,1,160,2|8,0:0|0:0,0:0:0:0:
80,56,42321,1,0,0:0:0:0:
168,64,42594,2,0,B|208:80|208:80|256:56,1,80,2|0,0:0|0:0,0:0:0:0:
336,64,43140,1,8,0:0:0:0:
400,128,43412,1,0,0:0:0:0:
360,144,43549,1,0,0:0:0:0:
328,168,43685,6,0,P|368:216|408:216,1,80,2|0,0:0|0:0,0:0:0:0:
304,304,44230,2,0,P|264:288|216:296,2,80,8|0|2,0:0|0:0|0:0,0:0:0:0:
227,291,45049,1,0,0:0:0:0:
128,296,45321,6,0,P|64:272|56:240,1,80,8|0,0:0|0:0,0:0:0:0:
136,200,45867,2,0,B|176:144|176:144|184:80,1,120,2|0,0:0|0:0,0:0:0:0:
216,72,46412,2,0,L|304:72,1,80,8|0,0:0|0:0,0:0:0:0:
312,160,46958,6,0,B|352:152|352:152|392:104,1,80,2|0,0:0|0:0,0:0:0:0:
400,88,47367,2,0,L|440:48,1,40,0|8,0:0|0:0,0:0:0:0:
312,160,47776,1,0,0:0:0:0:
416,256,48049,6,0,P|352:272|304:272,1,80,2|0,0:0|0:0,0:0:0:0:
304,280,48458,2,0,L|256:280,1,40,0|8,0:0|0:0,0:0:0:0:
416,256,48867,1,0,0:0:0:0:
432,136,49140,5,2,0:0:0:0:
432,40,49412,1,0,0:0:0:0:
336,40,49685,1,8,0:0:0:0:
336,136,49958,1,0,0:0:0:0:
176,192,50230,6,0,L|96:192,1,80,2|0,0:0|0:0,0:0:0:0:
176,296,50776,2,0,L|256:296,1,80,8|0,0:0|0:0,0:0:0:0:
360,296,51185,1,0,0:0:0:0:
440,192,51321,6,0,L|360:192,1,80,2|0,0:0|0:0,0:0:0:0:
264,192,51730,1,0,0:0:0:0:
344,96,51867,2,0,L|264:96,1,80,8|0,0:0|0:0,0:0:0:0:
168,88,52276,1,0,0:0:0:0:
64,88,52412,6,0,P|48:160|72:232,1,120,2|0,0:0|0:0,0:0:0:0:
144,160,52958,2,0,P|152:216|144:264,1,80,8|0,0:0|0:0,0:0:0:0:
160,328,53367,1,0,0:0:0:0:
248,296,53503,2,0,P|336:264|344:264,2,80,2|0|8,0:0|0:0|0:0,0:0:0:0:
248,296,54321,1,0,0:0:0:0:
280,72,54594,6,4,B|336:128|336:128|400:144,1,120,4|0,0:0|0:0,0:0:0:0:
408,144,55140,2,0,B|448:152|448:152|448:224,1,80,4|0,0:0|0:0,0:0:0:0:
360,240,55685,2,0,P|328:288|256:304,1,120,4|0,0:0|0:0,0:0:0:0:
232,304,56230,2,0,P|176:288|152:256,1,80,4|0,0:0|0:0,0:0:0:0:
256,192,56776,12,4,57867,0:0:0:0:
256,192,58412,5,4,0:0:0:0:
160,288,58958,6,0,L|56:288,1,80,8|0,0:0|0:0,0:0:0:0:
80,248,59367,2,0,L|24:248,1,40,0|8,0:0|0:0,0:0:0:0:
80,152,59776,2,0,L|168:152,1,80,0|8,0:0|0:0,0:0:0:0:
160,64,60321,5,0,0:0:0:0:
256,64,60594,1,8,0:0:0:0:
360,64,60867,1,0,0:0:0:0:
400,160,61140,6,0,L|464:224,1,80,8|0,0:0|0:0,0:0:0:0:
432,248,61549,2,0,L|472:288,1,40,0|8,0:0|0:0,0:0:0:0:
360,312,61958,2,0,P|320:320|272:304,1,80,0|8,0:0|0:0,0:0:0:0:
168,256,62503,5,0,0:0:0:0:
80,184,62776,2,0,B|120:168|120:168|128:112,1,80,8|0,0:0|0:0,0:0:0:0:
240,144,63321,6,0,P|256:72|264:32,1,80,8|0,0:0|0:0,0:0:0:0:
288,64,63730,2,0,L|328:72|328:72,1,40,0|8,0:0|0:0,0:0:0:0:
432,96,64140,1,0,0:0:0:0:
376,176,64412,2,0,P|440:200|464:192,3,80,8|0|8|0,0:0|0:0|0:0|0:0,0:0:0:0:
328,272,65503,6,0,P|256:320|208:320,1,120,8|0,0:0|0:0,0:0:0:0:
184,312,66049,2,0,L|120:248,1,80,8|0,0:0|0:0,0:0:0:0:
112,136,66594,6,0,L|160:160|192:176,1,80,8|0,0:0|0:0,0:0:0:0:
224,72,67140,2,0,L|328:72,1,80,8|0,0:0|0:0,0:0:0:0:
456,56,67685,6,0,L|400:144,1,80,8|0,0:0|0:0,0:0:0:0:
440,144,68094,2,0,L|408:200,1,40,0|8,0:0|0:0,0:0:0:0:
408,280,68503,2,0,P|344:288|296:280,1,80,0|8,0:0|0:0,0:0:0:0:
208,288,69049,5,0,0:0:0:0:
104,256,69321,1,8,0:0:0:0:
64,152,69594,1,0,0:0:0:0:
152,80,69867,6,0,P|176:128|176:176,1,80,8|0,0:0|0:0,0:0:0:0:
216,160,70276,2,0,P|224:136|240:112,1,40,0|8,0:0|0:0,0:0:0:0:
328,72,70685,2,0,P|376:96|424:96,1,80,0|8,0:0|0:0,0:0:0:0:
448,192,71230,5,0,0:0:0:0:
392,272,71503,2,0,B|368:312|368:312|320:312,1,80,8|0,0:0|0:0,0:0:0:0:
288,208,72049,6,0,L|288:96,1,80,8|0,0:0|0:0,0:0:0:0:
288,88,72458,1,0,0:0:0:0:
240,88,72594,2,0,L|240:184,1,80,8|0,0:0|0:0,0:0:0:0:
128,176,73140,6,0,L|128:280,1,80,8|0,0:0|0:0,0:0:0:0:
128,296,73549,1,0,0:0:0:0:
80,296,73685,2,0,L|80:208,1,80,8|0,0:0|0:0,0:0:0:0:
72,64,74230,6,0,B|112:96|112:96|168:80,1,80,8|0,0:0|0:0,0:0:0:0:
176,80,74640,2,0,B|216:56|216:56|264:64,1,80,8|0,0:0|0:0,0:0:0:0:
280,80,75049,2,0,B|312:112|312:112|296:176,1,80,8|4,0:0|0:0,0:0:0:0:
376,224,75594,6,0,B|416:168|416:168|424:136,2,80,0|8|0,0:0|0:0|0:0,0:0:0:0:
440,312,76412,2,0,P|360:328|288:288,1,160,4|8,0:0|0:0,0:0:0:0:
200,232,77230,2,0,P|160:272|144:328,1,80,0|2,0:0|0:0,0:0:0:0:
64,216,77776,2,0,L|64:128,2,80,0|8|0,0:0|0:0|0:0,0:0:0:0:
176,104,78594,6,0,L|248:64,1,80,4|0,0:0|0:0,0:0:0:0:
264,96,79003,2,0,L|344:96,1,80,8|0,0:0|0:0,0:0:0:0:
352,136,79412,2,0,L|440:160,1,80,8|4,0:0|0:0,0:0:0:0:
424,256,79958,6,0,L|424:344,2,80,0|8|0,0:0|0:0|0:0,0:0:0:0:
320,296,80776,2,0,B|240:296|240:296|168:248,1,160,4|8,0:0|0:0,0:0:0:0:
88,200,81594,2,0,P|120:160|128:120,1,80,0|2,0:0|0:0,0:0:0:0:
176,56,82140,2,0,P|232:40|264:56,2,80,0|8|0,0:0|0:0|0:0,0:0:0:0:
232,152,82958,6,0,P|272:160|320:144,1,80,4|0,0:0|0:0,0:0:0:0:
352,176,83367,2,0,P|336:224|344:256,1,80,8|0,0:0|0:0,0:0:0:0:
328,288,83776,2,0,P|272:280|248:288,1,80,8|4,0:0|0:0,0:0:0:0:
136,288,84594,6,0,P|96:272|96:240,1,80,8|0,0:0|0:0,0:0:0:0:
104,96,85140,2,0,P|128:128|208:160,1,120,8|0,0:0|0:0,0:0:0:0:
199,159,85685,1,8,0:0:0:0:
240,56,85958,5,0,0:0:0:0:
336,80,86230,2,0,P|376:88|440:144,1,120,8|0,0:0|0:0,0:0:0:0:
436,137,86776,1,8,0:0:0:0:
336,192,87049,5,0,0:0:0:0:
424,256,87321,2,0,P|384:288|312:296,1,120,8|0,0:0|0:0,0:0:0:0:
317,296,87867,1,8,0:0:0:0:
200,296,88140,5,0,0:0:0:0:
104,248,88412,2,0,B|72:200|72:200|72:176,3,80,8|0|8|0,0:0|0:0|0:0|0:0,0:0:0:0:
112,56,89503,6,0,P|152:80|232:88,1,120,8|0,0:0|0:0,0:0:0:0:
264,88,90049,2,0,L|360:88,1,80,8|0,0:0|0:0,0:0:0:0:
344,88,90458,1,0,0:0:0:0:
440,176,90594,6,0,P|352:176|312:192,1,120,8|0,0:0|0:0,0:0:0:0:
288,208,91140,2,0,L|208:256,1,80,8|0,0:0|0:0,0:0:0:0:
219,249,91549,1,0,0:0:0:0:
120,264,91685,6,0,B|128:320|144:336|208:336,1,120,8|0,0:0|0:0,0:0:0:0:
240,336,92230,2,0,L|336:336,1,80,8|0,0:0|0:0,0:0:0:0:
320,336,92640,1,0,0:0:0:0:
440,272,92776,5,8,0:0:0:0:
440,168,93049,1,0,0:0:0:0:
360,96,93321,1,8,0:0:0:0:
256,96,93594,1,0,0:0:0:0:
88,80,93867,6,0,P|144:112|160:160,1,80,8|0,0:0|0:0,0:0:0:0:
176,156,94276,2,0,L|208:188,1,40,0|8,0:0|0:0,0:0:0:0:
176,280,94685,1,0,0:0:0:0:
101,302,94958,6,0,B|157:294|157:294|189:270,1,80,8|0,0:0|0:0,0:0:0:0:
216,264,95367,2,0,L|248:296,1,40,0|8,0:0|0:0,0:0:0:0:
276,188,95776,1,0,0:0:0:0:
368,200,96049,6,0,P|392:232|432:240,1,80,8|0,0:0|0:0,0:0:0:0:
452,196,96458,2,0,L|480:132,2,40,0|8|0,0:0|0:0|0:0,0:0:0:0:
416,160,96867,2,0,P|376:128|352:80,1,80,0|8,0:0|0:0,0:0:0:0:
360,104,97412,1,0,0:0:0:0:
360,104,97685,1,8,0:0:0:0:
360,104,97958,1,0,0:0:0:0:
248,72,98230,6,0,P|216:96|152:104,1,80,8|0,0:0|0:0,0:0:0:0:
192,152,98640,2,0,L|232:152,1,40,0|8,0:0|0:0,0:0:0:0:
336,168,99049,1,0,0:0:0:0:
432,248,99321,6,0,L|360:312,1,80,8|0,0:0|0:0,0:0:0:0:
328,304,99730,2,0,L|296:272,1,40,0|8,0:0|0:0,0:0:0:0:
208,216,100140,1,0,0:0:0:0:
80,112,100412,6,0,P|128:136|176:136,1,80,8|0,0:0|0:0,0:0:0:0:
192,112,100821,2,0,L|192:48,2,40,0|8|0,0:0|0:0|0:0,0:0:0:0:
240,112,101230,2,0,B|280:112|280:112|296:160,1,80,0|4,0:0|0:0,0:0:0:0:
292,149,101776,1,4,0:0:0:0:
292,149,102049,1,4,0:0:0:0:
240,288,102321,6,0,L|224:324,2,40,0|0|8,0:0|0:0|0:0,0:0:0:0:
399,248,102867,2,0,P|376:279|338:288,1,80,0|8,0:0|0:0,0:0:0:0:
168,208,103412,2,0,P|224:184|264:192,1,80,0|8,0:0|0:0,0:0:0:0:
344,176,103958,1,0,0:0:0:0:
344,176,104230,1,8,0:0:0:0:
336,48,104503,6,0,P|280:80|240:80,1,80,0|8,0:0|0:0,0:0:0:0:
168,112,105049,2,0,P|224:160|248:160,1,80,0|8,0:0|0:0,0:0:0:0:
168,240,105594,1,0,0:0:0:0:
112,328,105867,1,8,0:0:0:0:
24,272,106140,1,0,0:0:0:0:
80,192,106412,1,8,0:0:0:0:
192,104,106685,6,0,L|168:72,2,40,0|0|8,0:0|0:0|0:0,0:0:0:0:
368,88,107230,2,0,P|327:79|272:96,1,80,0|8,0:0|0:0,0:0:0:0:
136,184,107776,2,0,P|175:199|216:200,1,80,0|8,0:0|0:0,0:0:0:0:
312,184,108321,1,0,0:0:0:0:
312,184,108594,1,8,0:0:0:0:
376,288,108867,6,0,P|416:288|424:280,2,40,0|0|8,0:0|0:0|0:0,0:0:0:0:
264,296,109412,2,0,P|240:288|208:296,2,40,0|0|8,0:0|0:0|0:0,0:0:0:0:
312,208,109958,2,0,L|312:112,1,80,0|4,0:0|0:0,0:0:0:0:
248,64,110503,1,4,0:0:0:0:
160,56,110776,6,0,P|128:120|128:160,1,80,4|0,0:0|0:0,0:0:0:0:
56,208,111321,2,0,P|112:272|200:288,1,160,2|8,0:0|0:0,0:0:0:0:
288,288,112140,1,0,0:0:0:0:
376,232,112412,2,0,P|360:176|368:120,1,80,2|0,0:0|0:0,0:0:0:0:
392,64,112958,1,8,0:0:0:0:
280,88,113230,1,0,0:0:0:0:
240,104,113367,1,0,0:0:0:0:
200,112,113503,2,0,P|144:120|112:120,1,80,2|0,0:0|0:0,0:0:0:0:
112,224,114049,2,0,L|56:224,2,40,8|0|0,0:0|0:0|0:0,0:0:0:0:
208,288,114594,2,0,L|264:288|312:288,1,80,2|0,0:0|0:0,0:0:0:0:
328,280,115003,2,0,L|368:256,1,40,0|8,0:0|0:0,0:0:0:0:
440,192,115412,1,0,0:0:0:0:
392,72,115685,6,0,B|352:120|352:120|312:120|304:64|240:80,1,160,2|8,0:0|0:0,0:0:0:0:
184,128,116503,1,0,0:0:0:0:
264,176,116776,2,0,P|312:144|336:152,1,80,2|0,0:0|0:0,0:0:0:0:
416,208,117321,1,8,0:0:0:0:
328,280,117594,1,0,0:0:0:0:
296,304,117730,1,0,0:0:0:0:
264,320,117867,6,0,P|208:328|184:320,1,80,2|0,0:0|0:0,0:0:0:0:
88,280,118412,2,0,L|88:176,2,80,8|0|2,0:0|0:0|0:0,0:0:0:0:
120,72,119503,6,0,L|208:72,1,80,8|0,0:0|0:0,0:0:0:0:
304,72,120049,2,0,P|352:112|312:168,1,120,2|0,0:0|0:0,0:0:0:0:
312,184,120594,2,0,P|296:240|320:264,1,80,8|0,0:0|0:0,0:0:0:0:
424,304,121140,5,2,0:0:0:0:
424,216,121412,1,0,0:0:0:0:
424,304,121685,1,8,0:0:0:0:
424,216,121958,1,0,0:0:0:0:
312,256,122230,6,0,P|256:288|192:304,1,120,2|0,0:0|0:0,0:0:0:0:
168,288,122776,2,0,P|104:288|64:304,1,80,8|0,0:0|0:0,0:0:0:0:
72,192,123321,5,2,0:0:0:0:
120,112,123594,1,0,0:0:0:0:
200,152,123867,1,8,0:0:0:0:
240,72,124140,1,0,0:0:0:0:
336,112,124412,6,0,P|344:72|336:32,1,80,2|0,0:0|0:0,0:0:0:0:
432,112,124958,2,0,P|424:152|432:192,1,80,8|0,0:0|0:0,0:0:0:0:
456,280,125367,1,0,0:0:0:0:
360,320,125503,6,0,L|360:240,1,80,2|0,0:0|0:0,0:0:0:0:
272,240,125912,1,0,0:0:0:0:
184,240,126049,2,0,L|184:160,1,80,8|0,0:0|0:0,0:0:0:0:
184,64,126458,1,0,0:0:0:0:
88,72,126594,6,0,B|32:112|32:112|48:192,1,120,2|0,0:0|0:0,0:0:0:0:
56,200,127140,2,0,P|72:264|64:312,1,80,8|0,0:0|0:0,0:0:0:0:
160,248,127549,1,0,0:0:0:0:
256,240,127685,2,0,P|240:296|224:344,2,80,2|0|8,0:0|0:0|0:0,0:0:0:0:
256,240,128503,1,0,0:0:0:0:
160,144,128776,6,0,P|208:88|288:88,1,120,4|0,0:0|0:0,0:0:0:0:
288,80,129321,2,0,L|368:80,1,80,4|0,0:0|0:0,0:0:0:0:
336,184,129867,2,0,P|392:224|416:288,1,120,4|0,0:0|0:0,0:0:0:0:
416,304,130412,2,0,L|328:328,1,80,4|0,0:0|0:0,0:0:0:0:
256,192,130958,12,4,132049,0:0:0:0:
256,192,132594,5,4,0:0:0:0:
184,304,133140,6,0,P|136:280|120:240,1,80,8|0,0:0|0:0,0:0:0:0:
120,216,133549,2,0,P|96:168|80:168,1,40,0|8,0:0|0:0,0:0:0:0:
56,104,133958,2,0,P|120:72|160:72,1,80,0|8,0:0|0:0,0:0:0:0:
232,64,134503,5,0,0:0:0:0:
264,152,134776,1,8,0:0:0:0:
296,240,135049,1,0,0:0:0:0:
392,304,135321,6,0,P|416:240|408:200,1,80,8|0,0:0|0:0,0:0:0:0:
400,192,135730,2,0,P|392:144|400:128,1,40,0|8,0:0|0:0,0:0:0:0:
416,48,136140,2,0,P|360:64|312:64,1,80,0|8,0:0|0:0,0:0:0:0:
232,96,136685,5,0,0:0:0:0:
128,120,136958,2,0,B|96:136|96:136|72:192,1,80,8|0,0:0|0:0,0:0:0:0:
192,224,137503,6,0,P|256:232|272:224,1,80,8|0,0:0|0:0,0:0:0:0:
304,216,137912,2,0,L|352:216,1,40,0|8,0:0|0:0,0:0:0:0:
448,216,138321,1,0,0:0:0:0:
392,304,138594,2,0,B|352:312|352:312|304:304,3,80,8|0|8|0,0:0|0:0|0:0|0:0,0:0:0:0:
208,256,139685,6,0,P|160:288|96:288,1,120,8|0,0:0|0:0,0:0:0:0:
64,272,140230,2,0,P|80:232|72:168,1,80,8|0,0:0|0:0,0:0:0:0:
120,80,140776,6,0,L|216:104,1,80,8|0,0:0|0:0,0:0:0:0:
304,104,141321,2,0,L|392:88,1,80,8|0,0:0|0:0,0:0:0:0:
456,200,141867,6,0,L|360:216,1,80,8|0,0:0|0:0,0:0:0:0:
352,248,142276,2,0,L|312:296,1,40,0|8,0:0|0:0,0:0:0:0:
216,320,142685,2,8,P|176:312|136:280,1,80,0|8,0:0|0:0,0:0:0:0:
80,192,143230,5,0,0:0:0:0:
192,216,143503,1,8,0:0:0:0:
272,144,143776,1,0,0:0:0:0:
176,112,144049,6,0,B|200:48|200:48|240:48,1,80,8|0,0:0|0:0,0:0:0:0:
248,48,144458,2,0,L|296:48,1,40,0|8,0:0|0:0,0:0:0:0:
408,48,144867,2,0,P|456:96|456:120,1,80,0|8,0:0|0:0,0:0:0:0:
424,208,145412,5,0,0:0:0:0:
352,288,145685,2,0,B|320:304|320:296|296:272|296:272|256:296,1,80,8|0,0:0|0:0,0:0:0:0:
168,312,146230,6,0,P|144:256|136:216,1,80,8|0,0:0|0:0,0:0:0:0:
128,200,146640,1,0,0:0:0:0:
136,160,146776,2,0,P|144:120|160:80,1,80,8|0,0:0|0:0,0:0:0:0:
264,64,147321,6,0,B|336:72|336:72|360:64,1,80,8|0,0:0|0:0,0:0:0:0:
384,64,147730,1,0,0:0:0:0:
392,96,147867,2,0,B|360:112|360:112|304:168,1,80,8|0,0:0|0:0,0:0:0:0:
448,216,148412,6,0,P|408:264|400:312,1,80,8|0,0:0|0:0,0:0:0:0:
376,312,148821,2,0,P|328:304|280:320,1,80,8|0,0:0|0:0,0:0:0:0:
256,320,149230,2,0,P|208:296|168:296,1,80,8|4,0:0|0:0,0:0:0:0:
144,192,149776,6,0,P|96:192|64:176,2,80,0|8|0,0:0|0:0|0:0,0:0:0:0:
136,88,150594,2,0,B|184:72|216:88|216:88|272:120|320:96,1,160,4|8,0:0|0:0,0:0:0:0:
392,80,151412,2,0,P|416:152|408:176,1,80,0|2,0:0|0:0,0:0:0:0:
360,240,151958,2,0,P|368:288|400:320,2,80,0|8|0,0:0|0:0|0:0,0:0:0:0:
248,288,152776,6,0,L|152:296,1,80,4|0,0:0|0:0,0:0:0:0:
112,248,153185,2,0,L|216:240,1,80,8|0,0:0|0:0,0:0:0:0:
240,184,153594,2,0,L|136:192,1,80,8|4,0:0|0:0,0:0:0:0:
176,88,154140,6,0,P|112:96|72:72,2,80,0|8|0,0:0|0:0|0:0,0:0:0:0:
280,48,154958,2,0,B|352:64|352:64|360:96|400:96|400:96|416:152,1,160,4|8,0:0|0:0,0:0:0:0:
328,184,155776,2,0,P|400:224|432:224,1,80,0|2,0:0|0:0,0:0:0:0:
320,304,156321,2,0,L|232:312,2,80,0|8|0,0:0|0:0|0:0,0:0:0:0:
456,312,157140,6,0,L|416:216,1,80,4|0,0:0|0:0,0:0:0:0:
464,216,157549,2,0,L|464:128,1,80,8|0,0:0|0:0,0:0:0:0:
448,96,157958,2,0,L|352:120,1,80,8|4,0:0|0:0,0:0:0:0:
288,64,161503,22,0,P|224:72|136:64,1,120,8|0,0:0|0:0,0:0:0:0:
120,72,162049,2,0,P|80:120|96:168,2,80,8|0|8,0:0|0:0|0:0,0:0:0:0:
176,144,162867,1,0,0:0:0:0:
176,144,163140,1,8,0:0:0:0:
400,160,165867,38,0,P|424:208|416:280,1,120,8|0,0:0|0:0,0:0:0:0:
384,304,166412,2,0,L|336:304|272:304,2,80,8|0|8,0:0|0:0|0:0,0:0:0:0:
336,216,167230,1,0,0:0:0:0:
336,216,167503,1,8,0:0:0:0:
272,144,170230,22,0,L|192:248,1,120,8|0,0:0|0:0,0:0:0:0:
176,272,170776,2,0,P|128:320|96:312,2,80,8|0|8,0:0|0:0|0:0,0:0:0:0:
88,232,171594,1,0,0:0:0:0:
88,232,171867,1,8,0:0:0:0:
96,72,174594,6,0,P|112:128|152:160,1,80,8|0,0:0|0:0,0:0:0:0:
208,88,175140,2,0,P|264:136|280:176,1,80,8|0,0:0|0:0,0:0:0:0:
368,184,175685,2,0,B|424:200|424:200|432:256,1,80,8|0,0:0|0:0,0:0:0:0:
432,264,176094,1,0,0:0:0:0:
424,304,176230,1,8,0:0:0:0:
280,312,176776,5,8,0:0:0:0:
164,244,177049,1,0,0:0:0:0:
192,132,177321,1,8,0:0:0:0:
308,128,177594,1,0,0:0:0:0:
368,240,177867,1,8,0:0:0:0:
424,148,178412,2,0,P|440:84|440:52,1,80,8|0,0:0|0:0,0:0:0:0:
280,64,178958,6,0,L|176:64,2,80,2|0|8,0:0|0:0|0:0,0:0:0:0:
352,176,180049,22,0,L|448:176,2,80,2|0|8,0:0|0:0|0:0,0:0:0:0:
264,296,181140,21,2,0:0:0:0:
160,304,181412,1,0,0:0:0:0:
200,216,181685,1,8,0:0:0:0:
192,96,182230,38,0,L|112:96,2,80,2|0|8,0:0|0:0|0:0,0:0:0:0:
344,184,183321,54,0,L|448:184,2,80,2|0|8,0:0|0:0|0:0,0:0:0:0:
232,216,184412,53,2,0:0:0:0:
160,304,184685,1,0,0:0:0:0:
264,320,184958,1,8,0:0:0:0:
256,192,185503,12,4,187140,0:0:0:0:
104,80,187685,38,0,L|200:80,1,80,8|0,0:0|0:0,0:0:0:0:
184,176,188230,2,0,L|272:176,1,80,8|0,0:0|0:0,0:0:0:0:
120,288,188776,21,8,0:0:0:0:
224,288,189049,1,0,0:0:0:0:
328,288,189321,1,8,0:0:0:0:
432,288,189594,1,0,0:0:0:0:
432,176,189867,22,0,P|392:128|392:80,1,80,8|0,0:0|0:0,0:0:0:0:
312,48,190412,2,0,P|288:88|248:112,1,80,8|0,0:0|0:0,0:0:0:0:
144,72,190958,37,8,0:0:0:0:
64,144,191230,1,0,0:0:0:0:
152,192,191503,1,8,0:0:0:0:
80,272,191776,1,0,0:0:0:0:
208,288,192049,53,8,0:0:0:0:
320,320,192321,1,0,0:0:0:0:
360,208,192594,1,8,0:0:0:0:
248,176,192867,1,0,0:0:0:0:
224,48,193140,54,0,P|288:56|328:48,1,80,8|0,0:0|0:0,0:0:0:0:
424,104,193685,2,0,P|376:136|360:176,1,80,8|0,0:0|0:0,0:0:0:0:
344,256,194230,1,4,0:0:0:0:
160,272,195321,6,0,P|104:296|72:288,2,80,4|0|8,0:0|0:0|0:0,0:0:0:0:
88,144,196412,6,0,P|144:120|192:128,1,80,8|0,0:0|0:0,0:0:0:0:
200,120,196821,2,0,L|256:128,1,40,0|8,0:0|0:0,0:0:0:0:
328,200,197230,2,0,P|360:144|352:104,1,80,0|8,0:0|0:0,0:0:0:0:
424,48,197776,5,0,0:0:0:0:
480,136,198049,1,8,0:0:0:0:
456,232,198321,1,0,0:0:0:0:
360,304,198594,6,0,P|280:304|248:312,1,80,8|0,0:0|0:0,0:0:0:0:
240,312,199003,2,0,L|192:304,1,40,0|8,0:0|0:0,0:0:0:0:
88,232,199412,2,0,P|160:208|176:192,1,80,0|8,0:0|0:0,0:0:0:0:
256,136,199958,5,0,0:0:0:0:
360,96,200230,1,8,0:0:0:0:
448,152,200503,1,0,0:0:0:0:
352,200,200776,6,0,P|384:264|416:288,1,80,8|0,0:0|0:0,0:0:0:0:
352,200,201185,2,0,P|336:144|328:136,1,40,0|8,0:0|0:0,0:0:0:0:
272,72,201594,1,0,0:0:0:0:
168,120,201867,2,0,P|104:144|80:144,1,80,8|0,0:0|0:0,0:0:0:0:
168,224,202412,2,0,P|232:248|264:240,1,80,8|0,0:0|0:0,0:0:0:0:
320,320,202958,2,0,P|368:296|384:208,1,120,8|0,0:0|0:0,0:0:0:0:
432,240,203503,2,0,L|432:152,1,80,8|0,0:0|0:0,0:0:0:0:
368,64,204049,6,0,L|280:64,2,80,8|0|8,0:0|0:0|0:0,0:0:0:0:
368,64,204867,1,0,0:0:0:0:
336,168,205140,6,0,P|296:200|240:216,1,80,8|0,0:0|0:0,0:0:0:0:
232,200,205549,2,0,L|184:184,1,40,0|8,0:0|0:0,0:0:0:0:
88,224,205958,2,0,P|112:272|168:296,1,80,0|8,0:0|0:0,0:0:0:0:
240,320,206503,5,0,0:0:0:0:
328,256,206776,1,8,0:0:0:0:
440,288,207049,1,0,0:0:0:0:
440,144,207321,6,0,P|400:176|352:176,1,80,8|0,0:0|0:0,0:0:0:0:
336,168,207730,2,0,L|288:144,1,40,0|8,0:0|0:0,0:0:0:0:
208,96,208140,2,0,P|168:112|136:160,1,80,0|8,0:0|0:0,0:0:0:0:
80,216,208685,5,0,0:0:0:0:
152,304,208958,2,0,L|256:304,1,80,8|0,0:0|0:0,0:0:0:0:
376,304,209503,6,0,B|432:248|432:248|432:224,1,80,8|0,0:0|0:0,0:0:0:0:
432,208,209912,1,0,0:0:0:0:
384,208,210049,2,0,L|384:128,1,80,8|0,0:0|0:0,0:0:0:0:
280,64,210594,6,0,B|208:128|208:128|216:128,1,80,8|0,0:0|0:0,0:0:0:0:
216,160,211003,1,0,0:0:0:0:
176,160,211140,2,0,B|128:160|128:160|80:184,1,80,8|0,0:0|0:0,0:0:0:0:
160,264,211685,6,0,L|224:328,1,80,8|0,0:0|0:0,0:0:0:0:
232,256,212094,2,0,L|288:320,1,80,8|0,0:0|0:0,0:0:0:0:
304,256,212503,2,0,L|360:312,1,80,8|4,0:0|0:0,0:0:0:0:
360,312,213049,5,0,0:0:0:0:
360,312,213321,1,4,0:0:0:0:
432,120,213867,53,8,0:0:0:0:
344,72,214140,1,0,0:0:0:0:
432,120,214412,1,8,0:0:0:0:
128,96,216049,5,8,0:0:0:0:
128,96,216321,1,0,0:0:0:0:
128,96,216594,1,8,0:0:0:0:
112,256,218230,5,8,0:0:0:0:
176,320,218503,1,0,0:0:0:0:
112,256,218776,1,8,0:0:0:0:
208,80,220412,22,0,P|272:112|304:120,1,80,8|0,0:0|0:0,0:0:0:0:
320,120,220821,2,0,L|392:120,1,40,0|8,0:0|0:0,0:0:0:0:
472,120,221230,1,0,0:0:0:0:
480,224,221503,2,0,L|368:224,1,80,8|0,0:0|0:0,0:0:0:0:
360,224,221912,2,0,L|296:224,1,40,0|8,0:0|0:0,0:0:0:0:
192,224,222321,1,0,0:0:0:0:
136,312,222594,22,0,P|88:288|80:240,1,80,8|0,0:0|0:0,0:0:0:0:
80,168,223140,6,0,P|144:136|152:104,2,80,8|0|8,0:0|0:0|0:0,0:0:0:0:
232,80,223958,54,0,L|312:136,1,80,0|8,0:0|0:0,0:0:0:0:
384,176,224503,1,0,0:0:0:0:
440,272,224776,54,0,P|392:280|336:272,2,80,8|0|8,0:0|0:0|0:0,0:0:0:0:
272,216,225594,70,0,L|184:240,1,80,0|8,0:0|0:0,0:0:0:0:
88,272,226140,1,0,0:0:0:0:
64,144,226412,21,8,0:0:0:0:
64,144,226549,1,0,0:0:0:0:
64,144,226685,2,0,L|144:144,1,80,0|8,0:0|0:0,0:0:0:0:
200,56,227230,1,0,0:0:0:0:
304,56,227503,22,0,L|416:56,1,80,8|0,0:0|0:0,0:0:0:0:
304,152,228049,6,0,L|216:152,1,80,8|0,0:0|0:0,0:0:0:0:
304,248,228594,54,0,L|416:248,1,80,8|0,0:0|0:0,0:0:0:0:
256,192,229140,12,4,230230,0:0:0:0:
256,192,230776,5,4,0:0:0:0:
160,280,231321,6,0,L|88:280,2,50,8|0|0,0:0|0:0|0:0,0:0:0:0:
152,176,231867,2,0,P|232:176|256:160,2,100,8|0|8,0:0|0:0|0:0,0:0:0:0:
192,80,232685,1,0,0:0:0:0:
304,80,232958,2,0,L|424:80,1,100,8|0,0:0|0:0,0:0:0:0:
408,176,233503,6,0,L|472:176,2,50,8|0|0,0:0|0:0|0:0,0:0:0:0:
408,280,234049,2,0,P|344:304|288:312,2,100,8|0|8,0:0|0:0|0:0,0:0:0:0:
336,208,234867,1,0,0:0:0:0:
232,208,235140,2,0,L|120:208,1,100,8|0,0:0|0:0,0:0:0:0:
88,72,235685,6,0,P|160:80|232:72,1,100,8|0,0:0|0:0,0:0:0:0:
232,80,236094,2,0,L|304:80,1,50,0|8,0:0|0:0,0:0:0:0:
400,80,236503,1,0,0:0:0:0:
400,184,236776,2,0,L|400:296,2,100,8|0|8,0:0|0:0|0:0,0:0:0:0:
400,80,237594,1,0,0:0:0:0:
264,160,237867,6,0,P|264:248|216:304,1,150,8|0,0:0|0:0,0:0:0:0:
192,304,238412,2,0,P|144:256|80:240,1,100,8|0,0:0|0:0,0:0:0:0:
80,144,238958,5,8,0:0:0:0:
80,144,239230,1,0,0:0:0:0:
80,144,239503,1,8,0:0:0:0:
256,104,240049,6,0,L|256:32,2,50,8|0|0,0:0|0:0|0:0,0:0:0:0:
368,120,240594,2,0,P|424:176|424:232,2,100,8|0|8,0:0|0:0|0:0,0:0:0:0:
328,208,241412,1,0,0:0:0:0:
224,208,241685,2,0,P|208:264|168:296,1,100,8|0,0:0|0:0,0:0:0:0:
120,200,242230,6,0,P|88:152|96:128,2,50,8|0|0,0:0|0:0|0:0,0:0:0:0:
176,112,242776,2,0,P|256:80|304:88,2,100,8|0|8,0:0|0:0|0:0,0:0:0:0:
248,176,243594,1,0,0:0:0:0:
352,216,243867,70,0,P|408:208|456:192,1,100,8|0,0:0|0:0,0:0:0:0:
400,288,244412,2,0,L|336:320,1,50,2|0,0:0|0:0,0:0:0:0:
272,296,244685,2,0,P|200:312|160:296,1,100,0|8,0:0|0:0,0:0:0:0:
80,240,245230,1,0,0:0:0:0:
80,128,245503,2,0,L|80:16,2,100,2|0|8,0:0|0:0|0:0,0:0:0:0:
192,128,246321,5,0,0:0:0:0:
280,128,246458,1,0,0:0:0:0:
368,128,246594,2,0,L|464:176,1,100,4|0,0:0|0:0,0:0:0:0:
376,232,247003,2,0,L|376:344,1,100,8|0,0:0|0:0,0:0:0:0:
288,328,247412,2,0,L|176:328,1,100,8|4,0:0|0:0,0:0:0:0:
176,264,247958,6,0,P|128:296|80:304,2,100,0|8|0,0:0|0:0|0:0,0:0:0:0:
48,152,248776,2,0,P|112:96|136:88,1,100,4|0,0:0|0:0,0:0:0:0:
152,128,249185,1,0,0:0:0:0:
176,168,249321,2,0,B|232:168|232:168|248:120,1,100,8|0,0:0|0:0,0:0:0:0:
368,56,249867,2,0,B|431:62|431:62|456:136,1,100,2|0,0:0|0:0,0:0:0:0:
408,128,250276,1,0,0:0:0:0:
376,152,250412,2,0,L|304:256,1,100,8|0,0:0|0:0,0:0:0:0:
432,296,250958,6,0,L|336:328,1,100,4|0,0:0|0:0,0:0:0:0:
312,240,251367,2,0,L|200:280,1,100,8|0,0:0|0:0,0:0:0:0:
184,192,251776,2,0,L|64:232,1,100,8|4,0:0|0:0,0:0:0:0:
160,80,252321,6,0,P|111:67|69:40,2,100,0|8|0,0:0|0:0|0:0,0:0:0:0:
304,64,253140,2,0,P|368:104|416:144,1,100,4|0,0:0|0:0,0:0:0:0:
360,152,253549,1,0,0:0:0:0:
328,184,253685,2,0,L|328:312,1,100,8|0,0:0|0:0,0:0:0:0:
448,296,254230,2,0,P|368:304|312:304,1,100,2|0,0:0|0:0,0:0:0:0:
304,296,254640,1,0,0:0:0:0:
264,288,254776,2,0,P|200:288|128:304,1,100,8|0,0:0|0:0,0:0:0:0:
104,176,255321,6,0,P|96:80|112:48,1,100,4|0,0:0|0:0,0:0:0:0:
184,112,255730,2,0,P|208:176|200:240,1,100,8|0,0:0|0:0,0:0:0:0:
296,256,256140,2,0,P|296:200|320:152,1,100,8|4,0:0|0:0,0:0:0:0:
368,80,256685,6,0,P|448:56|480:32,2,100,0|8|0,0:0|0:0|0:0,0:0:0:0:
448,168,257503,2,0,P|424:216|352:248,1,100,4|0,0:0|0:0,0:0:0:0:
344,160,257912,1,0,0:0:0:0:
272,208,258049,2,0,L|216:312,1,100,8|0,0:0|0:0,0:0:0:0:
128,208,258594,2,0,B|96:264|80:224|64:144,1,100,2|0,0:0|0:0,0:0:0:0:
40,104,259003,1,0,0:0:0:0:
120,72,259140,2,0,B|152:96|184:88|216:120,1,100,8|0,0:0|0:0,0:0:0:0:
400,64,259685,6,0,L|272:112,1,100,4|0,0:0|0:0,0:0:0:0:
368,176,260094,2,0,L|488:208,1,100,8|0,0:0|0:0,0:0:0:0:
360,272,260503,2,0,L|240:296,1,100,8|4,0:0|0:0,0:0:0:0:
112,280,261049,5,0,0:0:0:0:
112,280,261321,37,8,0:0:0:0:
112,280,261594,5,0,0:0:0:0:
152,176,261867,6,0,P|128:120|144:40,1,100,4|0,0:0|0:0,0:0:0:0:
216,112,262276,2,0,P|264:64|288:64,1,50,0|8,0:0|0:0,0:0:0:0:
408,80,262685,22,0,P|368:104|344:104,1,50
352,200,262958,2,0,P|424:184|480:152,1,100,2|0,0:0|0:0,0:0:0:0:
424,304,263503,2,0,P|336:320|280:320,1,100,8|0,0:0|0:0,0:0:0:0:
208,256,264049,6,0,L|64:224,1,100,4|0,0:0|0:0,0:0:0:0:
96,104,264458,2,0,L|216:128,1,100,8|0,0:0|0:0,0:0:0:0:
320,168,264867,2,0,L|424:136,1,100,8|4,0:0|0:0,0:0:0:0:
384,288,265412,6,0,P|328:320|280:320,1,100,0|2,0:0|0:0,0:0:0:0:
304,224,265958,1,0,0:0:0:0:
256,192,266230,12,4,267594,0:0:0:0:
