osu file format v14

[General]
AudioFilename: gyms - flappy the happy seal (hardstyle edit).mp3
AudioLeadIn: 0
PreviewTime: 97
Countdown: 1
SampleSet: Soft
StackLeniency: 0.7
Mode: 0
LetterboxInBreaks: 1
WidescreenStoryboard: 0

[Editor]
DistanceSpacing: 1.8
BeatDivisor: 4
GridSize: 32
TimelineZoom: 1

[Metadata]
Title:flappy the happy seal (hardstyle edit)
TitleUnicode:flappy the happy seal (hardstyle edit)
Artist:gyms
ArtistUnicode:gyms
Creator:Wafu
Version:Insane
Source:
Tags:nanobii
BeatmapID:691826
BeatmapSetID:309471

[Difficulty]
HPDrainRate:7.5
CircleSize:4
OverallDifficulty:7.5
ApproachRate:9
SliderMultiplier:1.8
SliderTickRate:2

[Events]
//Background and Video events
0,0,"flappy.jpg",0,0
//Break Periods
//Storyboard Layer 0 (Background)
//Storyboard Layer 1 (Fail)
//Storyboard Layer 2 (Pass)
//Storyboard Layer 3 (Foreground)
//Storyboard Sound Samples

[TimingPoints]
97,400,4,2,1,75,1,0
2697,-100,4,2,2,75,0,0
2797,-100,4,2,1,75,0,0
9097,-100,4,2,2,75,0,0
9197,-100,4,2,1,75,0,0
12897,-100,4,2,1,75,0,1
25097,-100,4,2,2,55,0,1
25697,-125,4,2,2,55,0,0

[Colours]
Combo1 : 0,128,255
Combo2 : 58,191,220
Combo3 : 146,241,213
Combo4 : 51,255,224

[HitObjects]
466,53,97,6,0,L|459:142,1,90,8|0,0:0|0:0,0:0:0:0:
345,258,497,2,0,L|331:169,1,90,8|0,0:0|0:0,0:0:0:0:
423,304,897,1,8,0:0:0:0:
261,287,1097,1,0,0:0:0:0:
277,126,1297,1,8,0:0:0:0:
261,287,1497,1,0,0:0:0:0:
165,155,1697,6,0,P|121:146|81:164,1,90,8|0,0:0|0:0,0:0:0:0:
177,296,2097,2,0,P|220:304|260:286,1,90,8|0,0:0|0:0,0:0:0:0:
327,139,2497,2,0,B|391:131|421:189|421:189|423:255,1,180,8|8,0:0|0:0,0:0:0:0:
110,338,3297,6,0,L|19:328,2,90,8|0|8,0:0|0:0|0:0,0:0:0:0:
226,224,3897,1,0,0:0:0:0:
373,291,4097,2,0,B|368:254|368:254|378:202,1,90,8|0,0:0|0:0,0:0:0:0:
440,51,4497,1,8,0:0:0:0:
440,51,4697,1,0,0:0:0:0:
311,149,4897,6,0,P|273:172|229:171,1,90,8|0,0:0|0:0,0:0:0:0:
68,150,5297,1,8,0:0:0:0:
167,22,5497,1,0,0:0:0:0:
229,172,5697,2,0,L|234:261,1,90,8|0,0:0|0:0,0:0:0:0:
99,351,6097,1,4,0:0:0:0:
254,66,6497,6,0,B|288:57|288:57|343:60,1,90,8|0,0:0|0:0,0:0:0:0:
378,217,6897,2,0,L|288:212,1,90,8|0,0:0|0:0,0:0:0:0:
343,60,7297,1,8,0:0:0:0:
445,185,7497,1,0,0:0:0:0:
326,295,7697,1,8,0:0:0:0:
18,192,8097,6,0,P|9:235|25:277,1,90,8|0,0:0|0:0,0:0:0:0:
183,310,8497,2,0,P|192:266|176:224,1,90,8|0,0:0|0:0,0:0:0:0:
137,68,8897,2,0,B|217:55|217:55|241:65|241:65|313:53,1,180,8|8,0:0|0:0,0:0:0:0:
472,78,9497,1,0,0:0:0:0:
312,53,9697,5,8,0:0:0:0:
238,197,9897,1,0,0:0:0:0:
331,331,10097,2,0,L|321:242,1,90,8|0,0:0|0:0,0:0:0:0:
267,89,10497,1,8,0:0:0:0:
222,245,10697,1,0,0:0:0:0:
350,145,10897,1,8,0:0:0:0:
187,151,11097,1,0,0:0:0:0:
322,242,11297,6,0,P|366:244|407:228,1,90,8|0,0:0|0:0,0:0:0:0:
481,82,11697,1,8,0:0:0:0:
319,80,11897,1,0,0:0:0:0:
322,242,12097,1,8,0:0:0:0:
48,68,12497,1,0,0:0:0:0:
48,68,12697,1,0,0:0:0:0:
47,67,12897,6,0,P|71:154|53:241,1,180,8|8,0:0|0:0,0:0:0:0:
173,350,13497,1,2,0:0:0:0:
299,248,13697,2,0,L|289:144,1,90,8|2,0:0|0:0,0:0:0:0:
148,79,14097,2,0,L|156:168,1,90,8|2,0:0|0:0,0:0:0:0:
267,49,14497,5,8,0:0:0:0:
222,204,14697,1,2,0:0:0:0:
343,96,14897,2,0,B|368:96|368:96|397:86|431:99,1,90,8|2,0:0|0:0,0:0:0:0:
476,255,15297,2,0,P|430:329|344:342,1,180,8|8,0:0|0:0,0:0:0:0:
256,206,15897,1,2,0:0:0:0:
167,342,16097,6,0,P|81:329|36:255,1,180,8|8,0:0|0:0,0:0:0:0:
106,108,16697,1,2,0:0:0:0:
241,197,16897,2,0,P|285:197|321:172,1,90,8|2,0:0|0:0,0:0:0:0:
439,60,17297,1,8,0:0:0:0:
283,15,17497,1,2,0:0:0:0:
321,172,17697,6,0,B|341:216|321:260|321:260|301:304|320:346,2,180,8|8|8,0:0|0:0|0:0,0:0:0:0:
22,45,18897,1,4,0:0:0:0:
210,308,19297,6,0,P|273:247|261:161,1,180,8|8,0:0|0:0,0:0:0:0:
125,73,19897,1,2,0:0:0:0:
262,162,20097,2,0,B|310:170|343:144|343:144|394:160|435:141,1,180,8|8,0:0|0:0,0:0:0:0:
314,31,20697,1,2,0:0:0:0:
179,122,20897,6,0,P|178:207|253:251,1,180,8|8,0:0|0:0,0:0:0:0:
353,122,21497,1,2,0:0:0:0:
471,233,21697,2,0,L|461:322,1,90,8|2,0:0|0:0,0:0:0:0:
344,212,22097,2,0,L|353:122,1,90,8|2,0:0|0:0,0:0:0:0:
491,36,22497,5,8,0:0:0:0:
329,32,22697,1,2,0:0:0:0:
462,123,22897,1,8,0:0:0:0:
329,32,23097,1,2,0:0:0:0:
246,171,23297,2,0,P|202:179|161:161,1,90,8|2,0:0|0:0,0:0:0:0:
54,38,23697,1,8,0:0:0:0:
54,38,23897,1,2,0:0:0:0:
42,199,24097,6,0,L|51:288,2,90,8|2|8,0:0|0:0|0:0,0:0:0:0:
135,65,24697,1,2,0:0:0:0:
249,179,24897,2,8,P|336:181|397:118,1,180,8|0,0:0|0:0,0:0:0:0:
135,65,25697,6,0,P|99:63|62:70,2,72,2|0|2,0:0|0:0|0:0,0:0:0:0:
225,111,26297,1,0,0:0:0:0:
299,179,26497,2,0,P|335:181|372:174,2,72,0|2|2,0:0|0:0|0:0,0:0:0:0:
101,139,27297,5,2,0:0:0:0:
78,235,27497,1,0,0:0:0:0:
122,323,27697,1,2,0:0:0:0:
213,362,27897,1,0,0:0:0:0:
312,344,28097,2,0,P|380:326|449:345,1,144,2|0,0:0|0:0,0:0:0:0:
493,147,28897,6,0,P|459:154|423:152,1,72,2|0,0:0|0:0,0:0:0:0:
339,96,29297,2,0,P|303:93|268:101,1,72,2|0,0:0|0:0,0:0:0:0:
211,185,29697,1,0,0:0:0:0:
312,193,29897,1,2,0:0:0:0:
339,96,30097,2,0,L|333:24,1,72,2|0,0:0|0:0,0:0:0:0:
235,53,30497,6,0,P|200:57|165:50,1,72,2|0,0:0|0:0,0:0:0:0:
68,81,30897,1,0,0:0:0:0:
74,181,31097,1,2,0:0:0:0:
174,181,31297,2,0,B|246:180|246:180|281:190|296:227,2,144,0|0|2,0:0|0:0|0:0,0:0:0:0:
