osu file format v9

[General]
AudioFilename: colorfulchannelsubcon.mp3
AudioLeadIn: 0
PreviewTime: 76064
Countdown: 0
SampleSet: Soft
StackLeniency: 0.7
Mode: 0
LetterboxInBreaks: 0

[Editor]
Bookmarks: 16211,30328,44446,58564,62093,70043,76211,88564,88867,90328,104446,118564,125623,130917,137976
DistanceSpacing: 1.2
BeatDivisor: 8
GridSize: 4

[Metadata]
Title:subconsciousness
Artist:guna with team kyukkyu
Creator:Charles445
Version:Hyper
Source:Colorful Channel
Tags:pop'n music yume nikki horror madotsuki squeak pms backfire

[Difficulty]
HPDrainRate:5
CircleSize:4
OverallDifficulty:6
ApproachRate:8
SliderMultiplier:2.5
SliderTickRate:1

[Events]
//Background and Video events
0,0,"subcon_bg.png"
//Break Periods
2,118773,124882
//Storyboard Layer 0 (Background)
//Storyboard Layer 1 (Fail)
//Storyboard Layer 2 (Pass)
//Storyboard Layer 3 (Foreground)
//Storyboard Sound Samples
//Background Colour Transformations
3,100,163,162,255

[TimingPoints]
338,588.235294117647,3,2,1,80,1,0
1955,-133.333333333333,3,1,1,60,0,0
16147,-100,3,1,1,70,0,0
30191,-66.6666666666667,3,2,1,80,0,0
30337,-66.6666666666667,3,2,1,90,0,1
58573,-66.6666666666667,3,2,1,80,0,0
60190,-50,3,2,2,100,0,0
61146,-100,3,2,2,100,0,0
62029,-66.6666666666667,3,2,1,100,0,0
62102,-66.6666666666667,3,2,1,100,0,1
88573,-66.6666666666667,3,2,1,100,0,0
90264,-100,3,2,1,100,0,0
90411,-100,3,2,1,75,0,0
103058,-100,3,2,1,80,0,0
103499,-100,3,2,1,85,0,0
103940,-100,3,2,1,90,0,0
104161,-100,3,2,1,95,0,0
104455,-66.6666666666667,3,2,1,100,0,1
118573,-200,3,2,1,60,0,0
118867,-200,3,1,1,60,0,0
138132,-200,3,2,0,10,0,0
138573,-200,3,2,0,15,0,0
138867,-200,3,2,0,20,0,0
139161,-200,3,2,0,25,0,0
139455,-200,3,2,0,30,0,0
139749,-200,3,2,0,35,0,0
140043,-200,3,2,0,40,0,0
140264,-200,3,2,0,45,0,0

[Colours]
Combo1 : 225,169,0
Combo2 : 151,23,255
Combo3 : 0,69,232
Combo4 : 213,0,53

[HitObjects]
128,304,2102,6,0,B|160:348|232:340,1,93.7499972060324
256,328,2543,1,0
300,340,2690,2,0,B|384:356|432:308|444:252,1,187.499994412065,2|0
384,80,3867,6,0,B|352:36|280:44,1,93.7499972060324
256,56,4308,1,0
212,44,4455,2,0,B|128:28|80:76|68:132,1,187.499994412065,2|0
256,192,5632,6,0,B|348:224,1,93.7499972060324
388,240,6073,1,0
432,256,6220,1,2
364,360,6514,1,0
256,304,6808,1,0
148,360,7102,1,0
80,256,7396,5,0
188,196,7690,1,0
188,196,7837,1,0
188,196,7985,1,2
324,196,8279,1,0
256,80,8573,1,0
256,80,8867,1,0
120,96,9161,6,0,B|51:160,1,93.7499972060324
16,192,9602,1,0
51,223,9749,2,0,B|195:358,1,187.499994412065,2|0
392,288,10926,6,0,B|460:223,1,93.7499972060324
496,192,11367,1,0
460,160,11514,2,0,B|316:25,1,187.499994412065,2|0
112,144,12690,6,0,B|80:192|116:244,1,93.7499972060324
136,272,13132,1,0
180,288,13279,1,2
256,192,13573,2,0,B|256:76,2,93.7499972060324
400,144,14455,6,0,B|432:192|396:244,1,93.7499972060324
376,272,14897,1,0
332,288,15044,1,2
256,192,15337,2,0,B|256:76,2,93.7499972060324
179,288,16220,6,0,B|76:332|19:237,1,187.5
64,176,16808,2,0,B|125:145|133:68,1,125,2|0
256,68,17396,2,0,B|256:192,1,125
332,288,17985,6,0,B|436:332|492:237,1,187.5
448,176,18573,2,0,B|386:145|378:68,1,125,2|0
256,68,19161,1,0
256,192,19455,1,0
256,192,19602,1,0
256,192,19749,6,0,B|240:292|112:304,1,187.5,0|0
48,304,20337,1,2
108,192,20632,1,0
48,80,20926,1,0
108,192,21220,1,0
256,192,21514,6,0,B|448:192,1,187.5
494,134,22102,2,0,B|533:192|494:250,1,125,2|0
396,332,22690,2,0,B|342:373,2,62.5
256,312,23279,6,0,B|160:360|72:296,1,187.5
80,300,23867,2,0,B|96:232|52:184,1,125,2|0
148,104,24455,1,0
256,164,24749,1,0
256,312,25043,6,0,B|352:360|440:296,1,187.5
432,300,25632,2,0,B|416:232|460:184,1,125,2|0
364,104,26220,1,0
256,164,26514,1,0
148,104,26808,6,0,B|80:84|20:124|8:192,1,187.5
80,212,27396,2,0,B|66:256|93:296|137:303,2,125,2|0|0
148,104,28279,1,0
256,164,28573,6,0,B|340:216|436:180,1,187.5
435,180,29161,1,2
380,292,29455,1,0
256,316,29749,1,0
132,292,30043,1,0
76,180,30337,6,0,B|48:128|72:88|72:88|124:108|176:80,1,187.499994412065,4|2
256,72,30779,1,2
256,260,31073,2,0,B|256:367,1,93.7499972060324,2|8
436,296,31514,2,0,B|488:288|506:240,1,93.7499972060324,2|0
506,143,31808,2,0,B|488:96|436:88,1,93.7499972060324,8|0
344,72,32102,6,0,B|256:72|256:72|240:128|168:128,1,187.499994412065,2|2
88,132,32543,1,2
184,292,32837,2,0,B|200:332|188:392,2,93.7499972060324,2|8|0
160,200,33279,1,2
352,200,33573,1,8
216,72,33867,6,0,B|144:8|40:32,1,187.499994412065,2|2
84,116,34308,2,0,B|148:152|148:232|84:268,1,187.499994412065,2|2
28,192,34749,1,8
212,228,35043,2,0,B|312:228,1,93.7499972060324,2|0
360,152,35337,2,0,B|266:152,1,93.7499972060324,8|0
208,76,35632,6,0,B|404:76,1,187.499994412065,2|2
488,76,36073,1,2
488,308,36367,1,2
404,348,36514,2,0,B|340:376|340:376|272:392|216:344,1,187.499994412065,8|2
80,240,37102,1,8
184,84,37396,6,0,B|212:16|300:16|328:84,1,187.499994412065,2|2
360,172,37837,2,0,B|388:240|476:240|504:172,1,187.499994412065,2|2
432,112,38279,1,8
280,224,38573,2,0,B|232:240|180:224,1,93.7499972060324,2|0
100,188,38867,2,0,B|52:172|0:188,1,93.7499972060324,8|0
36,276,39161,6,0,B|104:352|208:328,1,187.499994412065,2|2
304,328,39602,2,0,B|408:352|476:276,1,187.499994412065,2|2
512,192,40043,1,8
368,80,40337,6,0,B|324:52|277:70,2,93.7499972060324,2|0|8
452,124,40779,1,0
380,184,40926,2,0,B|312:256|200:228,1,187.499994412065,2|2
260,152,41367,2,0,B|332:220|304:332,1,187.499994412065,2|2
232,384,41808,1,8
71,286,42102,1,2
71,98,42396,1,8
256,64,42690,6,0,B|304:116|376:116|428:68,1,187.499994412065,2|2
343,21,43132,1,2
340,208,43426,2,0,B|336:320,1,93.7499972060324,2|8
152,272,43867,2,0,B|96:252|56:280|56:280|36:192,1,187.499994412065,2|8
168,64,44455,6,0,B|256:120|344:64,1,187.499994412065,2|2
428,24,44896,1,2
440,212,45190,2,0,B|446:306,2,93.7499972060324,2|8|0
348,232,45632,2,0,B|256:260|164:232,1,187.499994412065,2|8
44,88,46220,6,0,B|100:4|208:20,1,187.499994412065,2|2
304,20,46661,2,0,B|412:4|468:88,1,187.499994412065,2|2
500,176,47102,1,8
388,328,47396,2,0,B|352:364|304:363,1,93.7499972060324,2|0
207,363,47690,2,0,B|160:364|124:328,1,93.7499972060324,8|0
196,264,47985,6,0,B|268:204|268:204|316:224|360:200,1,187.499994412065,2|2
416,128,48426,2,0,B|456:88|432:40|432:40|388:64|332:40,1,187.499994412065,2|2
256,16,48867,1,8
88,144,49161,2,0,B|48:168|48:232,1,93.7499972060324,2|0
80,312,49455,2,0,B|104:352|168:352,1,93.7499972060324,8|0
228,288,49749,6,0,B|284:232|224:176|224:176|268:132,1,187.499994412065,2|2
340,76,50190,2,0,B|380:32|480:32|508:80,1,187.499994412065,2|2
428,128,50632,2,0,B|428:320,2,187.499994412065,8|2|8
312,272,51514,6,0,B|292:324|236:320|236:320|204:352|152:340,1,187.499994412065,2|2
60,332,51955,1,2
156,172,52249,2,0,B|188:128|168:84,1,93.7499972060324,2|8
356,84,52690,2,0,B|468:84|476:204,1,187.499994412065,2|8
312,272,53279,6,0,B|252:348|140:328,1,187.499994412065,2|2
204,256,53720,2,0,B|280:196|260:84,1,187.499994412065,2|2
188,144,54161,2,0,B|128:220|16:200,2,187.499994412065,8|2|8
348,48,55043,6,0,B|456:36|488:148,1,187.499994412065,2|2
487,239,55485,2,0,B|456:348|348:336,1,187.499994412065,2|2
256,332,55926,1,8
80,308,56220,2,0,B|32:292|20:236,1,93.7499972060324,2|0
21,143,56514,2,0,B|31:91|79:75,1,93.7499972060324,8|0
168,100,56808,6,0,B|256:156|344:100,1,187.499994412065,2|2
256,52,57249,2,0,B|256:268,1,187.499994412065,2|2
256,332,57690,1,8
128,192,57985,1,2
256,52,58279,1,8
384,192,58573,5,4
64,192,60337,6,2,B|80:184|80:184|88:200|88:200|96:184|96:184|104:200|104:200|112:184|112:184|120:200|120:200|128:184|128:184|136:200|136:200|144:184|144:184|152:200|152:200|160:184|160:184|168:200|168:200|176:184|176:184|184:200|184:200|192:184|192:184|200:200|200:200|208:184|208:184|216:200|216:200|224:184|224:184|232:200|232:200|240:184|240:184|248:200|248:200|256:184|256:184|264:200|264:200|272:184|272:184|280:200|280:200|288:184|288:184|304:192,1,500,0|0
468,192,61220,6,8,B|508:192,2,31.25
392,152,61514,2,8,B|328:124,1,62.5
392,232,61808,2,8,B|328:260,1,62.5
248,292,62102,6,0,B|160:344|56:292,2,187.499994412065,4|0|2
264,92,62985,2,0,B|352:40|456:92,2,187.499994412065,8|2|8
92,168,63867,6,0,B|40:212|48:300|104:328,1,187.499994412065,2|2
172,264,64308,2,0,B|256:188|340:264,1,187.499994412065,2|2
408,328,64749,2,0,B|464:300|472:212|420:168,2,187.499994412065,8|2|8
256,220,65632,6,0,B|184:160|184:160|144:184|96:156,2,187.499994412065,2|0|2
256,220,66514,2,0,B|328:160|328:160|368:184|416:156,2,187.499994412065,8|2|8
124,356,67396,6,0,B|56:372|0:300|16:232,1,187.499994412065,2|2
14,144,67837,2,0,B|0:84|56:12|124:28,1,187.499994412065,2|2
216,28,68279,1,8
392,92,68573,2,0,B|480:124,2,93.7499972060324,2|8|0
216,28,69161,6,0,B|120:28|120:28|112:76|56:88,2,187.499994412065,2|0|2
392,92,70043,2,0,B|472:144|472:144|453:188|493:229,2,187.499994412065,8|2|8
204,116,70926,6,0,B|124:148|72:116|20:148,1,187.499994412065,2|2
20,236,71367,2,0,B|72:268|124:236|204:268,1,187.499994412065,2|2
292,296,71808,2,0,B|384:328|476:296,2,187.499994412065,8|2|8
352,120,72690,6,0,B|424:60|424:60|460:92|512:84,2,187.499994412065,2|0|2
160,120,73573,2,0,B|88:60|88:60|52:92|0:84,2,187.499994412065,8|2|8
312,228,74455,6,0,B|360:308|360:308|360:364|308:376,1,187.499994412065,2|2
204,376,74896,2,0,B|152:364|152:308|152:308|200:228,1,187.499994412065,2|2
256,152,75337,1,8
420,72,75632,2,0,B|464:52|512:72,2,93.7499972060324,2|8|8
256,152,76220,6,0,B|168:185|78:121,1,187.499994412065,2|2
160,72,76661,2,0,B|193:159|129:249,1,187.499994412065,2|2
76,324,77102,1,8
256,372,77396,1,2
436,324,77690,1,8
256,268,77985,6,0,B|196:240|196:144|256:116,1,187.499994412065,2|2
308,192,78426,2,0,B|116:192,1,187.499994412065,2|2
64,116,78867,2,0,B|3:144|3:240|63:268,2,187.499994412065,8|2|8
240,48,79749,6,0,B|312:12|348:88|424:56,1,187.499994412065,2|2
452,144,80190,2,0,B|488:252,1,93.7499972060324,8|8
420,304,80485,2,0,B|390:215,1,93.7499972060324,8|8
256,348,80926,1,2
121,215,81220,1,8
256,88,81514,6,0,B|336:32|448:64,2,187.499994412065,2|0|2
256,88,82396,2,0,B|176:32|64:64,1,187.499994412065,8|2
28,140,82837,2,8,B|0:184|28:248,2,93.7499972060324
108,192,83279,6,0,B|180:252|180:252|228:224|292:272,1,187.499994412065,2|0
352,296,83720,2,0,B|448:344,1,93.7499972060324,2|0
408,152,84161,2,0,B|376:48|264:56,1,187.499994412065,8|2
172,68,84602,2,0,B|64:80,1,93.7499972060324,0|8
144,276,85043,6,0,B|196:356|196:356|252:372|284:328,1,187.499994412065,2|2
356,268,85485,2,0,B|416:232|412:152|356:108,1,187.499994412065,2|2
312,192,85926,2,0,B|124:192,2,187.499994412065,8|2|8
428,44,86808,6,0,B|348:100|244:64,1,187.499994412065,2|2
156,48,87249,2,0,B|60:24,2,93.7499972060324,2|0|2
196,124,87690,2,0,B|268:224|196:304,1,187.499994412065,8|2
116,336,88132,2,0,B|72:352|16:336,2,93.7499972060324,0|8|8
204,372,88573,6,0,B|308:388|388:328,1,187.499994412065,4|8
508,192,89161,1,8
332,104,89455,2,0,B|248:64|248:64|208:94|156:72,1,187.499994412065,2|8
68,96,89896,2,8,B|20:120|4:188,2,93.7499972060324
128,152,90337,6,0,B|215:228|102:300|194:379,1,250,4|0
318,378,91220,2,0,B|410:300|297:228|384:152,1,250
260,112,92102,6,0,B|192:104|144:64|144:64|68:52|36:132,1,250
32,244,92985,2,0,B|20:320|96:348,2,125
88,192,93720,1,0
140,248,93867,6,0,B|200:320|296:320|360:248,1,250
440,156,94749,2,0,B|380:84|284:84|220:156,1,250
140,248,95632,2,0,B|72:256|40:176,1,125
24,108,96073,2,0,B|12:20,2,62.5
96,128,96514,1,0
194,51,96808,1,0
318,51,97102,1,0
420,128,97396,6,0,B|485:181|439:242|439:242|388:272|368:336|368:336|312:380|248:344,1,375
136,300,98573,1,0
32,228,98867,1,0
140,161,99161,6,0,B|192:121|204:57|204:57|283:51|299:119|299:119|363:91|428:133,1,375
468,244,100337,2,0,B|492:308|440:360,1,125
316,304,100926,6,0,B|256:272|196:304,1,125
129,187,101514,2,0,B|186:152|189:84,1,125
322,84,102102,2,0,B|325:151|382:187,1,125
316,304,102690,6,0,B|256:272|196:304,1,125,2|0
124,308,103132,2,0,B|96:248|128:188,1,125,2|0
128,188,103573,2,0,B|96:128|124:68,1,125,8|2
196,72,104015,2,0,B|256:104|316:72,1,125,8|8
408,56,104455,6,0,B|512:36,2,93.7499972060324,4|0|0
372,144,104896,2,0,B|279:161,2,93.7499972060324,2|0|2
420,224,105337,2,0,B|524:204,2,93.7499972060324,8|0|2
384,312,105778,2,0,B|291:329,1,93.7499972060324,0|8
104,304,106220,6,0,B|40:228|80:128,1,187.499994412065,2|2
168,164,106661,2,0,B|256:220|344:164,1,187.499994412065,2|2
432,128,107102,2,0,B|472:228|408:304,2,187.499994412065,8|2|8
380,52,107837,1,0
288,36,107985,6,0,B|192:4|100:44,1,187.499994412065,2|2
0,192,108573,1,2
104,342,108867,2,0,B|192:380|288:348,1,187.499994412065,8|2
384,192,109455,1,8
288,36,109749,6,0,B|196:4|120:84|120:84|140:132|112:176,1,281.249991618097,2|8
72,260,110337,2,8,B|24:352,2,93.7499972060324
240,340,110926,2,0,B|340:388|408:300,1,187.499994412065,2|8
448,220,111367,1,0
440,128,111514,6,0,B|424:64|368:16|304:20,1,187.499994412065,2|2
208,20,111955,2,0,B|144:16|88:64|72:128,1,187.499994412065,2|2
136,196,112396,2,0,B|160:300|72:360,2,187.499994412065,8|2|8
313,265,113279,6,0,B|344:304|400:292|400:292|471:234,1,187.499994412065,2|8
471,150,113720,2,0,B|400:92|400:92|344:80|312:120,1,187.499994412065,2|2
252,192,114161,2,8,B|228:252|124:252|100:192,2,187.499994412065,8|2|8
160,28,115043,6,0,B|56:36|32:144,1,187.499994412065,2|2
31,239,115485,2,0,B|56:348|160:356,1,187.499994412065,2|2
256,360,115926,1,8
428,224,116220,6,0,B|476:204|495:153,2,93.7499972060324,2|2|8
336,232,116661,1,8
256,192,116808,1,8
256,192,116955,12,4,118573
168,188,125632,6,0,B|116:232,2,62.5,2|0|0
216,248,126514,2,0,B|196:308,2,62.5,2|0|0
296,248,127396,2,0,B|316:308,2,62.5,2|0|0
344,188,128278,2,0,B|391:228,2,62.5
288,136,129161,5,2
228,92,129455,1,0
156,76,129749,1,0
84,92,130043,1,2
28,144,130337,1,0
8,216,130632,1,0
28,288,130926,5,2
88,332,131220,1,0
164,344,131514,1,0
240,332,131808,1,0
308,300,132102,1,0
360,248,132396,1,0
396,184,132690,6,0,B|420:120|368:68,1,125,2|0
324,128,133573,2,0,B|281:184|205:157,1,125,2|0
140,136,134455,6,0,B|64:124|36:192,1,125,2|0
24,260,135337,1,0
198,330,136220,6,0,B|256:369|314:330,1,125,2|0
256,279,137102,2,0,B|256:151,1,125,2|2
256,79,137985,5,2
256,192,138279,12,4,140337
