osu file format v9

[General]
AudioFilename: colorfulchannelsubcon.mp3
AudioLeadIn: 0
PreviewTime: 76064
Countdown: 0
SampleSet: Soft
StackLeniency: 0.7
Mode: 0
LetterboxInBreaks: 0

[Editor]
Bookmarks: 16211,30328,44446,58564,62093,76211,88564,90328,104446,118564,125623,130917,137976
DistanceSpacing: 1
BeatDivisor: 8
GridSize: 4

[Metadata]
Title:subconsciousness
Artist:guna with team kyukkyu
Creator:Charles445
Version:Another
Source:Colorful Channel
Tags:pop'n music yume nikki horror madotsuki squeak pms backfire

[Difficulty]
HPDrainRate:6
CircleSize:4
OverallDifficulty:8
ApproachRate:9
SliderMultiplier:3
SliderTickRate:1

[Events]
//Background and Video events
0,0,"subcon_bg.png"
//Break Periods
2,118773,125032
//Storyboard Layer 0 (Background)
//Storyboard Layer 1 (Fail)
//Storyboard Layer 2 (Pass)
//Storyboard Layer 3 (Foreground)
//Storyboard Sound Samples
//Background Colour Transformations
3,100,163,162,255

[TimingPoints]
338,588.235294117647,3,2,1,80,1,0
1955,-133.333333333333,3,1,1,60,0,0
16147,-100,3,1,1,70,0,0
30191,-66.6666666666667,3,2,1,80,0,0
30337,-66.6666666666667,3,2,1,90,0,1
58573,-66.6666666666667,3,2,1,80,0,0
60190,-50,3,2,2,100,0,0
61146,-100,3,2,2,100,0,0
62029,-66.6666666666667,3,2,1,100,0,0
62102,-66.6666666666667,3,2,1,100,0,1
88573,-66.6666666666667,3,2,1,100,0,0
90264,-100,3,2,1,100,0,0
90411,-100,3,2,1,75,0,0
103058,-100,3,2,1,80,0,0
103499,-100,3,2,1,85,0,0
103940,-100,3,2,1,90,0,0
104161,-100,3,2,1,95,0,0
104455,-66.6666666666667,3,2,1,100,0,1
118573,-200,3,2,1,60,0,0
118867,-200,3,1,1,60,0,0
138132,-200,3,2,0,10,0,0
138573,-200,3,2,0,15,0,0
138867,-200,3,2,0,20,0,0
139161,-200,3,2,0,25,0,0
139455,-200,3,2,0,30,0,0
139749,-200,3,2,0,35,0,0
140043,-200,3,2,0,40,0,0
140264,-200,3,2,0,45,0,0

[Colours]
Combo1 : 225,169,0
Combo2 : 151,23,255
Combo3 : 0,69,232
Combo4 : 213,0,53

[HitObjects]
256,284,2102,6,0,B|196:304|148:272,1,112.499996647239
108,244,2543,1,0
84,200,2690,2,0,B|37:123|88:42|177:50,1,224.999993294478,2|0
256,284,3867,6,0,B|316:304|364:272,1,112.499996647239
404,244,4308,1,0
428,200,4455,2,0,B|475:123|424:42|335:50,1,224.999993294478,2|0
256,192,5632,5,0
208,280,5926,1,0
256,296,6073,1,0
304,280,6220,1,2
256,192,6514,1,0
188,116,6808,2,0,B|128:144|112:220,1,112.499996647239
324,116,7396,6,0,B|384:144|400:220,1,112.499996647239
408,248,7837,1,0
412,300,7985,1,2
332,360,8279,1,0
256,296,8573,1,0
180,360,8867,1,0
100,300,9161,5,0
68,204,9455,2,0,B|48:148,1,56.2499983236194
96,164,9749,2,0,B|136:68|224:200|256:44,1,224.999993294478,2|0
412,300,10926,5,0
444,204,11220,2,0,B|464:148,1,56.2499983236194
416,164,11514,2,0,B|376:68|288:200|256:44,1,224.999993294478,2|0
128,204,12690,6,0,B|144:268|224:280,1,112.499996647239
256,288,13132,1,0
305,276,13279,2,0,B|368:268|384:204,1,112.499996647239,2|0
256,124,13867,2,0,B|256:8,2,112.499996647239
256,288,14749,5,0
256,288,14896,1,0
256,288,15043,1,2
176,192,15337,1,0
336,192,15632,1,0
176,192,15926,1,0
320,56,16220,6,0,B|392:4|477:49|475:138,1,225
392,107,16808,2,0,B|316:248,1,150,2|0
256,356,17396,1,0
190,239,17690,1,0
192,56,17985,6,0,B|119:4|34:49|36:138,1,225
120,107,18573,2,0,B|195:248,1,150,2|0
256,356,19161,1,0
321,239,19455,1,0
321,239,19602,1,0
320,240,19749,6,0,B|360:160|456:160|496:240,1,225
408,256,20337,2,0,B|408:103,1,150,2|0
408,32,20779,1,0
344,68,20926,2,0,B|280:108,1,75
224,56,21220,2,0,B|200:136,1,75
128,140,21514,6,0,B|221:286,1,150
256,208,21955,1,0
303,266,22102,2,0,B|384:140,2,150,2|0|0
256,324,22837,1,0
208,266,22985,1,0
256,80,23279,6,0,B|212:4|128:32,1,150
172,104,23720,1,0
256,80,23867,2,0,B|300:4|384:32,1,150,2|0
340,104,24308,1,0
256,80,24455,2,0,B|256:240,1,150
72,200,25043,6,0,B|104:276|196:276,1,150
256,230,25485,1,0
321,275,25632,2,0,B|408:276|440:200,1,150,2|0
444,124,26073,1,0
376,156,26220,2,0,B|304:140|256:72,1,150
255,72,26808,6,0,B|208:140|136:156,1,150
68,192,27249,1,0
136,227,27396,1,2
276,284,27690,2,0,B|360:312,1,75
352,208,27985,2,0,B|440:216,1,75
408,112,28279,2,0,B|500:104,1,75
396,16,28573,6,0,B|336:60|256:64,1,150
180,68,29014,1,0
220,132,29161,2,0,B|276:200|220:268,2,150,2|0|0
84,192,30043,1,0
222,270,30337,6,0,B|308:360|428:301,1,224.999993294478,4|2
504,192,30779,2,0,B|418:102|298:160,1,224.999993294478,2|2
222,270,31220,1,8
64,40,31514,2,0,B|196:64,1,112.499996647239,2|0
80,148,31808,2,0,B|212:172,1,112.499996647239,8|0
328,104,32102,6,0,B|460:60|504:192,1,224.999993294478,2|2
396,224,32543,2,0,B|296:264|296:264|320:332|256:360,1,224.999993294478,2|2
256,359,32985,1,8
84,240,33279,2,0,B|12:120,1,112.499996647239,2|0
184,160,33573,2,0,B|164:44,1,112.499996647239,8|0
304,136,33867,6,0,B|360:202|460:174|473:87,1,224.999993294478,2|2
366,47,34308,2,2,B|434:272,1,224.999993294478,2|2
460,372,34749,1,8
256,276,35043,1,2
156,212,35190,1,0
256,148,35337,1,8
356,84,35485,1,0
256,20,35632,6,2,B|156:100|48:24,1,224.999993294478
104,148,36073,2,2,B|156:212|156:212|188:292|108:336,1,224.999993294478,2|2
68,256,36514,1,8
288,288,36808,2,0,B|411:302,1,112.499996647239,2|0
511,312,37102,2,0,B|388:299,1,112.499996647239,8|8
286,287,37396,6,2,B|160:276|135:146,1,224.999993294478
256,144,37837,2,2,B|231:273|104:285,1,224.999993294478
4,296,38279,1,8
116,88,38573,2,0,B|220:36,1,112.499996647239,2|0
396,88,38867,2,0,B|292:36,1,112.499996647239,8|0
256,144,39161,6,2,B|208:256|272:368,1,224.999993294478
352,256,39602,2,2,B|240:208|128:272,1,224.999993294478
135,267,40043,1,8
400,336,40337,2,0,B|428:368|428:368|464:384|504:372,2,112.499996647239,2|2|8
352,256,40779,1,2
304,160,40926,6,2,B|273:90|333:2|423:28,1,224.999993294478
504,108,41367,2,2,B|535:178|475:266|384:240,1,224.999993294478
408,136,41808,1,8
100,52,42102,2,0,B|60:80|60:80|60:152,1,112.499996647239,2|0
184,244,42396,2,0,B|224:216|224:216|224:144,1,112.499996647239,8|0
60,143,42690,6,2,B|32:284|156:328,1,224.999993294478
361,325,43132,2,2,B|480:284|452:143,1,224.999993294478
364,76,43573,1,8
256,44,43720,1,8
148,76,43867,1,8
148,76,44161,1,8
492,192,44455,6,2,B|376:232|400:312|320:328,1,224.999993294478
191,327,44896,2,2,B|112:312|136:232|20:192,1,224.999993294478
19,191,45337,2,0,B|36:132|84:100,1,112.499996647239,8|0
204,32,45632,2,0,B|256:12|256:12|308:32,1,112.499996647239,2|0
430,101,45926,2,0,B|476:132|492:191,1,112.499996647239,8|0
352,160,46220,6,2,B|256:116|256:116|188:104|160:168,1,224.999993294478
116,272,46661,2,2,B|68:376,2,112.499996647239,2|0|2
160,168,47102,1,8
256,228,47249,1,0
160,168,47396,2,0,B|108:128|116:68,1,112.499996647239
256,12,47690,2,0,B|308:52|300:112,1,112.499996647239,8|0
256,228,47985,6,2,B|216:312|216:312|264:380|332:356,1,224.999993294478
416,284,48426,2,2,B|480:192,1,112.499996647239
452,44,48720,2,0,B|387:136,1,112.499996647239,2|8
316,224,49014,1,0
248,136,49161,2,0,B|148:52|44:140,1,224.999993294478,2|8
116,228,49602,1,0
212,288,49749,6,2,B|312:372|416:284,1,224.999993294478
504,192,50190,1,2
415,99,50337,2,0,B|320:32,1,112.499996647239,0|2
248,136,50632,2,0,B|100:116,1,112.499996647239,8|0
116,246,50926,2,0,B|-24:297,2,112.499996647239,0|2|8
256,212,51367,1,8
396,246,51514,6,2,B|444:248|496:304|432:364|335:360,1,224.999993294478
173,360,51955,2,2,B|80:364|16:304|68:248|116:246,1,224.999993294478
256,212,52396,2,0,B|384:176,1,112.499996647239,8|0
256,132,52690,2,0,B|128:96,1,112.499996647239,2|0
256,52,52985,2,0,B|384:16,1,112.499996647239,8|0
480,92,53279,6,2,B|528:144|496:200|496:200|436:196|408:264,1,224.999993294478
360,352,53720,1,2
256,308,53867,1,0
152,352,54014,1,2
100,256,54161,2,0,B|36:136,1,112.499996647239,8|0
92,24,54455,2,0,B|144:123,1,112.499996647239,2|0
276,172,54749,2,0,B|212:52,1,112.499996647239,8|0
368,76,55043,6,2,B|488:112|344:192|488:248,1,224.999993294478
420,340,55485,2,0,B|360:352|316:296,1,112.499996647239,2|0
191,301,55779,2,0,B|152:352|92:340,2,112.499996647239,2|8|0
256,220,56220,1,2
312,120,56367,1,0
256,24,56514,1,8
200,120,56661,1,0
256,220,56808,6,2,B|324:264|384:216|384:216|464:272,1,224.999993294478
256,220,57249,2,2,B|188:264|128:216|128:216|48:272,1,224.999993294478,0|0
200,120,57690,1,8
256,24,57837,1,8
312,120,57985,1,8
358,335,58279,2,0,B|288:336|256:300|256:300|224:336|152:336,1,224.999993294478,8|4
8,192,60337,6,2,B|24:200|24:200|32:184|32:184|40:200|40:200|48:184|48:184|56:200|56:200|64:184|64:184|72:200|72:200|80:184|80:184|88:200|88:200|96:184|96:184|104:200|104:200|112:184|112:184|120:200|120:200|128:184|128:184|136:200|136:200|144:184|144:184|152:200|152:200|160:184|160:184|168:200|168:200|176:184|176:184|184:200|184:200|192:184|192:184|200:200|200:200|208:184|208:184|216:200|216:200|224:184|224:184|232:200|232:200|240:184|240:184|248:200|248:200|256:184|256:184|264:200|264:200|272:184|272:184|280:200|280:200|288:184|288:184|296:200|296:200|304:184|304:184|312:200|312:200|320:184|320:184|328:200|328:200|336:184|336:184|344:200|344:200|360:192,1,750,0|0
452,192,61220,6,8,B|496:192,2,37.5
408,112,61514,1,8
344,48,61661,1,8
256,72,61808,1,8
168,48,61955,1,8
124,128,62102,6,0,B|84:232,1,112.499996647239,4|0
44,336,62396,1,2
148,296,62543,1,2
256,332,62690,1,0
364,296,62837,1,2
468,336,62985,2,0,B|364:296,1,112.499996647239,8|0
256,332,63279,2,0,B|256:208,1,112.499996647239,2|0
44,336,63573,2,0,B|148:296,1,112.499996647239,8|0
336,220,63867,6,2,B|404:192|384:128|384:128|336:24,1,224.999993294478
173,28,64308,2,2,B|128:128|128:128|108:192|176:220,1,224.999993294478
256,144,64749,1,8
336,219,64896,1,0
256,296,65043,2,0,B|176:376,1,112.499996647239,2|0
256,296,65337,2,0,B|336:376,1,112.499996647239,8|0
404,284,65632,6,2,B|460:260|472:192,1,112.499996647239,2|0
388,56,65926,2,0,B|332:80|320:148,1,112.499996647239,2|2
124,280,66220,2,0,B|180:256|192:188,1,112.499996647239,0|2
108,52,66514,2,0,B|52:76|40:144,1,112.499996647239,8|0
124,280,66808,1,2
192,196,66955,1,0
256,296,67102,1,8
320,196,67249,1,0
388,280,67396,6,0,B|459:367,2,112.499996647239,2|0|2
320,196,67837,2,0,B|240:96|112:132,1,224.999993294478,2|2
24,192,68279,1,8
92,284,68426,1,0
200,328,68573,2,0,B|248:288|224:208,1,112.499996647239,2|8
312,56,68867,2,8,B|264:96|288:176,1,112.499996647239
336,312,69161,6,0,B|368:368|432:368,1,112.499996647239,2|0
452,256,69455,2,0,B|508:224|508:160,1,112.499996647239,2|2
404,112,69749,2,0,B|372:56|308:56,1,112.499996647239,0|2
284,160,70043,2,0,B|252:216|188:216,1,112.499996647239,8|0
40,224,70337,2,0,B|72:280|136:280,1,112.499996647239,2|0
288,288,70632,2,0,B|256:344|192:344,1,112.499996647239,8|0
40,224,70926,6,2,B|24:144|96:80|96:80|180:72,1,224.999993294478
352,73,71367,2,2,B|416:80|416:80|488:144|472:224,1,224.999993294478
436,328,71808,1,8
356,248,71955,1,0
256,300,72102,2,0,B|136:368,1,112.499996647239,2|0
40,224,72396,2,0,B|137:168,1,112.499996647239,8|0
256,96,72690,5,2
356,48,72837,1,0
460,88,72985,2,2,B|500:128|488:192,1,112.499996647239,2|0
460,296,73279,2,0,B|500:256|488:192,1,112.499996647239,0|2
348,148,73573,2,0,B|216:120,1,112.499996647239,8|0
56,124,73867,2,0,B|166:147,1,112.499996647239,2|0
320,232,74161,2,0,B|188:204,1,112.499996647239,8|0
40,232,74455,6,2,B|148:264|148:264|192:308|152:368,1,224.999993294478,2|2
40,232,74896,2,2,B|28:168|56:124|56:124|88:72|144:48,1,224.999993294478
256,16,75337,1,8
369,48,75485,1,0
287,127,75632,1,2
399,157,75779,1,8
317,237,75926,1,8
427,267,76074,1,8
340,340,76220,6,2,B|272:380|168:380|120:328,1,224.999993294478,2|2
64,240,76661,1,2
32,132,76808,2,0,B|16:16,1,112.499996647239,0|2
152,100,77102,2,0,B|256:176|360:100,1,224.999993294478,8|0
452,40,77543,1,2
452,152,77690,2,0,B|452:288,1,112.499996647239,8|0
348,312,77985,6,2,B|280:364|228:260|100:352,1,224.999993294478
176,228,78426,2,0,B|216:122,1,112.499996647239,2|0
256,16,78720,1,2
332,96,78867,2,0,B|372:152|428:140|428:140|488:168|476:232,1,224.999993294478,8|0
456,344,79308,1,2
348,312,79455,2,0,B|240:280,1,112.499996647239,8|0
240,280,79749,6,2,B|344:252|332:96,1,224.999993294478
256,16,80190,1,8
179,96,80337,1,8
84,36,80485,1,8
52,144,80632,2,0,B|20:252|20:252|28:324|104:320,2,224.999993294478,8|2|8
84,36,81367,1,0
176,96,81514,6,2,B|280:140|280:140|312:80|392:100,1,224.999993294478
488,108,81955,1,2
420,212,82102,2,0,B|388:268|320:284,1,112.499996647239,0|2
178,280,82396,2,0,B|123:267|91:211,1,112.499996647239,8|0
104,100,82690,1,8
200,44,82837,1,8
312,44,82985,1,8
408,100,83132,1,8
476,188,83279,6,2,B|508:296|508:296|448:272|400:312,1,224.999993294478,2|2
296,352,83720,1,0
176,280,83867,2,0,B|79:222,1,112.499996647239,0|2
104,100,84161,2,0,B|216:128|312:44,1,224.999993294478,8|2
312,43,84602,2,0,B|312:196,1,112.499996647239,2|8
312,268,84896,1,0
404,332,85043,6,0,B|448:368|520:368,2,112.499996647239,2|0|2
312,268,85485,2,0,B|212:200|80:248,1,224.999993294478,2|2
168,348,85926,2,0,B|236:248|188:116,1,224.999993294478,8|0
152,28,86367,1,2
44,60,86514,1,8
76,172,86661,1,8
193,132,86808,6,2,B|256:116|288:72|288:72|336:32|400:56,1,224.999993294478
508,88,87249,1,2
448,184,87396,2,0,B|388:279,1,112.499996647239,0|2
300,352,87690,2,0,B|240:388|192:368|192:368|196:296|108:264,1,224.999993294478,8|2
24,216,88132,1,2
72,112,88279,2,0,B|100:60|160:44,1,112.499996647239,8|8
272,32,88573,6,0,B|328:36|368:84|368:84|408:36|464:32,2,224.999993294478,4|8|8
72,112,89455,1,2
292,160,89749,2,0,B|401:184,1,112.499996647239,8|8
496,244,90043,2,0,B|386:268,1,112.499996647239,8|8
280,268,90337,6,0,B|208:268|208:268|147:333|54:331|5:275,1,300,4|0
6,107,91220,2,8,B|54:52|147:50|208:116|208:116|280:116,1,300,0|0
432,192,92102,6,0,B|120:192,1,300,0|0
32,120,92985,2,0,B|-4:192|32:264,2,150,0|0|0
66,53,93720,1,0
136,80,93867,6,0,B|208:128|280:88|280:88|360:52|420:108,1,300,0|0
388,312,94749,2,0,B|340:372|256:392|172:372|124:312,1,300
80,180,95632,6,0,B|48:104|112:44,1,150
180,76,96073,1,0
256,84,96220,1,0
332,76,96367,1,0
400,44,96514,2,0,B|464:104|432:180,1,150
296,244,97102,1,0
220,244,97249,1,0
144,236,97396,6,0,B|64:228|16:168|16:168|88:124|64:36|64:36|140:80|208:40,1,450
256,184,98573,1,0
305,40,98867,1,0
428,124,99161,6,0,B|488:168|488:168|532:256|452:296|452:296|384:268|384:268|320:320|232:296,1,450
80,252,100337,1,0
80,252,100632,1,0
52,112,100926,6,0,B|108:48|188:52,1,150
256,72,101367,1,0
328,51,101514,2,0,B|404:48|460:112,2,150
256,192,102396,1,0
256,192,102543,1,0
312,244,102690,6,2,B|380:296|452:254,1,150
451,129,103132,2,2,B|380:88|312:139,1,150
199,244,103573,2,10,B|132:296|60:254,1,150,10|2
60,130,104015,2,10,B|132:88|200:140,1,150,10|10
312,244,104455,6,0,B|356:296|448:288,1,112.499996647239,2|0
416,116,104749,2,0,B|372:64|280:72,1,112.499996647239,0|2
200,244,105043,2,0,B|156:296|64:288,1,112.499996647239,0|2
96,116,105337,2,0,B|140:64|232:72,1,112.499996647239,8|0
316,71,105632,1,0
416,116,105779,1,2
500,192,105926,1,8
256,296,106220,6,2,B|148:332|148:332|104:288|44:308,1,224.999993294478
256,296,106661,2,2,B|364:332|364:332|408:288|468:308,1,224.999993294478
360,200,107102,2,0,B|256:124|152:200,2,224.999993294478,8|2|10
468,308,107837,1,2
468,196,107985,6,2,B|468:84|468:84|408:104|356:72,1,224.999993294478
256,28,108426,1,2
152,72,108573,2,0,B|49:117,1,112.499996647239,0|2
152,160,108867,6,0,B|256:204|256:204|284:260|348:248,1,224.999993294478,8|2
468,196,109308,1,2
352,136,109455,2,0,B|248:91,1,112.499996647239,8|0
152,160,109749,6,2,B|79:212|94:306|179:333,1,225
288,356,110190,1,8
356,268,110337,1,8
464,312,110485,1,8
468,196,110632,2,0,B|468:140|440:88|440:88|384:84|340:40,2,224.999993294478,8|2|8
464,312,111367,1,2
356,268,111514,6,2,B|144:181,1,224.999993294478
52,44,111955,2,2,B|260:128,1,224.999993294478
372,172,112396,1,8
352,56,112543,1,0
261,129,112690,2,0,B|209:171|143:182|143:182|48:192,1,224.999993294478,2|8
292,308,113279,6,2,B|332:372|439:372|468:282,1,224.999993294478
436,104,113720,2,2,B|395:39|288:39|259:129,1,224.999993294478
220,308,114161,2,0,B|179:372|72:372|43:282,2,224.999993294478,8|2|8
64,148,115043,6,2,B|176:136|176:136|192:72|256:72,1,224.999993294478
448,148,115485,2,2,B|336:136|336:136|320:72|256:72,1,224.999993294478
256,184,115926,1,8
80,280,116220,1,2
156,348,116367,1,2
256,364,116514,1,8
356,348,116661,1,8
432,280,116808,1,8
256,192,116955,12,4,118573
148,188,125632,6,0,B|92:272,2,75,2|0|0
216,216,126514,2,0,B|204:316,2,75,2|0|0
296,216,127396,6,0,B|308:316,2,75,2|0|0
364,188,128279,2,0,B|420:272,2,75,0|0|0
326,122,129161,5,2
257,97,129455,1,0
187,122,129749,1,0
162,192,130043,1,2
187,261,130337,1,0
257,286,130632,1,0
326,261,130926,5,2
352,192,131220,1,0
326,122,131514,1,0
257,97,131808,1,0
187,122,132102,1,0
162,192,132396,1,0
186,261,132690,6,0,B|248:308|336:292,1,150,2|0
492,232,133573,2,0,B|411:246|349:199,1,150,2|0
172,140,134455,6,0,B|252:154|314:107,1,150,2|0
368,56,135337,1,0
68,124,136220,6,0,B|124:192|68:260,1,150,2|0
20,192,137102,2,0,B|176:192,1,150,2|2
256,192,137985,5,2
256,192,138279,12,4,140337
