osu file format v12

[General]
AudioFilename: sengoku_guna_subconsciousness.mp3
AudioLeadIn: 0
PreviewTime: -1
Countdown: 0
SampleSet: None
StackLeniency: 0.7
Mode: 3
LetterboxInBreaks: 1

[Editor]
DistanceSpacing: 1
BeatDivisor: 16
GridSize: 8

[Metadata]
Title:subconsciousness
TitleUnicode:subconsciousness
Artist:guna
ArtistUnicode:guna with チーム・キュッキュ obj窓つきもん
Creator:Doorknob
Version:Lv.19 -KILL-
Source:BMS
Tags:
BeatmapID:241978
BeatmapSetID:88887

[Difficulty]
HPDrainRate:7
CircleSize:7
OverallDifficulty:7
ApproachRate:5
SliderMultiplier:1.3
SliderTickRate:1

[Events]
//Background and Video events
0,0,"yum_title.png",1,1
Video,0,"Subconsious BGA.avi"
//Break Periods
//Storyboard Layer 0 (Background)
//Storyboard Layer 1 (Fail)
//Storyboard Layer 2 (Pass)
//Storyboard Layer 3 (Foreground)
//Storyboard Sound Samples
//Background Colour Transformations
3,100,163,162,255

[TimingPoints]
0,441.176470588235,4,2,0,0,1,0

[HitObjects]
36,192,1764,1,0,0:0:0:0:
329,192,1764,1,0,0:0:0:0:
475,192,1764,1,0,0:0:0:0:
182,192,1911,1,0,0:0:0:0:
36,192,2058,1,0,0:0:0:0:
256,192,2058,1,0,0:0:0:0:
475,192,2058,1,0,0:0:0:0:
36,192,2205,1,0,0:0:0:0:
402,192,2205,1,0,0:0:0:0:
182,192,2352,1,0,0:0:0:0:
329,192,2352,1,0,0:0:0:0:
36,192,2500,1,0,0:0:0:0:
329,192,2647,1,0,0:0:0:0:
329,192,2794,1,0,0:0:0:0:
36,192,2941,1,0,0:0:0:0:
402,192,2941,1,0,0:0:0:0:
329,192,3088,1,0,0:0:0:0:
36,192,3235,1,0,0:0:0:0:
36,192,3382,1,0,0:0:0:0:
182,192,3529,1,0,0:0:0:0:
329,192,3529,1,0,0:0:0:0:
475,192,3529,1,0,0:0:0:0:
182,192,3676,1,0,0:0:0:0:
36,192,3823,1,0,0:0:0:0:
256,192,3823,1,0,0:0:0:0:
475,192,3823,1,0,0:0:0:0:
182,192,3970,1,0,0:0:0:0:
402,192,3970,1,0,0:0:0:0:
36,192,4117,1,0,0:0:0:0:
329,192,4117,1,0,0:0:0:0:
182,192,4264,1,0,0:0:0:0:
36,192,4411,1,0,0:0:0:0:
36,192,4558,1,0,0:0:0:0:
329,192,4705,1,0,0:0:0:0:
475,192,4705,1,0,0:0:0:0:
36,192,4852,1,0,0:0:0:0:
36,192,5000,1,0,0:0:0:0:
329,192,5147,1,0,0:0:0:0:
36,192,5294,1,0,0:0:0:0:
256,192,5294,1,0,0:0:0:0:
475,192,5294,1,0,0:0:0:0:
182,192,5441,1,0,0:0:0:0:
36,192,5588,1,0,0:0:0:0:
329,192,5588,1,0,0:0:0:0:
475,192,5588,1,0,0:0:0:0:
36,192,5735,1,0,0:0:0:0:
256,192,5735,1,0,0:0:0:0:
182,192,5882,1,0,0:0:0:0:
402,192,5882,1,0,0:0:0:0:
36,192,6029,1,0,0:0:0:0:
182,192,6176,1,0,0:0:0:0:
475,192,6176,1,0,0:0:0:0:
36,192,6323,1,0,0:0:0:0:
36,192,6470,1,0,0:0:0:0:
256,192,6470,1,0,0:0:0:0:
402,192,6470,1,0,0:0:0:0:
182,192,6617,1,0,0:0:0:0:
182,192,6764,1,0,0:0:0:0:
329,192,6764,1,0,0:0:0:0:
475,192,6764,1,0,0:0:0:0:
36,192,6911,1,0,0:0:0:0:
182,192,7058,1,0,0:0:0:0:
329,192,7058,1,0,0:0:0:0:
475,192,7058,1,0,0:0:0:0:
182,192,7205,1,0,0:0:0:0:
36,192,7352,1,0,0:0:0:0:
256,192,7352,1,0,0:0:0:0:
475,192,7352,1,0,0:0:0:0:
182,192,7500,1,0,0:0:0:0:
402,192,7500,1,0,0:0:0:0:
36,192,7647,1,0,0:0:0:0:
329,192,7647,1,0,0:0:0:0:
182,192,7794,1,0,0:0:0:0:
36,192,7941,1,0,0:0:0:0:
475,192,7941,1,0,0:0:0:0:
36,192,8088,1,0,0:0:0:0:
182,192,8235,1,0,0:0:0:0:
329,192,8235,1,0,0:0:0:0:
36,192,8382,1,0,0:0:0:0:
36,192,8529,1,0,0:0:0:0:
402,192,8529,1,0,0:0:0:0:
182,192,8676,1,0,0:0:0:0:
36,192,8823,1,0,0:0:0:0:
329,192,8823,1,0,0:0:0:0:
475,192,8823,1,0,0:0:0:0:
182,192,8970,1,0,0:0:0:0:
36,192,9117,1,0,0:0:0:0:
256,192,9117,1,0,0:0:0:0:
475,192,9117,1,0,0:0:0:0:
36,192,9264,1,0,0:0:0:0:
402,192,9264,1,0,0:0:0:0:
182,192,9411,1,0,0:0:0:0:
329,192,9411,1,0,0:0:0:0:
36,192,9558,1,0,0:0:0:0:
329,192,9705,1,0,0:0:0:0:
329,192,9852,1,0,0:0:0:0:
36,192,10000,1,0,0:0:0:0:
475,192,10000,1,0,0:0:0:0:
329,192,10147,1,0,0:0:0:0:
36,192,10294,1,0,0:0:0:0:
36,192,10441,1,0,0:0:0:0:
182,192,10588,1,0,0:0:0:0:
329,192,10588,1,0,0:0:0:0:
475,192,10588,1,0,0:0:0:0:
182,192,10735,1,0,0:0:0:0:
36,192,10882,1,0,0:0:0:0:
256,192,10882,1,0,0:0:0:0:
475,192,10882,1,0,0:0:0:0:
182,192,11029,1,0,0:0:0:0:
329,192,11029,1,0,0:0:0:0:
36,192,11176,1,0,0:0:0:0:
402,192,11176,1,0,0:0:0:0:
182,192,11323,1,0,0:0:0:0:
36,192,11470,1,0,0:0:0:0:
36,192,11617,1,0,0:0:0:0:
329,192,11764,1,0,0:0:0:0:
475,192,11764,1,0,0:0:0:0:
36,192,11911,1,0,0:0:0:0:
36,192,12058,1,0,0:0:0:0:
329,192,12205,1,0,0:0:0:0:
36,192,12352,1,0,0:0:0:0:
256,192,12352,1,0,0:0:0:0:
475,192,12352,1,0,0:0:0:0:
182,192,12500,1,0,0:0:0:0:
36,192,12647,1,0,0:0:0:0:
329,192,12647,1,0,0:0:0:0:
475,192,12647,1,0,0:0:0:0:
36,192,12794,1,0,0:0:0:0:
256,192,12794,1,0,0:0:0:0:
182,192,12941,1,0,0:0:0:0:
402,192,12941,1,0,0:0:0:0:
36,192,13088,1,0,0:0:0:0:
182,192,13235,1,0,0:0:0:0:
475,192,13235,1,0,0:0:0:0:
36,192,13382,1,0,0:0:0:0:
36,192,13529,1,0,0:0:0:0:
256,192,13529,1,0,0:0:0:0:
402,192,13529,1,0,0:0:0:0:
182,192,13676,1,0,0:0:0:0:
182,192,13823,1,0,0:0:0:0:
329,192,13823,1,0,0:0:0:0:
475,192,13823,1,0,0:0:0:0:
36,192,13970,1,0,0:0:0:0:
182,192,14117,1,0,0:0:0:0:
329,192,14117,1,0,0:0:0:0:
475,192,14117,1,0,0:0:0:0:
182,192,14264,1,0,0:0:0:0:
36,192,14411,1,0,0:0:0:0:
256,192,14411,1,0,0:0:0:0:
402,192,14411,1,0,0:0:0:0:
182,192,14558,1,0,0:0:0:0:
329,192,14558,1,0,0:0:0:0:
36,192,14705,1,0,0:0:0:0:
475,192,14705,1,0,0:0:0:0:
182,192,14852,1,0,0:0:0:0:
36,192,15000,1,0,0:0:0:0:
402,192,15000,1,0,0:0:0:0:
36,192,15147,1,0,0:0:0:0:
182,192,15294,1,0,0:0:0:0:
329,192,15294,1,0,0:0:0:0:
36,192,15441,1,0,0:0:0:0:
36,192,15588,1,0,0:0:0:0:
475,192,15588,1,0,0:0:0:0:
182,192,15735,1,0,0:0:0:0:
36,192,15882,1,0,0:0:0:0:
109,192,15882,1,0,0:0:0:0:
256,192,15882,1,0,0:0:0:0:
402,192,15882,1,0,0:0:0:0:
475,192,15882,1,0,0:0:0:0:
182,192,16029,1,0,0:0:0:0:
329,192,16029,1,0,0:0:0:0:
36,192,16176,1,0,0:0:0:0:
109,192,16176,1,0,0:0:0:0:
329,192,16176,1,0,0:0:0:0:
402,192,16176,1,0,0:0:0:0:
475,192,16176,1,0,0:0:0:0:
109,192,16323,1,0,0:0:0:0:
182,192,16323,1,0,0:0:0:0:
256,192,16323,1,0,0:0:0:0:
402,192,16323,1,0,0:0:0:0:
36,192,16470,1,0,0:0:0:0:
256,192,16470,1,0,0:0:0:0:
329,192,16470,1,0,0:0:0:0:
475,192,16470,1,0,0:0:0:0:
36,192,16617,1,0,0:0:0:0:
182,192,16617,1,0,0:0:0:0:
402,192,16617,1,0,0:0:0:0:
109,192,16764,1,0,0:0:0:0:
256,192,16764,1,0,0:0:0:0:
402,192,16764,1,0,0:0:0:0:
36,192,16911,1,0,0:0:0:0:
109,192,16911,1,0,0:0:0:0:
182,192,16911,1,0,0:0:0:0:
36,192,17058,1,0,0:0:0:0:
256,192,17058,1,0,0:0:0:0:
329,192,17058,1,0,0:0:0:0:
475,192,17058,1,0,0:0:0:0:
109,192,17205,1,0,0:0:0:0:
182,192,17205,1,0,0:0:0:0:
402,192,17205,1,0,0:0:0:0:
109,192,17352,1,0,0:0:0:0:
256,192,17352,1,0,0:0:0:0:
329,192,17352,1,0,0:0:0:0:
475,192,17352,1,0,0:0:0:0:
36,192,17500,1,0,0:0:0:0:
402,192,17500,1,0,0:0:0:0:
36,192,17647,1,0,0:0:0:0:
109,192,17647,1,0,0:0:0:0:
182,192,17647,1,0,0:0:0:0:
329,192,17647,1,0,0:0:0:0:
402,192,17647,1,0,0:0:0:0:
475,192,17647,1,0,0:0:0:0:
109,192,17794,1,0,0:0:0:0:
256,192,17794,1,0,0:0:0:0:
36,192,17941,1,0,0:0:0:0:
182,192,17941,1,0,0:0:0:0:
329,192,17941,1,0,0:0:0:0:
402,192,17941,1,0,0:0:0:0:
475,192,17941,1,0,0:0:0:0:
109,192,18088,1,0,0:0:0:0:
256,192,18088,1,0,0:0:0:0:
402,192,18088,1,0,0:0:0:0:
36,192,18235,1,0,0:0:0:0:
182,192,18235,1,0,0:0:0:0:
256,192,18235,1,0,0:0:0:0:
329,192,18235,1,0,0:0:0:0:
475,192,18235,1,0,0:0:0:0:
109,192,18382,1,0,0:0:0:0:
402,192,18382,1,0,0:0:0:0:
475,192,18382,1,0,0:0:0:0:
36,192,18529,1,0,0:0:0:0:
182,192,18529,1,0,0:0:0:0:
256,192,18529,1,0,0:0:0:0:
329,192,18529,1,0,0:0:0:0:
182,192,18676,1,0,0:0:0:0:
475,192,18676,1,0,0:0:0:0:
109,192,18823,1,0,0:0:0:0:
256,192,18823,1,0,0:0:0:0:
329,192,18823,1,0,0:0:0:0:
475,192,18823,1,0,0:0:0:0:
36,192,18970,1,0,0:0:0:0:
182,192,18970,1,0,0:0:0:0:
402,192,18970,1,0,0:0:0:0:
109,192,19117,1,0,0:0:0:0:
256,192,19117,1,0,0:0:0:0:
402,192,19117,1,0,0:0:0:0:
475,192,19117,1,0,0:0:0:0:
36,192,19264,1,0,0:0:0:0:
182,192,19264,1,0,0:0:0:0:
329,192,19264,1,0,0:0:0:0:
36,192,19411,1,0,0:0:0:0:
109,192,19411,1,0,0:0:0:0:
256,192,19411,1,0,0:0:0:0:
329,192,19411,1,0,0:0:0:0:
402,192,19411,1,0,0:0:0:0:
475,192,19411,1,0,0:0:0:0:
182,192,19558,1,0,0:0:0:0:
256,192,19558,1,0,0:0:0:0:
36,192,19705,1,0,0:0:0:0:
109,192,19705,1,0,0:0:0:0:
182,192,19705,1,0,0:0:0:0:
329,192,19705,1,0,0:0:0:0:
402,192,19705,1,0,0:0:0:0:
475,192,19705,1,0,0:0:0:0:
36,192,19852,1,0,0:0:0:0:
109,192,19852,1,0,0:0:0:0:
329,192,19852,1,0,0:0:0:0:
402,192,19852,1,0,0:0:0:0:
109,192,20000,1,0,0:0:0:0:
182,192,20000,1,0,0:0:0:0:
256,192,20000,1,0,0:0:0:0:
402,192,20000,1,0,0:0:0:0:
475,192,20000,1,0,0:0:0:0:
36,192,20147,1,0,0:0:0:0:
256,192,20147,1,0,0:0:0:0:
36,192,20294,1,0,0:0:0:0:
109,192,20294,1,0,0:0:0:0:
182,192,20294,1,0,0:0:0:0:
329,192,20294,1,0,0:0:0:0:
475,192,20294,1,0,0:0:0:0:
182,192,20441,1,0,0:0:0:0:
256,192,20441,1,0,0:0:0:0:
402,192,20441,1,0,0:0:0:0:
36,192,20588,1,0,0:0:0:0:
109,192,20588,1,0,0:0:0:0:
182,192,20588,1,0,0:0:0:0:
329,192,20588,1,0,0:0:0:0:
475,192,20588,1,0,0:0:0:0:
36,192,20735,1,0,0:0:0:0:
256,192,20735,1,0,0:0:0:0:
402,192,20735,1,0,0:0:0:0:
109,192,20882,1,0,0:0:0:0:
182,192,20882,1,0,0:0:0:0:
329,192,20882,1,0,0:0:0:0:
402,192,20882,1,0,0:0:0:0:
475,192,20882,1,0,0:0:0:0:
36,192,21029,1,0,0:0:0:0:
109,192,21029,1,0,0:0:0:0:
256,192,21029,1,0,0:0:0:0:
475,192,21029,1,0,0:0:0:0:
36,192,21176,1,0,0:0:0:0:
182,192,21176,1,0,0:0:0:0:
329,192,21176,1,0,0:0:0:0:
402,192,21176,1,0,0:0:0:0:
256,192,21323,1,0,0:0:0:0:
402,192,21323,1,0,0:0:0:0:
475,192,21323,1,0,0:0:0:0:
36,192,21470,1,0,0:0:0:0:
109,192,21470,1,0,0:0:0:0:
182,192,21470,1,0,0:0:0:0:
256,192,21470,1,0,0:0:0:0:
329,192,21470,1,0,0:0:0:0:
182,192,21617,1,0,0:0:0:0:
402,192,21617,1,0,0:0:0:0:
475,192,21617,1,0,0:0:0:0:
36,192,21764,1,0,0:0:0:0:
109,192,21764,1,0,0:0:0:0:
256,192,21764,1,0,0:0:0:0:
329,192,21764,1,0,0:0:0:0:
402,192,21764,1,0,0:0:0:0:
475,192,21764,1,0,0:0:0:0:
36,192,21911,1,0,0:0:0:0:
182,192,21911,1,0,0:0:0:0:
109,192,22058,1,0,0:0:0:0:
256,192,22058,1,0,0:0:0:0:
329,192,22058,1,0,0:0:0:0:
402,192,22058,1,0,0:0:0:0:
256,192,22205,1,0,0:0:0:0:
475,192,22205,1,0,0:0:0:0:
36,192,22352,1,0,0:0:0:0:
109,192,22352,1,0,0:0:0:0:
182,192,22352,1,0,0:0:0:0:
329,192,22352,1,0,0:0:0:0:
475,192,22352,1,0,0:0:0:0:
36,192,22500,1,0,0:0:0:0:
182,192,22500,1,0,0:0:0:0:
402,192,22500,1,0,0:0:0:0:
109,192,22647,1,0,0:0:0:0:
256,192,22647,1,0,0:0:0:0:
329,192,22647,1,0,0:0:0:0:
402,192,22647,1,0,0:0:0:0:
475,192,22647,1,0,0:0:0:0:
182,192,22794,1,0,0:0:0:0:
256,192,22794,1,0,0:0:0:0:
36,192,22941,1,0,0:0:0:0:
109,192,22941,1,0,0:0:0:0:
182,192,22941,1,0,0:0:0:0:
329,192,22941,1,0,0:0:0:0:
402,192,22941,1,0,0:0:0:0:
475,192,22941,1,0,0:0:0:0:
109,192,23088,1,0,0:0:0:0:
256,192,23088,1,0,0:0:0:0:
36,192,23235,1,0,0:0:0:0:
182,192,23235,1,0,0:0:0:0:
329,192,23235,1,0,0:0:0:0:
402,192,23235,1,0,0:0:0:0:
475,192,23235,1,0,0:0:0:0:
36,192,23382,1,0,0:0:0:0:
109,192,23382,1,0,0:0:0:0:
182,192,23382,1,0,0:0:0:0:
256,192,23382,1,0,0:0:0:0:
256,192,23529,1,0,0:0:0:0:
329,192,23529,1,0,0:0:0:0:
402,192,23529,1,0,0:0:0:0:
475,192,23529,1,0,0:0:0:0:
36,192,23676,1,0,0:0:0:0:
402,192,23676,1,0,0:0:0:0:
109,192,23823,1,0,0:0:0:0:
182,192,23823,1,0,0:0:0:0:
329,192,23823,1,0,0:0:0:0:
475,192,23823,1,0,0:0:0:0:
182,192,23970,1,0,0:0:0:0:
475,192,23970,1,0,0:0:0:0:
36,192,24117,1,0,0:0:0:0:
109,192,24117,1,0,0:0:0:0:
256,192,24117,1,0,0:0:0:0:
329,192,24117,1,0,0:0:0:0:
402,192,24117,1,0,0:0:0:0:
109,192,24264,1,0,0:0:0:0:
329,192,24264,1,0,0:0:0:0:
475,192,24264,1,0,0:0:0:0:
36,192,24411,1,0,0:0:0:0:
182,192,24411,1,0,0:0:0:0:
256,192,24411,1,0,0:0:0:0:
402,192,24411,1,0,0:0:0:0:
475,192,24411,1,0,0:0:0:0:
182,192,24558,1,0,0:0:0:0:
329,192,24558,1,0,0:0:0:0:
36,192,24705,1,0,0:0:0:0:
109,192,24705,1,0,0:0:0:0:
256,192,24705,1,0,0:0:0:0:
329,192,24705,1,0,0:0:0:0:
402,192,24705,1,0,0:0:0:0:
475,192,24705,1,0,0:0:0:0:
182,192,24852,1,0,0:0:0:0:
256,192,24852,1,0,0:0:0:0:
36,192,25000,1,0,0:0:0:0:
109,192,25000,1,0,0:0:0:0:
329,192,25000,1,0,0:0:0:0:
402,192,25000,1,0,0:0:0:0:
475,192,25000,1,0,0:0:0:0:
36,192,25147,1,0,0:0:0:0:
182,192,25147,1,0,0:0:0:0:
256,192,25147,1,0,0:0:0:0:
329,192,25147,1,0,0:0:0:0:
109,192,25294,1,0,0:0:0:0:
182,192,25294,1,0,0:0:0:0:
256,192,25294,1,0,0:0:0:0:
402,192,25294,1,0,0:0:0:0:
475,192,25294,1,0,0:0:0:0:
36,192,25441,1,0,0:0:0:0:
329,192,25441,1,0,0:0:0:0:
109,192,25588,1,0,0:0:0:0:
182,192,25588,1,0,0:0:0:0:
329,192,25588,1,0,0:0:0:0:
402,192,25588,1,0,0:0:0:0:
36,192,25735,1,0,0:0:0:0:
256,192,25735,1,0,0:0:0:0:
109,192,25882,1,0,0:0:0:0:
182,192,25882,1,0,0:0:0:0:
256,192,25882,1,0,0:0:0:0:
329,192,25882,1,0,0:0:0:0:
475,192,25882,1,0,0:0:0:0:
36,192,26029,1,0,0:0:0:0:
109,192,26029,1,0,0:0:0:0:
402,192,26029,1,0,0:0:0:0:
182,192,26176,1,0,0:0:0:0:
256,192,26176,1,0,0:0:0:0:
329,192,26176,1,0,0:0:0:0:
402,192,26176,1,0,0:0:0:0:
36,192,26323,1,0,0:0:0:0:
182,192,26323,1,0,0:0:0:0:
36,192,26470,1,0,0:0:0:0:
109,192,26470,1,0,0:0:0:0:
256,192,26470,1,0,0:0:0:0:
329,192,26470,1,0,0:0:0:0:
402,192,26470,1,0,0:0:0:0:
475,192,26470,1,0,0:0:0:0:
182,192,26617,1,0,0:0:0:0:
402,192,26617,1,0,0:0:0:0:
109,192,26764,1,0,0:0:0:0:
256,192,26764,1,0,0:0:0:0:
329,192,26764,1,0,0:0:0:0:
475,192,26764,1,0,0:0:0:0:
36,192,26911,1,0,0:0:0:0:
182,192,26911,1,0,0:0:0:0:
256,192,26911,1,0,0:0:0:0:
402,192,26911,1,0,0:0:0:0:
109,192,27058,1,0,0:0:0:0:
182,192,27058,1,0,0:0:0:0:
329,192,27058,1,0,0:0:0:0:
402,192,27058,1,0,0:0:0:0:
475,192,27058,1,0,0:0:0:0:
36,192,27205,1,0,0:0:0:0:
256,192,27205,1,0,0:0:0:0:
109,192,27352,1,0,0:0:0:0:
182,192,27352,1,0,0:0:0:0:
256,192,27352,1,0,0:0:0:0:
329,192,27352,1,0,0:0:0:0:
475,192,27352,1,0,0:0:0:0:
36,192,27500,1,0,0:0:0:0:
402,192,27500,1,0,0:0:0:0:
475,192,27500,1,0,0:0:0:0:
36,192,27647,1,0,0:0:0:0:
109,192,27647,1,0,0:0:0:0:
182,192,27647,1,0,0:0:0:0:
256,192,27647,1,0,0:0:0:0:
329,192,27647,1,0,0:0:0:0:
182,192,27794,1,0,0:0:0:0:
329,192,27794,1,0,0:0:0:0:
475,192,27794,1,0,0:0:0:0:
36,192,27941,1,0,0:0:0:0:
109,192,27941,1,0,0:0:0:0:
256,192,27941,1,0,0:0:0:0:
402,192,27941,1,0,0:0:0:0:
475,192,27941,1,0,0:0:0:0:
36,192,28088,1,0,0:0:0:0:
182,192,28088,1,0,0:0:0:0:
329,192,28088,1,0,0:0:0:0:
109,192,28235,1,0,0:0:0:0:
182,192,28235,1,0,0:0:0:0:
256,192,28235,1,0,0:0:0:0:
402,192,28235,1,0,0:0:0:0:
475,192,28235,1,0,0:0:0:0:
36,192,28382,1,0,0:0:0:0:
109,192,28382,1,0,0:0:0:0:
329,192,28382,1,0,0:0:0:0:
182,192,28529,1,0,0:0:0:0:
256,192,28529,1,0,0:0:0:0:
402,192,28529,1,0,0:0:0:0:
475,192,28529,1,0,0:0:0:0:
36,192,28676,1,0,0:0:0:0:
109,192,28676,1,0,0:0:0:0:
182,192,28676,1,0,0:0:0:0:
329,192,28676,1,0,0:0:0:0:
36,192,28823,1,0,0:0:0:0:
256,192,28823,1,0,0:0:0:0:
329,192,28823,1,0,0:0:0:0:
402,192,28823,1,0,0:0:0:0:
475,192,28823,1,0,0:0:0:0:
109,192,28970,1,0,0:0:0:0:
182,192,28970,1,0,0:0:0:0:
36,192,29117,1,0,0:0:0:0:
109,192,29117,1,0,0:0:0:0:
256,192,29117,1,0,0:0:0:0:
329,192,29117,1,0,0:0:0:0:
402,192,29117,1,0,0:0:0:0:
475,192,29117,1,0,0:0:0:0:
182,192,29264,1,0,0:0:0:0:
329,192,29264,1,0,0:0:0:0:
109,192,29411,1,0,0:0:0:0:
182,192,29411,1,0,0:0:0:0:
256,192,29411,1,0,0:0:0:0:
402,192,29411,1,0,0:0:0:0:
36,192,29558,1,0,0:0:0:0:
109,192,29558,1,0,0:0:0:0:
256,192,29558,1,0,0:0:0:0:
475,192,29558,1,0,0:0:0:0:
36,192,29705,1,0,0:0:0:0:
182,192,29705,1,0,0:0:0:0:
329,192,29705,1,0,0:0:0:0:
402,192,29705,1,0,0:0:0:0:
109,192,29852,1,0,0:0:0:0:
256,192,29852,1,0,0:0:0:0:
475,192,29852,1,0,0:0:0:0:
36,192,30000,1,0,0:0:0:0:
109,192,30000,1,0,0:0:0:0:
182,192,30000,1,0,0:0:0:0:
256,192,30000,1,0,0:0:0:0:
329,192,30018,1,0,0:0:0:0:
402,192,30027,1,0,0:0:0:0:
256,192,30147,1,0,0:0:0:0:
475,192,30147,1,0,0:0:0:0:
182,192,30294,1,0,0:0:0:0:
329,192,30294,1,0,0:0:0:0:
475,192,30294,1,0,0:0:0:0:
36,192,30441,1,0,0:0:0:0:
256,192,30441,1,0,0:0:0:0:
402,192,30441,1,0,0:0:0:0:
475,192,30441,1,0,0:0:0:0:
109,192,30588,1,0,0:0:0:0:
182,192,30588,1,0,0:0:0:0:
475,192,30588,1,0,0:0:0:0:
256,192,30735,1,0,0:0:0:0:
329,192,30735,1,0,0:0:0:0:
475,192,30735,1,0,0:0:0:0:
109,192,30882,1,0,0:0:0:0:
182,192,30882,1,0,0:0:0:0:
402,192,30882,1,0,0:0:0:0:
475,192,30882,1,0,0:0:0:0:
256,192,31029,1,0,0:0:0:0:
475,192,31029,1,0,0:0:0:0:
36,192,31176,1,0,0:0:0:0:
182,192,31176,1,0,0:0:0:0:
329,192,31176,1,0,0:0:0:0:
475,192,31176,1,0,0:0:0:0:
402,192,31323,1,0,0:0:0:0:
475,192,31323,1,0,0:0:0:0:
109,192,31470,1,0,0:0:0:0:
182,192,31470,1,0,0:0:0:0:
256,192,31470,1,0,0:0:0:0:
475,192,31470,1,0,0:0:0:0:
329,192,31617,1,0,0:0:0:0:
475,192,31617,1,0,0:0:0:0:
36,192,31764,1,0,0:0:0:0:
182,192,31764,1,0,0:0:0:0:
256,192,31764,1,0,0:0:0:0:
475,192,31764,1,0,0:0:0:0:
109,192,31911,1,0,0:0:0:0:
475,192,31911,1,0,0:0:0:0:
36,192,32058,1,0,0:0:0:0:
182,192,32058,1,0,0:0:0:0:
329,192,32058,1,0,0:0:0:0:
475,192,32058,1,0,0:0:0:0:
109,192,32205,1,0,0:0:0:0:
256,192,32205,1,0,0:0:0:0:
475,192,32205,1,0,0:0:0:0:
182,192,32352,1,0,0:0:0:0:
402,192,32352,1,0,0:0:0:0:
475,192,32352,1,0,0:0:0:0:
36,192,32500,1,0,0:0:0:0:
256,192,32500,1,0,0:0:0:0:
329,192,32500,1,0,0:0:0:0:
475,192,32500,1,0,0:0:0:0:
109,192,32647,1,0,0:0:0:0:
182,192,32647,1,0,0:0:0:0:
402,192,32647,1,0,0:0:0:0:
475,192,32647,1,0,0:0:0:0:
256,192,32794,1,0,0:0:0:0:
475,192,32794,1,0,0:0:0:0:
36,192,32941,1,0,0:0:0:0:
182,192,32941,1,0,0:0:0:0:
329,192,32941,1,0,0:0:0:0:
475,192,32941,1,0,0:0:0:0:
109,192,33088,1,0,0:0:0:0:
475,192,33088,1,0,0:0:0:0:
182,192,33235,1,0,0:0:0:0:
256,192,33235,1,0,0:0:0:0:
402,192,33235,1,0,0:0:0:0:
475,192,33235,1,0,0:0:0:0:
109,192,33382,1,0,0:0:0:0:
475,192,33382,1,0,0:0:0:0:
36,192,33529,1,0,0:0:0:0:
109,192,33529,1,0,0:0:0:0:
182,192,33529,1,0,0:0:0:0:
256,192,33529,1,0,0:0:0:0:
475,192,33529,1,0,0:0:0:0:
329,192,33538,1,0,0:0:0:0:
402,192,33556,1,0,0:0:0:0:
256,192,33676,1,0,0:0:0:0:
475,192,33676,1,0,0:0:0:0:
182,192,33823,1,0,0:0:0:0:
329,192,33823,1,0,0:0:0:0:
475,192,33823,1,0,0:0:0:0:
36,192,33970,1,0,0:0:0:0:
109,192,33970,1,0,0:0:0:0:
256,192,33970,1,0,0:0:0:0:
475,192,33970,1,0,0:0:0:0:
329,192,34117,1,0,0:0:0:0:
402,192,34117,1,0,0:0:0:0:
475,192,34117,1,0,0:0:0:0:
109,192,34264,1,0,0:0:0:0:
182,192,34264,1,0,0:0:0:0:
475,192,34264,1,0,0:0:0:0:
36,192,34411,1,0,0:0:0:0:
256,192,34411,1,0,0:0:0:0:
402,192,34411,1,0,0:0:0:0:
475,192,34411,1,0,0:0:0:0:
109,192,34558,1,0,0:0:0:0:
475,192,34558,1,0,0:0:0:0:
36,192,34705,1,0,0:0:0:0:
182,192,34705,1,0,0:0:0:0:
329,192,34705,1,0,0:0:0:0:
475,192,34705,1,0,0:0:0:0:
402,192,34852,1,0,0:0:0:0:
475,192,34852,1,0,0:0:0:0:
109,192,35000,1,0,0:0:0:0:
256,192,35000,1,0,0:0:0:0:
329,192,35000,1,0,0:0:0:0:
475,192,35000,1,0,0:0:0:0:
402,192,35147,1,0,0:0:0:0:
475,192,35147,1,0,0:0:0:0:
36,192,35294,1,0,0:0:0:0:
182,192,35294,1,0,0:0:0:0:
329,192,35294,1,0,0:0:0:0:
475,192,35294,1,0,0:0:0:0:
256,192,35441,1,0,0:0:0:0:
475,192,35441,1,0,0:0:0:0:
109,192,35588,1,0,0:0:0:0:
329,192,35588,1,0,0:0:0:0:
475,192,35588,1,0,0:0:0:0:
36,192,35735,1,0,0:0:0:0:
182,192,35735,1,0,0:0:0:0:
402,192,35735,1,0,0:0:0:0:
475,192,35735,1,0,0:0:0:0:
256,192,35882,1,0,0:0:0:0:
329,192,35882,1,0,0:0:0:0:
475,192,35882,1,0,0:0:0:0:
182,192,36029,1,0,0:0:0:0:
256,192,36029,1,0,0:0:0:0:
402,192,36029,1,0,0:0:0:0:
475,192,36029,1,0,0:0:0:0:
109,192,36176,1,0,0:0:0:0:
182,192,36176,1,0,0:0:0:0:
329,192,36176,1,0,0:0:0:0:
475,192,36176,1,0,0:0:0:0:
36,192,36323,1,0,0:0:0:0:
256,192,36323,1,0,0:0:0:0:
475,192,36323,1,0,0:0:0:0:
36,192,36470,1,0,0:0:0:0:
182,192,36470,1,0,0:0:0:0:
329,192,36470,1,0,0:0:0:0:
475,192,36470,1,0,0:0:0:0:
109,192,36617,1,0,0:0:0:0:
475,192,36617,1,0,0:0:0:0:
182,192,36764,1,0,0:0:0:0:
256,192,36764,1,0,0:0:0:0:
402,192,36764,1,0,0:0:0:0:
475,192,36764,1,0,0:0:0:0:
109,192,36911,1,0,0:0:0:0:
329,192,36911,1,0,0:0:0:0:
475,192,36911,1,0,0:0:0:0:
36,192,37058,1,0,0:0:0:0:
109,192,37058,1,0,0:0:0:0:
182,192,37058,1,0,0:0:0:0:
256,192,37058,1,0,0:0:0:0:
475,192,37058,1,0,0:0:0:0:
329,192,37068,1,0,0:0:0:0:
402,192,37095,1,0,0:0:0:0:
256,192,37205,1,0,0:0:0:0:
475,192,37205,1,0,0:0:0:0:
182,192,37352,1,0,0:0:0:0:
329,192,37352,1,0,0:0:0:0:
475,192,37352,1,0,0:0:0:0:
36,192,37500,1,0,0:0:0:0:
109,192,37500,1,0,0:0:0:0:
402,192,37500,1,0,0:0:0:0:
475,192,37500,1,0,0:0:0:0:
182,192,37647,1,0,0:0:0:0:
256,192,37647,1,0,0:0:0:0:
475,192,37647,1,0,0:0:0:0:
109,192,37794,1,0,0:0:0:0:
329,192,37794,1,0,0:0:0:0:
475,192,37794,1,0,0:0:0:0:
182,192,37941,1,0,0:0:0:0:
256,192,37941,1,0,0:0:0:0:
402,192,37941,1,0,0:0:0:0:
475,192,37941,1,0,0:0:0:0:
109,192,38088,1,0,0:0:0:0:
475,192,38088,1,0,0:0:0:0:
36,192,38235,1,0,0:0:0:0:
182,192,38235,1,0,0:0:0:0:
329,192,38235,1,0,0:0:0:0:
475,192,38235,1,0,0:0:0:0:
329,192,38382,1,0,0:0:0:0:
475,192,38382,1,0,0:0:0:0:
109,192,38529,1,0,0:0:0:0:
256,192,38529,1,0,0:0:0:0:
402,192,38529,1,0,0:0:0:0:
475,192,38529,1,0,0:0:0:0:
329,192,38676,1,0,0:0:0:0:
475,192,38676,1,0,0:0:0:0:
36,192,38823,1,0,0:0:0:0:
182,192,38823,1,0,0:0:0:0:
256,192,38823,1,0,0:0:0:0:
475,192,38823,1,0,0:0:0:0:
329,192,38970,1,0,0:0:0:0:
475,192,38970,1,0,0:0:0:0:
36,192,39117,1,0,0:0:0:0:
109,192,39117,1,0,0:0:0:0:
402,192,39117,1,0,0:0:0:0:
475,192,39117,1,0,0:0:0:0:
182,192,39264,1,0,0:0:0:0:
329,192,39264,1,0,0:0:0:0:
475,192,39264,1,0,0:0:0:0:
256,192,39411,1,0,0:0:0:0:
402,192,39411,1,0,0:0:0:0:
475,192,39411,1,0,0:0:0:0:
36,192,39558,1,0,0:0:0:0:
109,192,39558,1,0,0:0:0:0:
329,192,39558,1,0,0:0:0:0:
475,192,39558,1,0,0:0:0:0:
182,192,39705,1,0,0:0:0:0:
256,192,39705,1,0,0:0:0:0:
402,192,39705,1,0,0:0:0:0:
475,192,39705,1,0,0:0:0:0:
109,192,39852,1,0,0:0:0:0:
475,192,39852,1,0,0:0:0:0:
36,192,40000,1,0,0:0:0:0:
182,192,40000,1,0,0:0:0:0:
329,192,40000,1,0,0:0:0:0:
475,192,40000,1,0,0:0:0:0:
402,192,40147,1,0,0:0:0:0:
475,192,40147,1,0,0:0:0:0:
109,192,40294,1,0,0:0:0:0:
256,192,40294,1,0,0:0:0:0:
329,192,40294,1,0,0:0:0:0:
475,192,40294,1,0,0:0:0:0:
182,192,40441,1,0,0:0:0:0:
475,192,40441,1,0,0:0:0:0:
36,192,40588,1,0,0:0:0:0:
109,192,40588,1,0,0:0:0:0:
182,192,40588,1,0,0:0:0:0:
256,192,40588,1,0,0:0:0:0:
475,192,40588,1,0,0:0:0:0:
329,192,40597,1,0,0:0:0:0:
402,192,40615,1,0,0:0:0:0:
109,192,40735,1,0,0:0:0:0:
475,192,40735,1,0,0:0:0:0:
256,192,40882,1,0,0:0:0:0:
402,192,40882,1,0,0:0:0:0:
475,192,40882,1,0,0:0:0:0:
36,192,41029,1,0,0:0:0:0:
109,192,41029,1,0,0:0:0:0:
402,192,41029,1,0,0:0:0:0:
475,192,41029,1,0,0:0:0:0:
256,192,41176,1,0,0:0:0:0:
329,192,41176,1,0,0:0:0:0:
475,192,41176,1,0,0:0:0:0:
109,192,41323,1,0,0:0:0:0:
182,192,41323,1,0,0:0:0:0:
475,192,41323,1,0,0:0:0:0:
256,192,41470,1,0,0:0:0:0:
329,192,41470,1,0,0:0:0:0:
402,192,41470,1,0,0:0:0:0:
475,192,41470,1,0,0:0:0:0:
182,192,41617,1,0,0:0:0:0:
475,192,41617,1,0,0:0:0:0:
36,192,41764,1,0,0:0:0:0:
256,192,41764,1,0,0:0:0:0:
329,192,41764,1,0,0:0:0:0:
475,192,41764,1,0,0:0:0:0:
182,192,41911,1,0,0:0:0:0:
475,192,41911,1,0,0:0:0:0:
109,192,42058,1,0,0:0:0:0:
256,192,42058,1,0,0:0:0:0:
402,192,42058,1,0,0:0:0:0:
475,192,42058,1,0,0:0:0:0:
329,192,42205,1,0,0:0:0:0:
475,192,42205,1,0,0:0:0:0:
36,192,42352,1,0,0:0:0:0:
182,192,42352,1,0,0:0:0:0:
256,192,42352,1,0,0:0:0:0:
475,192,42352,1,0,0:0:0:0:
329,192,42500,1,0,0:0:0:0:
475,192,42500,1,0,0:0:0:0:
109,192,42647,1,0,0:0:0:0:
402,192,42647,1,0,0:0:0:0:
475,192,42647,1,0,0:0:0:0:
36,192,42794,1,0,0:0:0:0:
182,192,42794,1,0,0:0:0:0:
329,192,42794,1,0,0:0:0:0:
475,192,42794,1,0,0:0:0:0:
109,192,42941,1,0,0:0:0:0:
256,192,42941,1,0,0:0:0:0:
475,192,42941,1,0,0:0:0:0:
182,192,43088,1,0,0:0:0:0:
329,192,43088,1,0,0:0:0:0:
402,192,43088,1,0,0:0:0:0:
475,192,43088,1,0,0:0:0:0:
109,192,43235,1,0,0:0:0:0:
256,192,43235,1,0,0:0:0:0:
329,192,43235,1,0,0:0:0:0:
475,192,43235,1,0,0:0:0:0:
36,192,43382,1,0,0:0:0:0:
182,192,43382,1,0,0:0:0:0:
475,192,43382,1,0,0:0:0:0:
36,192,43529,1,0,0:0:0:0:
256,192,43529,1,0,0:0:0:0:
402,192,43529,1,0,0:0:0:0:
475,192,43529,1,0,0:0:0:0:
109,192,43676,1,0,0:0:0:0:
475,192,43676,1,0,0:0:0:0:
182,192,43823,1,0,0:0:0:0:
329,192,43823,1,0,0:0:0:0:
402,192,43823,1,0,0:0:0:0:
475,192,43823,1,0,0:0:0:0:
256,192,43970,1,0,0:0:0:0:
475,192,43970,1,0,0:0:0:0:
36,192,44117,1,0,0:0:0:0:
109,192,44117,1,0,0:0:0:0:
182,192,44117,1,0,0:0:0:0:
256,192,44117,1,0,0:0:0:0:
402,192,44117,1,0,0:0:0:0:
329,192,44136,1,0,0:0:0:0:
475,192,44145,1,0,0:0:0:0:
109,192,44264,1,0,0:0:0:0:
256,192,44264,1,0,0:0:0:0:
182,192,44411,1,0,0:0:0:0:
402,192,44411,1,0,0:0:0:0:
475,192,44411,1,0,0:0:0:0:
36,192,44558,1,0,0:0:0:0:
109,192,44558,1,0,0:0:0:0:
256,192,44558,1,0,0:0:0:0:
329,192,44558,1,0,0:0:0:0:
402,192,44558,1,0,0:0:0:0:
182,192,44705,1,0,0:0:0:0:
256,192,44705,1,0,0:0:0:0:
475,192,44705,1,0,0:0:0:0:
36,192,44852,1,0,0:0:0:0:
109,192,44852,1,0,0:0:0:0:
329,192,44852,1,0,0:0:0:0:
475,192,44852,1,0,0:0:0:0:
109,192,45000,1,0,0:0:0:0:
182,192,45000,1,0,0:0:0:0:
256,192,45000,1,0,0:0:0:0:
402,192,45000,1,0,0:0:0:0:
329,192,45147,1,0,0:0:0:0:
402,192,45147,1,0,0:0:0:0:
475,192,45147,1,0,0:0:0:0:
36,192,45294,1,0,0:0:0:0:
109,192,45294,1,0,0:0:0:0:
182,192,45294,1,0,0:0:0:0:
256,192,45294,1,0,0:0:0:0:
475,192,45294,1,0,0:0:0:0:
329,192,45441,1,0,0:0:0:0:
402,192,45441,1,0,0:0:0:0:
109,192,45588,1,0,0:0:0:0:
182,192,45588,1,0,0:0:0:0:
256,192,45588,1,0,0:0:0:0:
329,192,45588,1,0,0:0:0:0:
475,192,45588,1,0,0:0:0:0:
36,192,45735,1,0,0:0:0:0:
109,192,45735,1,0,0:0:0:0:
402,192,45735,1,0,0:0:0:0:
36,192,45882,1,0,0:0:0:0:
182,192,45882,1,0,0:0:0:0:
256,192,45882,1,0,0:0:0:0:
329,192,45882,1,0,0:0:0:0:
475,192,45882,1,0,0:0:0:0:
329,192,46029,1,0,0:0:0:0:
475,192,46029,1,0,0:0:0:0:
36,192,46176,1,0,0:0:0:0:
109,192,46176,1,0,0:0:0:0:
182,192,46176,1,0,0:0:0:0:
256,192,46176,1,0,0:0:0:0:
402,192,46176,1,0,0:0:0:0:
329,192,46323,1,0,0:0:0:0:
402,192,46323,1,0,0:0:0:0:
475,192,46323,1,0,0:0:0:0:
36,192,46470,1,0,0:0:0:0:
109,192,46470,1,0,0:0:0:0:
182,192,46470,1,0,0:0:0:0:
256,192,46470,1,0,0:0:0:0:
329,192,46470,1,0,0:0:0:0:
182,192,46617,1,0,0:0:0:0:
329,192,46617,1,0,0:0:0:0:
402,192,46617,1,0,0:0:0:0:
475,192,46617,1,0,0:0:0:0:
36,192,46764,1,0,0:0:0:0:
109,192,46764,1,0,0:0:0:0:
182,192,46764,1,0,0:0:0:0:
256,192,46764,1,0,0:0:0:0:
475,192,46764,1,0,0:0:0:0:
329,192,46911,1,0,0:0:0:0:
402,192,46911,1,0,0:0:0:0:
36,192,47058,1,0,0:0:0:0:
109,192,47058,1,0,0:0:0:0:
182,192,47058,1,0,0:0:0:0:
256,192,47058,1,0,0:0:0:0:
402,192,47058,1,0,0:0:0:0:
475,192,47058,1,0,0:0:0:0:
256,192,47205,1,0,0:0:0:0:
329,192,47205,1,0,0:0:0:0:
36,192,47352,1,0,0:0:0:0:
109,192,47352,1,0,0:0:0:0:
182,192,47352,1,0,0:0:0:0:
329,192,47352,1,0,0:0:0:0:
402,192,47352,1,0,0:0:0:0:
475,192,47352,1,0,0:0:0:0:
109,192,47500,1,0,0:0:0:0:
256,192,47500,1,0,0:0:0:0:
36,192,47647,1,0,0:0:0:0:
109,192,47647,1,0,0:0:0:0:
182,192,47647,1,0,0:0:0:0:
256,192,47647,1,0,0:0:0:0:
402,192,47647,1,0,0:0:0:0:
329,192,47656,1,0,0:0:0:0:
475,192,47674,1,0,0:0:0:0:
256,192,47794,1,0,0:0:0:0:
475,192,47794,1,0,0:0:0:0:
109,192,47941,1,0,0:0:0:0:
329,192,47941,1,0,0:0:0:0:
402,192,47941,1,0,0:0:0:0:
36,192,48088,1,0,0:0:0:0:
182,192,48088,1,0,0:0:0:0:
256,192,48088,1,0,0:0:0:0:
329,192,48088,1,0,0:0:0:0:
475,192,48088,1,0,0:0:0:0:
109,192,48235,1,0,0:0:0:0:
402,192,48235,1,0,0:0:0:0:
475,192,48235,1,0,0:0:0:0:
109,192,48382,1,0,0:0:0:0:
256,192,48382,1,0,0:0:0:0:
329,192,48382,1,0,0:0:0:0:
36,192,48529,1,0,0:0:0:0:
182,192,48529,1,0,0:0:0:0:
256,192,48529,1,0,0:0:0:0:
329,192,48529,1,0,0:0:0:0:
475,192,48529,1,0,0:0:0:0:
182,192,48676,1,0,0:0:0:0:
402,192,48676,1,0,0:0:0:0:
36,192,48823,1,0,0:0:0:0:
109,192,48823,1,0,0:0:0:0:
182,192,48823,1,0,0:0:0:0:
256,192,48823,1,0,0:0:0:0:
329,192,48823,1,0,0:0:0:0:
475,192,48823,1,0,0:0:0:0:
109,192,48970,1,0,0:0:0:0:
402,192,48970,1,0,0:0:0:0:
36,192,49117,1,0,0:0:0:0:
182,192,49117,1,0,0:0:0:0:
256,192,49117,1,0,0:0:0:0:
329,192,49117,1,0,0:0:0:0:
402,192,49117,1,0,0:0:0:0:
475,192,49117,1,0,0:0:0:0:
109,192,49264,1,0,0:0:0:0:
475,192,49264,1,0,0:0:0:0:
36,192,49411,1,0,0:0:0:0:
256,192,49411,1,0,0:0:0:0:
402,192,49411,1,0,0:0:0:0:
475,192,49411,1,0,0:0:0:0:
109,192,49558,1,0,0:0:0:0:
182,192,49558,1,0,0:0:0:0:
329,192,49558,1,0,0:0:0:0:
182,192,49705,1,0,0:0:0:0:
256,192,49705,1,0,0:0:0:0:
402,192,49705,1,0,0:0:0:0:
36,192,49852,1,0,0:0:0:0:
109,192,49852,1,0,0:0:0:0:
256,192,49852,1,0,0:0:0:0:
329,192,49852,1,0,0:0:0:0:
475,192,49852,1,0,0:0:0:0:
109,192,50000,1,0,0:0:0:0:
182,192,50000,1,0,0:0:0:0:
402,192,50000,1,0,0:0:0:0:
256,192,50147,1,0,0:0:0:0:
329,192,50147,1,0,0:0:0:0:
402,192,50147,1,0,0:0:0:0:
475,192,50147,1,0,0:0:0:0:
109,192,50294,1,0,0:0:0:0:
182,192,50294,1,0,0:0:0:0:
256,192,50294,1,0,0:0:0:0:
475,192,50294,1,0,0:0:0:0:
36,192,50441,1,0,0:0:0:0:
109,192,50441,1,0,0:0:0:0:
329,192,50441,1,0,0:0:0:0:
402,192,50441,1,0,0:0:0:0:
475,192,50441,1,0,0:0:0:0:
36,192,50588,1,0,0:0:0:0:
182,192,50588,1,0,0:0:0:0:
256,192,50588,1,0,0:0:0:0:
329,192,50588,1,0,0:0:0:0:
256,192,50735,1,0,0:0:0:0:
402,192,50735,1,0,0:0:0:0:
36,192,50882,1,0,0:0:0:0:
109,192,50882,1,0,0:0:0:0:
182,192,50882,1,0,0:0:0:0:
329,192,50882,1,0,0:0:0:0:
475,192,50882,1,0,0:0:0:0:
182,192,51029,1,0,0:0:0:0:
256,192,51029,1,0,0:0:0:0:
402,192,51029,1,0,0:0:0:0:
36,192,51176,1,0,0:0:0:0:
109,192,51176,1,0,0:0:0:0:
182,192,51176,1,0,0:0:0:0:
256,192,51176,1,0,0:0:0:0:
329,192,51185,1,0,0:0:0:0:
475,192,51204,1,0,0:0:0:0:
109,192,51323,1,0,0:0:0:0:
256,192,51323,1,0,0:0:0:0:
182,192,51470,1,0,0:0:0:0:
329,192,51470,1,0,0:0:0:0:
402,192,51470,1,0,0:0:0:0:
475,192,51470,1,0,0:0:0:0:
36,192,51617,1,0,0:0:0:0:
109,192,51617,1,0,0:0:0:0:
256,192,51617,1,0,0:0:0:0:
402,192,51617,1,0,0:0:0:0:
36,192,51764,1,0,0:0:0:0:
182,192,51764,1,0,0:0:0:0:
256,192,51764,1,0,0:0:0:0:
329,192,51764,1,0,0:0:0:0:
475,192,51764,1,0,0:0:0:0:
109,192,51911,1,0,0:0:0:0:
329,192,51911,1,0,0:0:0:0:
402,192,51911,1,0,0:0:0:0:
36,192,52058,1,0,0:0:0:0:
182,192,52058,1,0,0:0:0:0:
256,192,52058,1,0,0:0:0:0:
402,192,52058,1,0,0:0:0:0:
475,192,52058,1,0,0:0:0:0:
256,192,52205,1,0,0:0:0:0:
475,192,52205,1,0,0:0:0:0:
36,192,52352,1,0,0:0:0:0:
109,192,52352,1,0,0:0:0:0:
182,192,52352,1,0,0:0:0:0:
329,192,52352,1,0,0:0:0:0:
402,192,52352,1,0,0:0:0:0:
36,192,52500,1,0,0:0:0:0:
256,192,52500,1,0,0:0:0:0:
109,192,52647,1,0,0:0:0:0:
182,192,52647,1,0,0:0:0:0:
256,192,52647,1,0,0:0:0:0:
329,192,52647,1,0,0:0:0:0:
402,192,52647,1,0,0:0:0:0:
475,192,52647,1,0,0:0:0:0:
36,192,52794,1,0,0:0:0:0:
475,192,52794,1,0,0:0:0:0:
36,192,52941,1,0,0:0:0:0:
109,192,52941,1,0,0:0:0:0:
182,192,52941,1,0,0:0:0:0:
256,192,52941,1,0,0:0:0:0:
329,192,52941,1,0,0:0:0:0:
402,192,52941,1,0,0:0:0:0:
109,192,53088,1,0,0:0:0:0:
256,192,53088,1,0,0:0:0:0:
475,192,53088,1,0,0:0:0:0:
36,192,53235,1,0,0:0:0:0:
182,192,53235,1,0,0:0:0:0:
329,192,53235,1,0,0:0:0:0:
402,192,53235,1,0,0:0:0:0:
109,192,53382,1,0,0:0:0:0:
329,192,53382,1,0,0:0:0:0:
402,192,53382,1,0,0:0:0:0:
475,192,53382,1,0,0:0:0:0:
36,192,53529,1,0,0:0:0:0:
182,192,53529,1,0,0:0:0:0:
256,192,53529,1,0,0:0:0:0:
475,192,53529,1,0,0:0:0:0:
109,192,53676,1,0,0:0:0:0:
256,192,53676,1,0,0:0:0:0:
329,192,53676,1,0,0:0:0:0:
475,192,53676,1,0,0:0:0:0:
36,192,53823,1,0,0:0:0:0:
182,192,53823,1,0,0:0:0:0:
256,192,53823,1,0,0:0:0:0:
329,192,53823,1,0,0:0:0:0:
402,192,53823,1,0,0:0:0:0:
182,192,53970,1,0,0:0:0:0:
475,192,53970,1,0,0:0:0:0:
36,192,54117,1,0,0:0:0:0:
109,192,54117,1,0,0:0:0:0:
256,192,54117,1,0,0:0:0:0:
329,192,54117,1,0,0:0:0:0:
402,192,54117,1,0,0:0:0:0:
475,192,54117,1,0,0:0:0:0:
182,192,54264,1,0,0:0:0:0:
402,192,54264,1,0,0:0:0:0:
36,192,54411,1,0,0:0:0:0:
109,192,54411,1,0,0:0:0:0:
182,192,54411,1,0,0:0:0:0:
256,192,54411,1,0,0:0:0:0:
329,192,54411,1,0,0:0:0:0:
475,192,54411,1,0,0:0:0:0:
256,192,54558,1,0,0:0:0:0:
402,192,54558,1,0,0:0:0:0:
36,192,54705,1,0,0:0:0:0:
109,192,54705,1,0,0:0:0:0:
182,192,54705,1,0,0:0:0:0:
402,192,54705,1,0,0:0:0:0:
329,192,54715,1,0,0:0:0:0:
475,192,54733,1,0,0:0:0:0:
256,192,54852,1,0,0:0:0:0:
329,192,54852,1,0,0:0:0:0:
109,192,55000,1,0,0:0:0:0:
182,192,55000,1,0,0:0:0:0:
402,192,55000,1,0,0:0:0:0:
475,192,55000,1,0,0:0:0:0:
36,192,55147,1,0,0:0:0:0:
182,192,55147,1,0,0:0:0:0:
256,192,55147,1,0,0:0:0:0:
329,192,55147,1,0,0:0:0:0:
109,192,55294,1,0,0:0:0:0:
256,192,55294,1,0,0:0:0:0:
402,192,55294,1,0,0:0:0:0:
475,192,55294,1,0,0:0:0:0:
109,192,55441,1,0,0:0:0:0:
329,192,55441,1,0,0:0:0:0:
402,192,55441,1,0,0:0:0:0:
36,192,55588,1,0,0:0:0:0:
182,192,55588,1,0,0:0:0:0:
256,192,55588,1,0,0:0:0:0:
329,192,55588,1,0,0:0:0:0:
475,192,55588,1,0,0:0:0:0:
109,192,55735,1,0,0:0:0:0:
182,192,55735,1,0,0:0:0:0:
402,192,55735,1,0,0:0:0:0:
36,192,55882,1,0,0:0:0:0:
256,192,55882,1,0,0:0:0:0:
329,192,55882,1,0,0:0:0:0:
402,192,55882,1,0,0:0:0:0:
475,192,55882,1,0,0:0:0:0:
109,192,56029,1,0,0:0:0:0:
182,192,56029,1,0,0:0:0:0:
329,192,56029,1,0,0:0:0:0:
402,192,56029,1,0,0:0:0:0:
36,192,56176,1,0,0:0:0:0:
256,192,56176,1,0,0:0:0:0:
329,192,56176,1,0,0:0:0:0:
475,192,56176,1,0,0:0:0:0:
109,192,56323,1,0,0:0:0:0:
182,192,56323,1,0,0:0:0:0:
402,192,56323,1,0,0:0:0:0:
36,192,56470,1,0,0:0:0:0:
182,192,56470,1,0,0:0:0:0:
256,192,56470,1,0,0:0:0:0:
402,192,56470,1,0,0:0:0:0:
475,192,56470,1,0,0:0:0:0:
109,192,56617,1,0,0:0:0:0:
182,192,56617,1,0,0:0:0:0:
329,192,56617,1,0,0:0:0:0:
36,192,56764,1,0,0:0:0:0:
256,192,56764,1,0,0:0:0:0:
402,192,56764,1,0,0:0:0:0:
109,192,56911,1,0,0:0:0:0:
182,192,56911,1,0,0:0:0:0:
329,192,56911,1,0,0:0:0:0:
475,192,56911,1,0,0:0:0:0:
36,192,57058,1,0,0:0:0:0:
182,192,57058,1,0,0:0:0:0:
256,192,57058,1,0,0:0:0:0:
402,192,57058,1,0,0:0:0:0:
36,192,57205,1,0,0:0:0:0:
109,192,57205,1,0,0:0:0:0:
329,192,57205,1,0,0:0:0:0:
475,192,57205,1,0,0:0:0:0:
109,192,57352,1,0,0:0:0:0:
182,192,57352,1,0,0:0:0:0:
256,192,57352,1,0,0:0:0:0:
402,192,57352,1,0,0:0:0:0:
36,192,57500,1,0,0:0:0:0:
256,192,57500,1,0,0:0:0:0:
329,192,57500,1,0,0:0:0:0:
475,192,57500,1,0,0:0:0:0:
36,192,57647,1,0,0:0:0:0:
109,192,57647,1,0,0:0:0:0:
182,192,57647,1,0,0:0:0:0:
329,192,57647,1,0,0:0:0:0:
402,192,57647,1,0,0:0:0:0:
256,192,57794,1,0,0:0:0:0:
475,192,57794,1,0,0:0:0:0:
109,192,57941,1,0,0:0:0:0:
182,192,57941,1,0,0:0:0:0:
329,192,57941,1,0,0:0:0:0:
402,192,57941,1,0,0:0:0:0:
475,192,57941,1,0,0:0:0:0:
36,192,58088,1,0,0:0:0:0:
182,192,58088,1,0,0:0:0:0:
329,192,58088,1,0,0:0:0:0:
36,192,58235,1,0,0:0:0:0:
109,192,58235,1,0,0:0:0:0:
182,192,58235,1,0,0:0:0:0:
256,192,58235,1,0,0:0:0:0:
329,192,58235,1,0,0:0:0:0:
402,192,58235,1,0,0:0:0:0:
475,192,58235,1,0,0:0:0:0:
36,192,61764,1,0,0:0:0:0:
109,192,61764,1,0,0:0:0:0:
182,192,61764,1,0,0:0:0:0:
329,192,61764,1,0,0:0:0:0:
402,192,61764,1,0,0:0:0:0:
475,192,61764,1,0,0:0:0:0:
256,192,61911,1,0,0:0:0:0:
402,192,61911,1,0,0:0:0:0:
36,192,62058,1,0,0:0:0:0:
109,192,62058,1,0,0:0:0:0:
182,192,62058,1,0,0:0:0:0:
329,192,62058,1,0,0:0:0:0:
475,192,62058,1,0,0:0:0:0:
36,192,62205,1,0,0:0:0:0:
256,192,62205,1,0,0:0:0:0:
402,192,62205,1,0,0:0:0:0:
109,192,62352,1,0,0:0:0:0:
182,192,62352,1,0,0:0:0:0:
256,192,62352,1,0,0:0:0:0:
329,192,62352,1,0,0:0:0:0:
475,192,62352,1,0,0:0:0:0:
109,192,62500,1,0,0:0:0:0:
402,192,62500,1,0,0:0:0:0:
475,192,62500,1,0,0:0:0:0:
36,192,62647,1,0,0:0:0:0:
182,192,62647,1,0,0:0:0:0:
256,192,62647,1,0,0:0:0:0:
329,192,62647,1,0,0:0:0:0:
402,192,62647,1,0,0:0:0:0:
475,192,62647,1,0,0:0:0:0:
256,192,62794,1,0,0:0:0:0:
402,192,62794,1,0,0:0:0:0:
36,192,62941,1,0,0:0:0:0:
109,192,62941,1,0,0:0:0:0:
182,192,62941,1,0,0:0:0:0:
329,192,62941,1,0,0:0:0:0:
402,192,62941,1,0,0:0:0:0:
475,192,62941,1,0,0:0:0:0:
109,192,63088,1,0,0:0:0:0:
256,192,63088,1,0,0:0:0:0:
36,192,63235,1,0,0:0:0:0:
109,192,63235,1,0,0:0:0:0:
182,192,63235,1,0,0:0:0:0:
256,192,63235,1,0,0:0:0:0:
329,192,63235,1,0,0:0:0:0:
475,192,63235,1,0,0:0:0:0:
329,192,63382,1,0,0:0:0:0:
402,192,63382,1,0,0:0:0:0:
36,192,63529,1,0,0:0:0:0:
182,192,63529,1,0,0:0:0:0:
256,192,63529,1,0,0:0:0:0:
402,192,63529,1,0,0:0:0:0:
475,192,63529,1,0,0:0:0:0:
109,192,63676,1,0,0:0:0:0:
182,192,63676,1,0,0:0:0:0:
329,192,63676,1,0,0:0:0:0:
36,192,63823,1,0,0:0:0:0:
109,192,63823,1,0,0:0:0:0:
182,192,63823,1,0,0:0:0:0:
256,192,63823,1,0,0:0:0:0:
402,192,63823,1,0,0:0:0:0:
475,192,63823,1,0,0:0:0:0:
256,192,63970,1,0,0:0:0:0:
329,192,63970,1,0,0:0:0:0:
182,192,64117,1,0,0:0:0:0:
256,192,64117,1,0,0:0:0:0:
402,192,64117,1,0,0:0:0:0:
475,192,64117,1,0,0:0:0:0:
109,192,64264,1,0,0:0:0:0:
329,192,64264,1,0,0:0:0:0:
402,192,64264,1,0,0:0:0:0:
36,192,64411,1,0,0:0:0:0:
182,192,64411,1,0,0:0:0:0:
256,192,64411,1,0,0:0:0:0:
402,192,64411,1,0,0:0:0:0:
475,192,64411,1,0,0:0:0:0:
109,192,64558,1,0,0:0:0:0:
329,192,64558,1,0,0:0:0:0:
36,192,64705,1,0,0:0:0:0:
109,192,64705,1,0,0:0:0:0:
182,192,64705,1,0,0:0:0:0:
256,192,64705,1,0,0:0:0:0:
402,192,64705,1,0,0:0:0:0:
475,192,64705,1,0,0:0:0:0:
329,192,64852,1,0,0:0:0:0:
475,192,64852,1,0,0:0:0:0:
109,192,65000,1,0,0:0:0:0:
182,192,65000,1,0,0:0:0:0:
256,192,65000,1,0,0:0:0:0:
402,192,65000,1,0,0:0:0:0:
475,192,65000,1,0,0:0:0:0:
256,192,65147,1,0,0:0:0:0:
402,192,65147,1,0,0:0:0:0:
36,192,65294,1,0,0:0:0:0:
109,192,65294,1,0,0:0:0:0:
182,192,65294,1,0,0:0:0:0:
329,192,65294,1,0,0:0:0:0:
402,192,65294,1,0,0:0:0:0:
475,192,65294,1,0,0:0:0:0:
36,192,65441,1,0,0:0:0:0:
256,192,65441,1,0,0:0:0:0:
109,192,65588,1,0,0:0:0:0:
182,192,65588,1,0,0:0:0:0:
256,192,65588,1,0,0:0:0:0:
329,192,65588,1,0,0:0:0:0:
402,192,65588,1,0,0:0:0:0:
475,192,65588,1,0,0:0:0:0:
36,192,65735,1,0,0:0:0:0:
256,192,65735,1,0,0:0:0:0:
475,192,65735,1,0,0:0:0:0:
109,192,65882,1,0,0:0:0:0:
329,192,65882,1,0,0:0:0:0:
402,192,65882,1,0,0:0:0:0:
475,192,65882,1,0,0:0:0:0:
109,192,66029,1,0,0:0:0:0:
182,192,66029,1,0,0:0:0:0:
329,192,66029,1,0,0:0:0:0:
36,192,66176,1,0,0:0:0:0:
256,192,66176,1,0,0:0:0:0:
329,192,66176,1,0,0:0:0:0:
402,192,66176,1,0,0:0:0:0:
475,192,66176,1,0,0:0:0:0:
109,192,66323,1,0,0:0:0:0:
182,192,66323,1,0,0:0:0:0:
402,192,66323,1,0,0:0:0:0:
36,192,66470,1,0,0:0:0:0:
109,192,66470,1,0,0:0:0:0:
256,192,66470,1,0,0:0:0:0:
329,192,66470,1,0,0:0:0:0:
402,192,66470,1,0,0:0:0:0:
475,192,66470,1,0,0:0:0:0:
182,192,66617,1,0,0:0:0:0:
329,192,66617,1,0,0:0:0:0:
36,192,66764,1,0,0:0:0:0:
109,192,66764,1,0,0:0:0:0:
256,192,66764,1,0,0:0:0:0:
329,192,66764,1,0,0:0:0:0:
402,192,66764,1,0,0:0:0:0:
475,192,66764,1,0,0:0:0:0:
182,192,66911,1,0,0:0:0:0:
475,192,66911,1,0,0:0:0:0:
36,192,67058,1,0,0:0:0:0:
109,192,67058,1,0,0:0:0:0:
256,192,67058,1,0,0:0:0:0:
402,192,67058,1,0,0:0:0:0:
475,192,67058,1,0,0:0:0:0:
182,192,67205,1,0,0:0:0:0:
329,192,67205,1,0,0:0:0:0:
109,192,67352,1,0,0:0:0:0:
182,192,67352,1,0,0:0:0:0:
329,192,67352,1,0,0:0:0:0:
402,192,67352,1,0,0:0:0:0:
475,192,67352,1,0,0:0:0:0:
36,192,67500,1,0,0:0:0:0:
109,192,67500,1,0,0:0:0:0:
256,192,67500,1,0,0:0:0:0:
36,192,67647,1,0,0:0:0:0:
182,192,67647,1,0,0:0:0:0:
329,192,67647,1,0,0:0:0:0:
402,192,67647,1,0,0:0:0:0:
475,192,67647,1,0,0:0:0:0:
36,192,67794,1,0,0:0:0:0:
109,192,67794,1,0,0:0:0:0:
256,192,67794,1,0,0:0:0:0:
402,192,67794,1,0,0:0:0:0:
182,192,67941,1,0,0:0:0:0:
329,192,67941,1,0,0:0:0:0:
402,192,67941,1,0,0:0:0:0:
475,192,67941,1,0,0:0:0:0:
36,192,68088,1,0,0:0:0:0:
109,192,68088,1,0,0:0:0:0:
256,192,68088,1,0,0:0:0:0:
36,192,68235,1,0,0:0:0:0:
256,192,68235,1,0,0:0:0:0:
329,192,68235,1,0,0:0:0:0:
402,192,68235,1,0,0:0:0:0:
475,192,68235,1,0,0:0:0:0:
182,192,68382,1,0,0:0:0:0:
329,192,68382,1,0,0:0:0:0:
475,192,68382,1,0,0:0:0:0:
36,192,68529,1,0,0:0:0:0:
109,192,68529,1,0,0:0:0:0:
182,192,68529,1,0,0:0:0:0:
256,192,68529,1,0,0:0:0:0:
329,192,68529,1,0,0:0:0:0:
402,192,68529,1,0,0:0:0:0:
182,192,68676,1,0,0:0:0:0:
256,192,68676,1,0,0:0:0:0:
475,192,68676,1,0,0:0:0:0:
36,192,68823,1,0,0:0:0:0:
109,192,68823,1,0,0:0:0:0:
256,192,68823,1,0,0:0:0:0:
402,192,68823,1,0,0:0:0:0:
109,192,68970,1,0,0:0:0:0:
182,192,68970,1,0,0:0:0:0:
182,192,69117,1,0,0:0:0:0:
256,192,69117,1,0,0:0:0:0:
329,192,69117,1,0,0:0:0:0:
402,192,69117,1,0,0:0:0:0:
475,192,69117,1,0,0:0:0:0:
36,192,69264,1,0,0:0:0:0:
109,192,69264,1,0,0:0:0:0:
329,192,69264,1,0,0:0:0:0:
402,192,69264,1,0,0:0:0:0:
182,192,69411,1,0,0:0:0:0:
256,192,69411,1,0,0:0:0:0:
329,192,69411,1,0,0:0:0:0:
475,192,69411,1,0,0:0:0:0:
109,192,69558,1,0,0:0:0:0:
182,192,69558,1,0,0:0:0:0:
402,192,69558,1,0,0:0:0:0:
36,192,69705,1,0,0:0:0:0:
256,192,69705,1,0,0:0:0:0:
329,192,69705,1,0,0:0:0:0:
475,192,69705,1,0,0:0:0:0:
109,192,69852,1,0,0:0:0:0:
182,192,69852,1,0,0:0:0:0:
402,192,69852,1,0,0:0:0:0:
36,192,70000,1,0,0:0:0:0:
109,192,70000,1,0,0:0:0:0:
182,192,70000,1,0,0:0:0:0:
256,192,70000,1,0,0:0:0:0:
329,192,70000,1,0,0:0:0:0:
475,192,70000,1,0,0:0:0:0:
256,192,70147,1,0,0:0:0:0:
402,192,70147,1,0,0:0:0:0:
109,192,70294,1,0,0:0:0:0:
182,192,70294,1,0,0:0:0:0:
329,192,70294,1,0,0:0:0:0:
402,192,70294,1,0,0:0:0:0:
475,192,70294,1,0,0:0:0:0:
256,192,70441,1,0,0:0:0:0:
329,192,70441,1,0,0:0:0:0:
36,192,70588,1,0,0:0:0:0:
182,192,70588,1,0,0:0:0:0:
402,192,70588,1,0,0:0:0:0:
475,192,70588,1,0,0:0:0:0:
256,192,70735,1,0,0:0:0:0:
402,192,70735,1,0,0:0:0:0:
36,192,70882,1,0,0:0:0:0:
109,192,70882,1,0,0:0:0:0:
182,192,70882,1,0,0:0:0:0:
256,192,70882,1,0,0:0:0:0:
329,192,70882,1,0,0:0:0:0:
402,192,70882,1,0,0:0:0:0:
475,192,70882,1,0,0:0:0:0:
182,192,71029,1,0,0:0:0:0:
256,192,71029,1,0,0:0:0:0:
109,192,71176,1,0,0:0:0:0:
329,192,71176,1,0,0:0:0:0:
402,192,71176,1,0,0:0:0:0:
475,192,71176,1,0,0:0:0:0:
36,192,71323,1,0,0:0:0:0:
109,192,71323,1,0,0:0:0:0:
256,192,71323,1,0,0:0:0:0:
36,192,71470,1,0,0:0:0:0:
182,192,71470,1,0,0:0:0:0:
329,192,71470,1,0,0:0:0:0:
402,192,71470,1,0,0:0:0:0:
475,192,71470,1,0,0:0:0:0:
256,192,71617,1,0,0:0:0:0:
402,192,71617,1,0,0:0:0:0:
36,192,71764,1,0,0:0:0:0:
109,192,71764,1,0,0:0:0:0:
182,192,71764,1,0,0:0:0:0:
256,192,71764,1,0,0:0:0:0:
329,192,71764,1,0,0:0:0:0:
402,192,71764,1,0,0:0:0:0:
475,192,71764,1,0,0:0:0:0:
109,192,71911,1,0,0:0:0:0:
256,192,71911,1,0,0:0:0:0:
475,192,71911,1,0,0:0:0:0:
109,192,72058,1,0,0:0:0:0:
182,192,72058,1,0,0:0:0:0:
329,192,72058,1,0,0:0:0:0:
402,192,72058,1,0,0:0:0:0:
475,192,72058,1,0,0:0:0:0:
36,192,72205,1,0,0:0:0:0:
256,192,72205,1,0,0:0:0:0:
402,192,72205,1,0,0:0:0:0:
36,192,72352,1,0,0:0:0:0:
109,192,72352,1,0,0:0:0:0:
182,192,72352,1,0,0:0:0:0:
256,192,72352,1,0,0:0:0:0:
329,192,72352,1,0,0:0:0:0:
475,192,72352,1,0,0:0:0:0:
329,192,72500,1,0,0:0:0:0:
402,192,72500,1,0,0:0:0:0:
36,192,72647,1,0,0:0:0:0:
109,192,72647,1,0,0:0:0:0:
182,192,72647,1,0,0:0:0:0:
256,192,72647,1,0,0:0:0:0:
475,192,72647,1,0,0:0:0:0:
36,192,72794,1,0,0:0:0:0:
182,192,72794,1,0,0:0:0:0:
329,192,72794,1,0,0:0:0:0:
182,192,72941,1,0,0:0:0:0:
256,192,72941,1,0,0:0:0:0:
402,192,72941,1,0,0:0:0:0:
475,192,72941,1,0,0:0:0:0:
109,192,73088,1,0,0:0:0:0:
329,192,73088,1,0,0:0:0:0:
475,192,73088,1,0,0:0:0:0:
36,192,73235,1,0,0:0:0:0:
182,192,73235,1,0,0:0:0:0:
256,192,73235,1,0,0:0:0:0:
329,192,73235,1,0,0:0:0:0:
402,192,73235,1,0,0:0:0:0:
475,192,73235,1,0,0:0:0:0:
109,192,73382,1,0,0:0:0:0:
329,192,73382,1,0,0:0:0:0:
36,192,73529,1,0,0:0:0:0:
109,192,73529,1,0,0:0:0:0:
182,192,73529,1,0,0:0:0:0:
256,192,73529,1,0,0:0:0:0:
329,192,73529,1,0,0:0:0:0:
475,192,73529,1,0,0:0:0:0:
182,192,73676,1,0,0:0:0:0:
402,192,73676,1,0,0:0:0:0:
36,192,73823,1,0,0:0:0:0:
109,192,73823,1,0,0:0:0:0:
182,192,73823,1,0,0:0:0:0:
256,192,73823,1,0,0:0:0:0:
475,192,73823,1,0,0:0:0:0:
256,192,73970,1,0,0:0:0:0:
329,192,73970,1,0,0:0:0:0:
36,192,74117,1,0,0:0:0:0:
109,192,74117,1,0,0:0:0:0:
182,192,74117,1,0,0:0:0:0:
329,192,74117,1,0,0:0:0:0:
402,192,74117,1,0,0:0:0:0:
475,192,74117,1,0,0:0:0:0:
256,192,74264,1,0,0:0:0:0:
475,192,74264,1,0,0:0:0:0:
36,192,74411,1,0,0:0:0:0:
109,192,74411,1,0,0:0:0:0:
182,192,74411,1,0,0:0:0:0:
329,192,74411,1,0,0:0:0:0:
402,192,74411,1,0,0:0:0:0:
475,192,74411,1,0,0:0:0:0:
36,192,74558,1,0,0:0:0:0:
256,192,74558,1,0,0:0:0:0:
402,192,74558,1,0,0:0:0:0:
36,192,74705,1,0,0:0:0:0:
182,192,74705,1,0,0:0:0:0:
329,192,74705,1,0,0:0:0:0:
402,192,74705,1,0,0:0:0:0:
475,192,74705,1,0,0:0:0:0:
109,192,74852,1,0,0:0:0:0:
256,192,74852,1,0,0:0:0:0:
329,192,74852,1,0,0:0:0:0:
36,192,75000,1,0,0:0:0:0:
182,192,75000,1,0,0:0:0:0:
402,192,75000,1,0,0:0:0:0:
475,192,75000,1,0,0:0:0:0:
36,192,75147,1,0,0:0:0:0:
109,192,75147,1,0,0:0:0:0:
256,192,75147,1,0,0:0:0:0:
329,192,75147,1,0,0:0:0:0:
36,192,75294,1,0,0:0:0:0:
182,192,75294,1,0,0:0:0:0:
256,192,75294,1,0,0:0:0:0:
402,192,75294,1,0,0:0:0:0:
475,192,75294,1,0,0:0:0:0:
182,192,75441,1,0,0:0:0:0:
329,192,75441,1,0,0:0:0:0:
475,192,75441,1,0,0:0:0:0:
36,192,75588,1,0,0:0:0:0:
109,192,75588,1,0,0:0:0:0:
256,192,75588,1,0,0:0:0:0:
329,192,75588,1,0,0:0:0:0:
402,192,75588,1,0,0:0:0:0:
182,192,75735,1,0,0:0:0:0:
402,192,75735,1,0,0:0:0:0:
475,192,75735,1,0,0:0:0:0:
36,192,75882,1,0,0:0:0:0:
109,192,75882,1,0,0:0:0:0:
182,192,75882,1,0,0:0:0:0:
256,192,75882,1,0,0:0:0:0:
329,192,75882,1,0,0:0:0:0:
402,192,75882,1,0,0:0:0:0:
36,192,76029,1,0,0:0:0:0:
475,192,76029,1,0,0:0:0:0:
109,192,76176,1,0,0:0:0:0:
182,192,76176,1,0,0:0:0:0:
256,192,76176,1,0,0:0:0:0:
329,192,76176,1,0,0:0:0:0:
402,192,76176,1,0,0:0:0:0:
475,192,76176,1,0,0:0:0:0:
36,192,76323,1,0,0:0:0:0:
402,192,76323,1,0,0:0:0:0:
475,192,76323,1,0,0:0:0:0:
109,192,76470,1,0,0:0:0:0:
182,192,76470,1,0,0:0:0:0:
256,192,76470,1,0,0:0:0:0:
329,192,76470,1,0,0:0:0:0:
402,192,76470,1,0,0:0:0:0:
36,192,76617,1,0,0:0:0:0:
109,192,76617,1,0,0:0:0:0:
256,192,76617,1,0,0:0:0:0:
36,192,76764,1,0,0:0:0:0:
182,192,76764,1,0,0:0:0:0:
256,192,76764,1,0,0:0:0:0:
329,192,76764,1,0,0:0:0:0:
475,192,76764,1,0,0:0:0:0:
109,192,76911,1,0,0:0:0:0:
402,192,76911,1,0,0:0:0:0:
36,192,77058,1,0,0:0:0:0:
109,192,77058,1,0,0:0:0:0:
182,192,77058,1,0,0:0:0:0:
256,192,77058,1,0,0:0:0:0:
329,192,77058,1,0,0:0:0:0:
475,192,77058,1,0,0:0:0:0:
182,192,77205,1,0,0:0:0:0:
329,192,77205,1,0,0:0:0:0:
402,192,77205,1,0,0:0:0:0:
36,192,77352,1,0,0:0:0:0:
109,192,77352,1,0,0:0:0:0:
256,192,77352,1,0,0:0:0:0:
329,192,77352,1,0,0:0:0:0:
402,192,77352,1,0,0:0:0:0:
475,192,77352,1,0,0:0:0:0:
182,192,77500,1,0,0:0:0:0:
256,192,77500,1,0,0:0:0:0:
402,192,77500,1,0,0:0:0:0:
36,192,77647,1,0,0:0:0:0:
109,192,77647,1,0,0:0:0:0:
256,192,77647,1,0,0:0:0:0:
329,192,77647,1,0,0:0:0:0:
475,192,77647,1,0,0:0:0:0:
109,192,77794,1,0,0:0:0:0:
182,192,77794,1,0,0:0:0:0:
36,192,77941,1,0,0:0:0:0:
182,192,77941,1,0,0:0:0:0:
256,192,77941,1,0,0:0:0:0:
329,192,77941,1,0,0:0:0:0:
402,192,77941,1,0,0:0:0:0:
475,192,77941,1,0,0:0:0:0:
402,192,78088,1,0,0:0:0:0:
475,192,78088,1,0,0:0:0:0:
36,192,78235,1,0,0:0:0:0:
109,192,78235,1,0,0:0:0:0:
182,192,78235,1,0,0:0:0:0:
256,192,78235,1,0,0:0:0:0:
329,192,78235,1,0,0:0:0:0:
402,192,78235,1,0,0:0:0:0:
36,192,78382,1,0,0:0:0:0:
182,192,78382,1,0,0:0:0:0:
475,192,78382,1,0,0:0:0:0:
109,192,78529,1,0,0:0:0:0:
182,192,78529,1,0,0:0:0:0:
256,192,78529,1,0,0:0:0:0:
329,192,78529,1,0,0:0:0:0:
475,192,78529,1,0,0:0:0:0:
329,192,78676,1,0,0:0:0:0:
402,192,78676,1,0,0:0:0:0:
36,192,78823,1,0,0:0:0:0:
109,192,78823,1,0,0:0:0:0:
182,192,78823,1,0,0:0:0:0:
256,192,78823,1,0,0:0:0:0:
329,192,78823,1,0,0:0:0:0:
475,192,78823,1,0,0:0:0:0:
109,192,78970,1,0,0:0:0:0:
256,192,78970,1,0,0:0:0:0:
36,192,79117,1,0,0:0:0:0:
182,192,79117,1,0,0:0:0:0:
256,192,79117,1,0,0:0:0:0:
329,192,79117,1,0,0:0:0:0:
402,192,79117,1,0,0:0:0:0:
475,192,79117,1,0,0:0:0:0:
109,192,79264,1,0,0:0:0:0:
329,192,79264,1,0,0:0:0:0:
36,192,79411,1,0,0:0:0:0:
109,192,79411,1,0,0:0:0:0:
256,192,79411,1,0,0:0:0:0:
329,192,79411,1,0,0:0:0:0:
402,192,79411,1,0,0:0:0:0:
475,192,79411,1,0,0:0:0:0:
36,192,79558,1,0,0:0:0:0:
182,192,79558,1,0,0:0:0:0:
402,192,79558,1,0,0:0:0:0:
109,192,79705,1,0,0:0:0:0:
182,192,79705,1,0,0:0:0:0:
256,192,79705,1,0,0:0:0:0:
329,192,79705,1,0,0:0:0:0:
475,192,79705,1,0,0:0:0:0:
36,192,79852,1,0,0:0:0:0:
182,192,79852,1,0,0:0:0:0:
329,192,79852,1,0,0:0:0:0:
402,192,79852,1,0,0:0:0:0:
109,192,80000,1,0,0:0:0:0:
256,192,80000,1,0,0:0:0:0:
329,192,80000,1,0,0:0:0:0:
402,192,80000,1,0,0:0:0:0:
475,192,80000,1,0,0:0:0:0:
36,192,80147,1,0,0:0:0:0:
182,192,80147,1,0,0:0:0:0:
256,192,80147,1,0,0:0:0:0:
402,192,80147,1,0,0:0:0:0:
36,192,80294,1,0,0:0:0:0:
109,192,80294,1,0,0:0:0:0:
256,192,80294,1,0,0:0:0:0:
329,192,80294,1,0,0:0:0:0:
475,192,80294,1,0,0:0:0:0:
36,192,80441,1,0,0:0:0:0:
402,192,80441,1,0,0:0:0:0:
36,192,80588,1,0,0:0:0:0:
109,192,80588,1,0,0:0:0:0:
182,192,80588,1,0,0:0:0:0:
256,192,80588,1,0,0:0:0:0:
329,192,80588,1,0,0:0:0:0:
475,192,80588,1,0,0:0:0:0:
402,192,80735,1,0,0:0:0:0:
475,192,80735,1,0,0:0:0:0:
36,192,80882,1,0,0:0:0:0:
109,192,80882,1,0,0:0:0:0:
182,192,80882,1,0,0:0:0:0:
256,192,80882,1,0,0:0:0:0:
329,192,80882,1,0,0:0:0:0:
402,192,80882,1,0,0:0:0:0:
182,192,81029,1,0,0:0:0:0:
329,192,81029,1,0,0:0:0:0:
36,192,81176,1,0,0:0:0:0:
109,192,81176,1,0,0:0:0:0:
256,192,81176,1,0,0:0:0:0:
329,192,81176,1,0,0:0:0:0:
402,192,81176,1,0,0:0:0:0:
475,192,81176,1,0,0:0:0:0:
182,192,81323,1,0,0:0:0:0:
402,192,81323,1,0,0:0:0:0:
109,192,81470,1,0,0:0:0:0:
182,192,81470,1,0,0:0:0:0:
256,192,81470,1,0,0:0:0:0:
329,192,81470,1,0,0:0:0:0:
475,192,81470,1,0,0:0:0:0:
36,192,81617,1,0,0:0:0:0:
109,192,81617,1,0,0:0:0:0:
256,192,81617,1,0,0:0:0:0:
182,192,81764,1,0,0:0:0:0:
256,192,81764,1,0,0:0:0:0:
329,192,81764,1,0,0:0:0:0:
402,192,81764,1,0,0:0:0:0:
475,192,81764,1,0,0:0:0:0:
36,192,81911,1,0,0:0:0:0:
182,192,81911,1,0,0:0:0:0:
329,192,81911,1,0,0:0:0:0:
109,192,82058,1,0,0:0:0:0:
182,192,82058,1,0,0:0:0:0:
256,192,82058,1,0,0:0:0:0:
402,192,82058,1,0,0:0:0:0:
475,192,82058,1,0,0:0:0:0:
36,192,82205,1,0,0:0:0:0:
329,192,82205,1,0,0:0:0:0:
402,192,82205,1,0,0:0:0:0:
36,192,82352,1,0,0:0:0:0:
109,192,82352,1,0,0:0:0:0:
182,192,82352,1,0,0:0:0:0:
256,192,82352,1,0,0:0:0:0:
329,192,82352,1,0,0:0:0:0:
475,192,82352,1,0,0:0:0:0:
182,192,82500,1,0,0:0:0:0:
256,192,82500,1,0,0:0:0:0:
402,192,82500,1,0,0:0:0:0:
36,192,82647,1,0,0:0:0:0:
109,192,82647,1,0,0:0:0:0:
182,192,82647,1,0,0:0:0:0:
329,192,82647,1,0,0:0:0:0:
475,192,82647,1,0,0:0:0:0:
109,192,82794,1,0,0:0:0:0:
256,192,82794,1,0,0:0:0:0:
402,192,82794,1,0,0:0:0:0:
475,192,82794,1,0,0:0:0:0:
36,192,82941,1,0,0:0:0:0:
109,192,82941,1,0,0:0:0:0:
182,192,82941,1,0,0:0:0:0:
256,192,82941,1,0,0:0:0:0:
329,192,82941,1,0,0:0:0:0:
329,192,83088,1,0,0:0:0:0:
402,192,83088,1,0,0:0:0:0:
475,192,83088,1,0,0:0:0:0:
109,192,83235,1,0,0:0:0:0:
182,192,83235,1,0,0:0:0:0:
256,192,83235,1,0,0:0:0:0:
329,192,83235,1,0,0:0:0:0:
475,192,83235,1,0,0:0:0:0:
36,192,83382,1,0,0:0:0:0:
182,192,83382,1,0,0:0:0:0:
402,192,83382,1,0,0:0:0:0:
109,192,83529,1,0,0:0:0:0:
256,192,83529,1,0,0:0:0:0:
329,192,83529,1,0,0:0:0:0:
402,192,83529,1,0,0:0:0:0:
475,192,83529,1,0,0:0:0:0:
36,192,83676,1,0,0:0:0:0:
182,192,83676,1,0,0:0:0:0:
329,192,83676,1,0,0:0:0:0:
36,192,83823,1,0,0:0:0:0:
109,192,83823,1,0,0:0:0:0:
256,192,83823,1,0,0:0:0:0:
329,192,83823,1,0,0:0:0:0:
402,192,83823,1,0,0:0:0:0:
475,192,83823,1,0,0:0:0:0:
109,192,83970,1,0,0:0:0:0:
182,192,83970,1,0,0:0:0:0:
36,192,84117,1,0,0:0:0:0:
109,192,84117,1,0,0:0:0:0:
182,192,84117,1,0,0:0:0:0:
256,192,84117,1,0,0:0:0:0:
329,192,84117,1,0,0:0:0:0:
402,192,84117,1,0,0:0:0:0:
182,192,84264,1,0,0:0:0:0:
329,192,84264,1,0,0:0:0:0:
475,192,84264,1,0,0:0:0:0:
36,192,84411,1,0,0:0:0:0:
109,192,84411,1,0,0:0:0:0:
256,192,84411,1,0,0:0:0:0:
329,192,84411,1,0,0:0:0:0:
402,192,84411,1,0,0:0:0:0:
475,192,84411,1,0,0:0:0:0:
182,192,84558,1,0,0:0:0:0:
402,192,84558,1,0,0:0:0:0:
36,192,84705,1,0,0:0:0:0:
109,192,84705,1,0,0:0:0:0:
256,192,84705,1,0,0:0:0:0:
329,192,84705,1,0,0:0:0:0:
475,192,84705,1,0,0:0:0:0:
182,192,84852,1,0,0:0:0:0:
329,192,84852,1,0,0:0:0:0:
402,192,84852,1,0,0:0:0:0:
36,192,85000,1,0,0:0:0:0:
109,192,85000,1,0,0:0:0:0:
182,192,85000,1,0,0:0:0:0:
256,192,85000,1,0,0:0:0:0:
329,192,85000,1,0,0:0:0:0:
475,192,85000,1,0,0:0:0:0:
182,192,85147,1,0,0:0:0:0:
402,192,85147,1,0,0:0:0:0:
475,192,85147,1,0,0:0:0:0:
109,192,85294,1,0,0:0:0:0:
256,192,85294,1,0,0:0:0:0:
329,192,85294,1,0,0:0:0:0:
475,192,85294,1,0,0:0:0:0:
36,192,85441,1,0,0:0:0:0:
182,192,85441,1,0,0:0:0:0:
402,192,85441,1,0,0:0:0:0:
36,192,85588,1,0,0:0:0:0:
109,192,85588,1,0,0:0:0:0:
182,192,85588,1,0,0:0:0:0:
256,192,85588,1,0,0:0:0:0:
475,192,85588,1,0,0:0:0:0:
182,192,85735,1,0,0:0:0:0:
329,192,85735,1,0,0:0:0:0:
36,192,85882,1,0,0:0:0:0:
109,192,85882,1,0,0:0:0:0:
256,192,85882,1,0,0:0:0:0:
329,192,85882,1,0,0:0:0:0:
402,192,85882,1,0,0:0:0:0:
475,192,85882,1,0,0:0:0:0:
182,192,86029,1,0,0:0:0:0:
329,192,86029,1,0,0:0:0:0:
475,192,86029,1,0,0:0:0:0:
36,192,86176,1,0,0:0:0:0:
109,192,86176,1,0,0:0:0:0:
256,192,86176,1,0,0:0:0:0:
329,192,86176,1,0,0:0:0:0:
402,192,86176,1,0,0:0:0:0:
475,192,86176,1,0,0:0:0:0:
182,192,86323,1,0,0:0:0:0:
329,192,86323,1,0,0:0:0:0:
36,192,86470,1,0,0:0:0:0:
109,192,86470,1,0,0:0:0:0:
182,192,86470,1,0,0:0:0:0:
402,192,86470,1,0,0:0:0:0:
475,192,86470,1,0,0:0:0:0:
36,192,86617,1,0,0:0:0:0:
256,192,86617,1,0,0:0:0:0:
109,192,86764,1,0,0:0:0:0:
182,192,86764,1,0,0:0:0:0:
256,192,86764,1,0,0:0:0:0:
329,192,86764,1,0,0:0:0:0:
402,192,86764,1,0,0:0:0:0:
36,192,86911,1,0,0:0:0:0:
329,192,86911,1,0,0:0:0:0:
475,192,86911,1,0,0:0:0:0:
109,192,87058,1,0,0:0:0:0:
182,192,87058,1,0,0:0:0:0:
256,192,87058,1,0,0:0:0:0:
329,192,87058,1,0,0:0:0:0:
402,192,87058,1,0,0:0:0:0:
36,192,87205,1,0,0:0:0:0:
402,192,87205,1,0,0:0:0:0:
475,192,87205,1,0,0:0:0:0:
109,192,87352,1,0,0:0:0:0:
182,192,87352,1,0,0:0:0:0:
256,192,87352,1,0,0:0:0:0:
329,192,87352,1,0,0:0:0:0:
402,192,87352,1,0,0:0:0:0:
256,192,87500,1,0,0:0:0:0:
329,192,87500,1,0,0:0:0:0:
36,192,87647,1,0,0:0:0:0:
109,192,87647,1,0,0:0:0:0:
182,192,87647,1,0,0:0:0:0:
329,192,87647,1,0,0:0:0:0:
402,192,87647,1,0,0:0:0:0:
475,192,87647,1,0,0:0:0:0:
182,192,87794,1,0,0:0:0:0:
256,192,87794,1,0,0:0:0:0:
36,192,87941,1,0,0:0:0:0:
109,192,87941,1,0,0:0:0:0:
182,192,87941,1,0,0:0:0:0:
329,192,87941,1,0,0:0:0:0:
402,192,87941,1,0,0:0:0:0:
475,192,87941,1,0,0:0:0:0:
109,192,88088,1,0,0:0:0:0:
256,192,88088,1,0,0:0:0:0:
402,192,88088,1,0,0:0:0:0:
36,192,88235,1,0,0:0:0:0:
109,192,88235,1,0,0:0:0:0:
182,192,88235,1,0,0:0:0:0:
256,192,88235,1,0,0:0:0:0:
329,192,88235,1,0,0:0:0:0:
475,192,88235,1,0,0:0:0:0:
182,192,88382,1,0,0:0:0:0:
402,192,88382,1,0,0:0:0:0:
109,192,88529,1,0,0:0:0:0:
182,192,88529,1,0,0:0:0:0:
256,192,88529,1,0,0:0:0:0:
329,192,88529,1,0,0:0:0:0:
475,192,88529,1,0,0:0:0:0:
36,192,88676,1,0,0:0:0:0:
402,192,88676,1,0,0:0:0:0:
475,192,88676,1,0,0:0:0:0:
109,192,88823,1,0,0:0:0:0:
182,192,88823,1,0,0:0:0:0:
256,192,88823,1,0,0:0:0:0:
329,192,88823,1,0,0:0:0:0:
402,192,88823,1,0,0:0:0:0:
36,192,88970,1,0,0:0:0:0:
475,192,88970,1,0,0:0:0:0:
109,192,89117,1,0,0:0:0:0:
182,192,89117,1,0,0:0:0:0:
256,192,89117,1,0,0:0:0:0:
329,192,89117,1,0,0:0:0:0:
402,192,89117,1,0,0:0:0:0:
109,192,89264,1,0,0:0:0:0:
475,192,89264,1,0,0:0:0:0:
36,192,89411,1,0,0:0:0:0:
182,192,89411,1,0,0:0:0:0:
256,192,89411,1,0,0:0:0:0:
329,192,89411,1,0,0:0:0:0:
402,192,89411,1,0,0:0:0:0:
475,192,89411,1,0,0:0:0:0:
109,192,89558,1,0,0:0:0:0:
329,192,89558,1,0,0:0:0:0:
475,192,89558,1,0,0:0:0:0:
36,192,89705,1,0,0:0:0:0:
182,192,89705,1,0,0:0:0:0:
256,192,89705,1,0,0:0:0:0:
329,192,89705,1,0,0:0:0:0:
402,192,89705,1,0,0:0:0:0:
109,192,89852,1,0,0:0:0:0:
256,192,89852,1,0,0:0:0:0:
402,192,89852,1,0,0:0:0:0:
36,192,90000,1,0,0:0:0:0:
182,192,90000,1,0,0:0:0:0:
256,192,90000,1,0,0:0:0:0:
329,192,90000,1,0,0:0:0:0:
475,192,90000,1,0,0:0:0:0:
402,192,90147,1,0,0:0:0:0:
475,192,90147,1,0,0:0:0:0:
256,192,90294,1,0,0:0:0:0:
475,192,90294,1,0,0:0:0:0:
182,192,90441,1,0,0:0:0:0:
475,192,90441,1,0,0:0:0:0:
36,192,90588,1,0,0:0:0:0:
475,192,90588,1,0,0:0:0:0:
182,192,90735,1,0,0:0:0:0:
475,192,90735,1,0,0:0:0:0:
256,192,90882,1,0,0:0:0:0:
402,192,90882,1,0,0:0:0:0:
475,192,90882,1,0,0:0:0:0:
36,192,91029,1,0,0:0:0:0:
475,192,91029,1,0,0:0:0:0:
182,192,91176,1,0,0:0:0:0:
475,192,91176,1,0,0:0:0:0:
329,192,91323,1,0,0:0:0:0:
475,192,91323,1,0,0:0:0:0:
109,192,91470,1,0,0:0:0:0:
402,192,91470,1,0,0:0:0:0:
475,192,91470,1,0,0:0:0:0:
256,192,91617,1,0,0:0:0:0:
475,192,91617,1,0,0:0:0:0:
36,192,91764,1,0,0:0:0:0:
329,192,91764,1,0,0:0:0:0:
475,192,91764,1,0,0:0:0:0:
256,192,91911,1,0,0:0:0:0:
475,192,91911,1,0,0:0:0:0:
182,192,92058,1,0,0:0:0:0:
475,192,92058,1,0,0:0:0:0:
402,192,92205,1,0,0:0:0:0:
475,192,92205,1,0,0:0:0:0:
256,192,92352,1,0,0:0:0:0:
475,192,92352,1,0,0:0:0:0:
402,192,92500,1,0,0:0:0:0:
475,192,92500,1,0,0:0:0:0:
109,192,92647,1,0,0:0:0:0:
329,192,92647,1,0,0:0:0:0:
475,192,92647,1,0,0:0:0:0:
182,192,92794,1,0,0:0:0:0:
475,192,92794,1,0,0:0:0:0:
36,192,92941,1,0,0:0:0:0:
402,192,92941,1,0,0:0:0:0:
475,192,92941,1,0,0:0:0:0:
182,192,93088,1,0,0:0:0:0:
475,192,93088,1,0,0:0:0:0:
329,192,93235,1,0,0:0:0:0:
402,192,93235,1,0,0:0:0:0:
475,192,93235,1,0,0:0:0:0:
182,192,93382,1,0,0:0:0:0:
256,192,93382,1,0,0:0:0:0:
475,192,93382,1,0,0:0:0:0:
109,192,93529,1,0,0:0:0:0:
402,192,93529,1,0,0:0:0:0:
475,192,93529,1,0,0:0:0:0:
329,192,93676,1,0,0:0:0:0:
475,192,93676,1,0,0:0:0:0:
256,192,93823,1,0,0:0:0:0:
475,192,93823,1,0,0:0:0:0:
182,192,93970,1,0,0:0:0:0:
475,192,93970,1,0,0:0:0:0:
36,192,94117,1,0,0:0:0:0:
329,192,94117,1,0,0:0:0:0:
475,192,94117,1,0,0:0:0:0:
256,192,94264,1,0,0:0:0:0:
475,192,94264,1,0,0:0:0:0:
109,192,94411,1,0,0:0:0:0:
329,192,94411,1,0,0:0:0:0:
475,192,94411,1,0,0:0:0:0:
402,192,94558,1,0,0:0:0:0:
475,192,94558,1,0,0:0:0:0:
256,192,94705,1,0,0:0:0:0:
475,192,94705,1,0,0:0:0:0:
402,192,94852,1,0,0:0:0:0:
475,192,94852,1,0,0:0:0:0:
36,192,95000,1,0,0:0:0:0:
182,192,95000,1,0,0:0:0:0:
475,192,95000,1,0,0:0:0:0:
256,192,95147,1,0,0:0:0:0:
475,192,95147,1,0,0:0:0:0:
36,192,95294,1,0,0:0:0:0:
329,192,95294,1,0,0:0:0:0:
475,192,95294,1,0,0:0:0:0:
182,192,95441,1,0,0:0:0:0:
475,192,95441,1,0,0:0:0:0:
402,192,95588,1,0,0:0:0:0:
475,192,95588,1,0,0:0:0:0:
36,192,95735,1,0,0:0:0:0:
109,192,95735,1,0,0:0:0:0:
475,192,95735,1,0,0:0:0:0:
256,192,95882,1,0,0:0:0:0:
329,192,95882,1,0,0:0:0:0:
475,192,95882,1,0,0:0:0:0:
109,192,96029,1,0,0:0:0:0:
182,192,96029,1,0,0:0:0:0:
475,192,96029,1,0,0:0:0:0:
256,192,96176,1,0,0:0:0:0:
402,192,96176,1,0,0:0:0:0:
475,192,96176,1,0,0:0:0:0:
109,192,96323,1,0,0:0:0:0:
475,192,96323,1,0,0:0:0:0:
36,192,96470,1,0,0:0:0:0:
329,192,96470,1,0,0:0:0:0:
475,192,96470,1,0,0:0:0:0:
256,192,96617,1,0,0:0:0:0:
475,192,96617,1,0,0:0:0:0:
182,192,96764,1,0,0:0:0:0:
402,192,96764,1,0,0:0:0:0:
475,192,96764,1,0,0:0:0:0:
36,192,96911,1,0,0:0:0:0:
256,192,96911,1,0,0:0:0:0:
475,192,96911,1,0,0:0:0:0:
109,192,97058,1,0,0:0:0:0:
329,192,97058,1,0,0:0:0:0:
475,192,97058,1,0,0:0:0:0:
402,192,97205,1,0,0:0:0:0:
475,192,97205,1,0,0:0:0:0:
256,192,97352,1,0,0:0:0:0:
475,192,97352,1,0,0:0:0:0:
182,192,97500,1,0,0:0:0:0:
475,192,97500,1,0,0:0:0:0:
36,192,97647,1,0,0:0:0:0:
475,192,97647,1,0,0:0:0:0:
182,192,97794,1,0,0:0:0:0:
475,192,97794,1,0,0:0:0:0:
329,192,97941,1,0,0:0:0:0:
475,192,97941,1,0,0:0:0:0:
36,192,98088,1,0,0:0:0:0:
475,192,98088,1,0,0:0:0:0:
182,192,98235,1,0,0:0:0:0:
256,192,98235,1,0,0:0:0:0:
475,192,98235,1,0,0:0:0:0:
402,192,98382,1,0,0:0:0:0:
475,192,98382,1,0,0:0:0:0:
256,192,98529,1,0,0:0:0:0:
329,192,98529,1,0,0:0:0:0:
475,192,98529,1,0,0:0:0:0:
182,192,98676,1,0,0:0:0:0:
475,192,98676,1,0,0:0:0:0:
36,192,98823,1,0,0:0:0:0:
329,192,98823,1,0,0:0:0:0:
475,192,98823,1,0,0:0:0:0:
402,192,98970,1,0,0:0:0:0:
475,192,98970,1,0,0:0:0:0:
182,192,99117,1,0,0:0:0:0:
475,192,99117,1,0,0:0:0:0:
329,192,99264,1,0,0:0:0:0:
475,192,99264,1,0,0:0:0:0:
182,192,99411,1,0,0:0:0:0:
475,192,99411,1,0,0:0:0:0:
402,192,99558,1,0,0:0:0:0:
475,192,99558,1,0,0:0:0:0:
256,192,99705,1,0,0:0:0:0:
475,192,99705,1,0,0:0:0:0:
182,192,99852,1,0,0:0:0:0:
475,192,99852,1,0,0:0:0:0:
36,192,100000,1,0,0:0:0:0:
256,192,100000,1,0,0:0:0:0:
475,192,100000,1,0,0:0:0:0:
329,192,100147,1,0,0:0:0:0:
475,192,100147,1,0,0:0:0:0:
182,192,100294,1,0,0:0:0:0:
402,192,100294,1,0,0:0:0:0:
475,192,100294,1,0,0:0:0:0:
329,192,100441,1,0,0:0:0:0:
475,192,100441,1,0,0:0:0:0:
182,192,100588,1,0,0:0:0:0:
256,192,100588,1,0,0:0:0:0:
475,192,100588,1,0,0:0:0:0:
109,192,100735,1,0,0:0:0:0:
475,192,100735,1,0,0:0:0:0:
329,192,100882,1,0,0:0:0:0:
475,192,100882,1,0,0:0:0:0:
182,192,101029,1,0,0:0:0:0:
475,192,101029,1,0,0:0:0:0:
36,192,101176,1,0,0:0:0:0:
475,192,101176,1,0,0:0:0:0:
182,192,101323,1,0,0:0:0:0:
475,192,101323,1,0,0:0:0:0:
402,192,101470,1,0,0:0:0:0:
475,192,101470,1,0,0:0:0:0:
329,192,101617,1,0,0:0:0:0:
475,192,101617,1,0,0:0:0:0:
182,192,101764,1,0,0:0:0:0:
475,192,101764,1,0,0:0:0:0:
402,192,101911,1,0,0:0:0:0:
475,192,101911,1,0,0:0:0:0:
36,192,102058,1,0,0:0:0:0:
256,192,102058,1,0,0:0:0:0:
475,192,102058,1,0,0:0:0:0:
182,192,102205,1,0,0:0:0:0:
329,192,102205,1,0,0:0:0:0:
475,192,102205,1,0,0:0:0:0:
36,192,102352,1,0,0:0:0:0:
109,192,102352,1,0,0:0:0:0:
475,192,102352,1,0,0:0:0:0:
402,192,102500,1,0,0:0:0:0:
475,192,102500,1,0,0:0:0:0:
329,192,102647,1,0,0:0:0:0:
475,192,102647,1,0,0:0:0:0:
109,192,102794,1,0,0:0:0:0:
475,192,102794,1,0,0:0:0:0:
256,192,102941,1,0,0:0:0:0:
475,192,102941,1,0,0:0:0:0:
402,192,103088,1,0,0:0:0:0:
475,192,103088,1,0,0:0:0:0:
329,192,103235,1,0,0:0:0:0:
475,192,103235,1,0,0:0:0:0:
109,192,103382,1,0,0:0:0:0:
475,192,103382,1,0,0:0:0:0:
36,192,103529,1,0,0:0:0:0:
182,192,103529,1,0,0:0:0:0:
329,192,103529,1,0,0:0:0:0:
475,192,103529,1,0,0:0:0:0:
109,192,103676,1,0,0:0:0:0:
256,192,103676,1,0,0:0:0:0:
402,192,103676,1,0,0:0:0:0:
475,192,103676,1,0,0:0:0:0:
36,192,103823,1,0,0:0:0:0:
182,192,103823,1,0,0:0:0:0:
329,192,103823,1,0,0:0:0:0:
475,192,103823,1,0,0:0:0:0:
256,192,103970,1,0,0:0:0:0:
402,192,103970,1,0,0:0:0:0:
475,192,103970,1,0,0:0:0:0:
36,192,104117,1,0,0:0:0:0:
182,192,104117,1,0,0:0:0:0:
329,192,104117,1,0,0:0:0:0:
402,192,104117,1,0,0:0:0:0:
475,192,104117,1,0,0:0:0:0:
109,192,104264,1,0,0:0:0:0:
256,192,104264,1,0,0:0:0:0:
329,192,104264,1,0,0:0:0:0:
182,192,104411,1,0,0:0:0:0:
256,192,104411,1,0,0:0:0:0:
402,192,104411,1,0,0:0:0:0:
475,192,104411,1,0,0:0:0:0:
36,192,104558,1,0,0:0:0:0:
182,192,104558,1,0,0:0:0:0:
329,192,104558,1,0,0:0:0:0:
109,192,104705,1,0,0:0:0:0:
182,192,104705,1,0,0:0:0:0:
256,192,104705,1,0,0:0:0:0:
475,192,104705,1,0,0:0:0:0:
36,192,104852,1,0,0:0:0:0:
109,192,104852,1,0,0:0:0:0:
402,192,104852,1,0,0:0:0:0:
36,192,105000,1,0,0:0:0:0:
182,192,105000,1,0,0:0:0:0:
256,192,105000,1,0,0:0:0:0:
329,192,105000,1,0,0:0:0:0:
402,192,105000,1,0,0:0:0:0:
475,192,105000,1,0,0:0:0:0:
109,192,105147,1,0,0:0:0:0:
329,192,105147,1,0,0:0:0:0:
402,192,105147,1,0,0:0:0:0:
36,192,105294,1,0,0:0:0:0:
109,192,105294,1,0,0:0:0:0:
182,192,105294,1,0,0:0:0:0:
256,192,105294,1,0,0:0:0:0:
329,192,105294,1,0,0:0:0:0:
182,192,105441,1,0,0:0:0:0:
475,192,105441,1,0,0:0:0:0:
36,192,105588,1,0,0:0:0:0:
109,192,105588,1,0,0:0:0:0:
182,192,105588,1,0,0:0:0:0:
256,192,105588,1,0,0:0:0:0:
329,192,105588,1,0,0:0:0:0:
402,192,105588,1,0,0:0:0:0:
256,192,105735,1,0,0:0:0:0:
475,192,105735,1,0,0:0:0:0:
36,192,105882,1,0,0:0:0:0:
109,192,105882,1,0,0:0:0:0:
182,192,105882,1,0,0:0:0:0:
329,192,105882,1,0,0:0:0:0:
402,192,105882,1,0,0:0:0:0:
475,192,105882,1,0,0:0:0:0:
329,192,106029,1,0,0:0:0:0:
402,192,106029,1,0,0:0:0:0:
36,192,106176,1,0,0:0:0:0:
182,192,106176,1,0,0:0:0:0:
256,192,106176,1,0,0:0:0:0:
329,192,106176,1,0,0:0:0:0:
475,192,106176,1,0,0:0:0:0:
109,192,106323,1,0,0:0:0:0:
256,192,106323,1,0,0:0:0:0:
402,192,106323,1,0,0:0:0:0:
475,192,106323,1,0,0:0:0:0:
36,192,106470,1,0,0:0:0:0:
109,192,106470,1,0,0:0:0:0:
182,192,106470,1,0,0:0:0:0:
256,192,106470,1,0,0:0:0:0:
109,192,106617,1,0,0:0:0:0:
182,192,106617,1,0,0:0:0:0:
329,192,106617,1,0,0:0:0:0:
36,192,106764,1,0,0:0:0:0:
109,192,106764,1,0,0:0:0:0:
256,192,106764,1,0,0:0:0:0:
402,192,106764,1,0,0:0:0:0:
475,192,106764,1,0,0:0:0:0:
182,192,106911,1,0,0:0:0:0:
256,192,106911,1,0,0:0:0:0:
329,192,106911,1,0,0:0:0:0:
36,192,107058,1,0,0:0:0:0:
109,192,107058,1,0,0:0:0:0:
256,192,107058,1,0,0:0:0:0:
329,192,107058,1,0,0:0:0:0:
402,192,107058,1,0,0:0:0:0:
475,192,107058,1,0,0:0:0:0:
182,192,107205,1,0,0:0:0:0:
329,192,107205,1,0,0:0:0:0:
475,192,107205,1,0,0:0:0:0:
36,192,107352,1,0,0:0:0:0:
109,192,107352,1,0,0:0:0:0:
256,192,107352,1,0,0:0:0:0:
402,192,107352,1,0,0:0:0:0:
475,192,107352,1,0,0:0:0:0:
109,192,107500,1,0,0:0:0:0:
182,192,107500,1,0,0:0:0:0:
402,192,107500,1,0,0:0:0:0:
36,192,107647,1,0,0:0:0:0:
182,192,107647,1,0,0:0:0:0:
256,192,107647,1,0,0:0:0:0:
329,192,107647,1,0,0:0:0:0:
475,192,107647,1,0,0:0:0:0:
109,192,107794,1,0,0:0:0:0:
256,192,107794,1,0,0:0:0:0:
402,192,107794,1,0,0:0:0:0:
182,192,107941,1,0,0:0:0:0:
329,192,107941,1,0,0:0:0:0:
402,192,107941,1,0,0:0:0:0:
475,192,107941,1,0,0:0:0:0:
36,192,108088,1,0,0:0:0:0:
256,192,108088,1,0,0:0:0:0:
402,192,108088,1,0,0:0:0:0:
475,192,108088,1,0,0:0:0:0:
36,192,108235,1,0,0:0:0:0:
182,192,108235,1,0,0:0:0:0:
329,192,108235,1,0,0:0:0:0:
475,192,108235,1,0,0:0:0:0:
109,192,108382,1,0,0:0:0:0:
256,192,108382,1,0,0:0:0:0:
402,192,108382,1,0,0:0:0:0:
36,192,108529,1,0,0:0:0:0:
109,192,108529,1,0,0:0:0:0:
182,192,108529,1,0,0:0:0:0:
256,192,108529,1,0,0:0:0:0:
329,192,108529,1,0,0:0:0:0:
475,192,108529,1,0,0:0:0:0:
182,192,108676,1,0,0:0:0:0:
329,192,108676,1,0,0:0:0:0:
402,192,108676,1,0,0:0:0:0:
36,192,108823,1,0,0:0:0:0:
182,192,108823,1,0,0:0:0:0:
256,192,108823,1,0,0:0:0:0:
329,192,108823,1,0,0:0:0:0:
475,192,108823,1,0,0:0:0:0:
402,192,108970,1,0,0:0:0:0:
475,192,108970,1,0,0:0:0:0:
36,192,109117,1,0,0:0:0:0:
109,192,109117,1,0,0:0:0:0:
182,192,109117,1,0,0:0:0:0:
329,192,109117,1,0,0:0:0:0:
402,192,109117,1,0,0:0:0:0:
475,192,109117,1,0,0:0:0:0:
256,192,109264,1,0,0:0:0:0:
329,192,109264,1,0,0:0:0:0:
36,192,109411,1,0,0:0:0:0:
182,192,109411,1,0,0:0:0:0:
256,192,109411,1,0,0:0:0:0:
402,192,109411,1,0,0:0:0:0:
475,192,109411,1,0,0:0:0:0:
109,192,109558,1,0,0:0:0:0:
329,192,109558,1,0,0:0:0:0:
475,192,109558,1,0,0:0:0:0:
182,192,109705,1,0,0:0:0:0:
256,192,109705,1,0,0:0:0:0:
402,192,109705,1,0,0:0:0:0:
475,192,109705,1,0,0:0:0:0:
36,192,109852,1,0,0:0:0:0:
109,192,109852,1,0,0:0:0:0:
182,192,109852,1,0,0:0:0:0:
329,192,109852,1,0,0:0:0:0:
402,192,109852,1,0,0:0:0:0:
256,192,110000,1,0,0:0:0:0:
329,192,110000,1,0,0:0:0:0:
475,192,110000,1,0,0:0:0:0:
109,192,110147,1,0,0:0:0:0:
182,192,110147,1,0,0:0:0:0:
256,192,110147,1,0,0:0:0:0:
402,192,110147,1,0,0:0:0:0:
36,192,110294,1,0,0:0:0:0:
256,192,110294,1,0,0:0:0:0:
329,192,110294,1,0,0:0:0:0:
475,192,110294,1,0,0:0:0:0:
36,192,110441,1,0,0:0:0:0:
109,192,110441,1,0,0:0:0:0:
182,192,110441,1,0,0:0:0:0:
402,192,110441,1,0,0:0:0:0:
36,192,110588,1,0,0:0:0:0:
109,192,110588,1,0,0:0:0:0:
182,192,110588,1,0,0:0:0:0:
256,192,110588,1,0,0:0:0:0:
329,192,110588,1,0,0:0:0:0:
475,192,110588,1,0,0:0:0:0:
256,192,110735,1,0,0:0:0:0:
402,192,110735,1,0,0:0:0:0:
36,192,110882,1,0,0:0:0:0:
109,192,110882,1,0,0:0:0:0:
182,192,110882,1,0,0:0:0:0:
329,192,110882,1,0,0:0:0:0:
402,192,110882,1,0,0:0:0:0:
475,192,110882,1,0,0:0:0:0:
256,192,111029,1,0,0:0:0:0:
402,192,111029,1,0,0:0:0:0:
475,192,111029,1,0,0:0:0:0:
36,192,111176,1,0,0:0:0:0:
256,192,111176,1,0,0:0:0:0:
329,192,111176,1,0,0:0:0:0:
402,192,111176,1,0,0:0:0:0:
475,192,111176,1,0,0:0:0:0:
36,192,111323,1,0,0:0:0:0:
109,192,111323,1,0,0:0:0:0:
182,192,111323,1,0,0:0:0:0:
256,192,111323,1,0,0:0:0:0:
36,192,111470,1,0,0:0:0:0:
182,192,111470,1,0,0:0:0:0:
256,192,111470,1,0,0:0:0:0:
329,192,111470,1,0,0:0:0:0:
402,192,111470,1,0,0:0:0:0:
475,192,111470,1,0,0:0:0:0:
36,192,111617,1,0,0:0:0:0:
329,192,111617,1,0,0:0:0:0:
402,192,111617,1,0,0:0:0:0:
475,192,111617,1,0,0:0:0:0:
36,192,111764,1,0,0:0:0:0:
109,192,111764,1,0,0:0:0:0:
182,192,111764,1,0,0:0:0:0:
256,192,111764,1,0,0:0:0:0:
329,192,111764,1,0,0:0:0:0:
36,192,111911,1,0,0:0:0:0:
256,192,111911,1,0,0:0:0:0:
329,192,111911,1,0,0:0:0:0:
402,192,111911,1,0,0:0:0:0:
475,192,111911,1,0,0:0:0:0:
36,192,112058,1,0,0:0:0:0:
109,192,112058,1,0,0:0:0:0:
182,192,112058,1,0,0:0:0:0:
256,192,112058,1,0,0:0:0:0:
329,192,112058,1,0,0:0:0:0:
36,192,112205,1,0,0:0:0:0:
329,192,112205,1,0,0:0:0:0:
402,192,112205,1,0,0:0:0:0:
475,192,112205,1,0,0:0:0:0:
36,192,112352,1,0,0:0:0:0:
109,192,112352,1,0,0:0:0:0:
182,192,112352,1,0,0:0:0:0:
256,192,112352,1,0,0:0:0:0:
329,192,112352,1,0,0:0:0:0:
402,192,112352,1,0,0:0:0:0:
36,192,112500,1,0,0:0:0:0:
402,192,112500,1,0,0:0:0:0:
475,192,112500,1,0,0:0:0:0:
36,192,112647,1,0,0:0:0:0:
109,192,112647,1,0,0:0:0:0:
182,192,112647,1,0,0:0:0:0:
256,192,112647,1,0,0:0:0:0:
329,192,112647,1,0,0:0:0:0:
402,192,112647,1,0,0:0:0:0:
36,192,112794,1,0,0:0:0:0:
402,192,112794,1,0,0:0:0:0:
475,192,112794,1,0,0:0:0:0:
36,192,112941,1,0,0:0:0:0:
109,192,112941,1,0,0:0:0:0:
182,192,112941,1,0,0:0:0:0:
256,192,112941,1,0,0:0:0:0:
329,192,112941,1,0,0:0:0:0:
402,192,112941,1,0,0:0:0:0:
475,192,112941,1,0,0:0:0:0:
36,192,113088,1,0,0:0:0:0:
109,192,113088,1,0,0:0:0:0:
182,192,113088,1,0,0:0:0:0:
36,192,113235,1,0,0:0:0:0:
182,192,113235,1,0,0:0:0:0:
256,192,113235,1,0,0:0:0:0:
329,192,113235,1,0,0:0:0:0:
402,192,113235,1,0,0:0:0:0:
475,192,113235,1,0,0:0:0:0:
36,192,113382,1,0,0:0:0:0:
109,192,113382,1,0,0:0:0:0:
182,192,113382,1,0,0:0:0:0:
36,192,113529,1,0,0:0:0:0:
182,192,113529,1,0,0:0:0:0:
256,192,113529,1,0,0:0:0:0:
329,192,113529,1,0,0:0:0:0:
402,192,113529,1,0,0:0:0:0:
475,192,113529,1,0,0:0:0:0:
36,192,113676,1,0,0:0:0:0:
109,192,113676,1,0,0:0:0:0:
182,192,113676,1,0,0:0:0:0:
256,192,113676,1,0,0:0:0:0:
329,192,113676,1,0,0:0:0:0:
36,192,113823,1,0,0:0:0:0:
256,192,113823,1,0,0:0:0:0:
329,192,113823,1,0,0:0:0:0:
402,192,113823,1,0,0:0:0:0:
475,192,113823,1,0,0:0:0:0:
36,192,113970,1,0,0:0:0:0:
109,192,113970,1,0,0:0:0:0:
182,192,113970,1,0,0:0:0:0:
256,192,113970,1,0,0:0:0:0:
36,192,114117,1,0,0:0:0:0:
182,192,114117,1,0,0:0:0:0:
256,192,114117,1,0,0:0:0:0:
329,192,114117,1,0,0:0:0:0:
402,192,114117,1,0,0:0:0:0:
475,192,114117,1,0,0:0:0:0:
36,192,114264,1,0,0:0:0:0:
109,192,114264,1,0,0:0:0:0:
182,192,114264,1,0,0:0:0:0:
256,192,114264,1,0,0:0:0:0:
36,192,114411,1,0,0:0:0:0:
182,192,114411,1,0,0:0:0:0:
256,192,114411,1,0,0:0:0:0:
329,192,114411,1,0,0:0:0:0:
402,192,114411,1,0,0:0:0:0:
475,192,114411,1,0,0:0:0:0:
36,192,114558,1,0,0:0:0:0:
109,192,114558,1,0,0:0:0:0:
182,192,114558,1,0,0:0:0:0:
36,192,114705,1,0,0:0:0:0:
182,192,114705,1,0,0:0:0:0:
256,192,114705,1,0,0:0:0:0:
329,192,114705,1,0,0:0:0:0:
402,192,114705,1,0,0:0:0:0:
475,192,114705,1,0,0:0:0:0:
36,192,114852,1,0,0:0:0:0:
109,192,114852,1,0,0:0:0:0:
182,192,114852,1,0,0:0:0:0:
36,192,115000,1,0,0:0:0:0:
182,192,115000,1,0,0:0:0:0:
256,192,115000,1,0,0:0:0:0:
329,192,115000,1,0,0:0:0:0:
402,192,115000,1,0,0:0:0:0:
475,192,115000,1,0,0:0:0:0:
36,192,115147,1,0,0:0:0:0:
109,192,115147,1,0,0:0:0:0:
182,192,115147,1,0,0:0:0:0:
256,192,115147,1,0,0:0:0:0:
36,192,115294,1,0,0:0:0:0:
329,192,115294,1,0,0:0:0:0:
402,192,115294,1,0,0:0:0:0:
475,192,115294,1,0,0:0:0:0:
36,192,115441,1,0,0:0:0:0:
109,192,115441,1,0,0:0:0:0:
182,192,115441,1,0,0:0:0:0:
256,192,115441,1,0,0:0:0:0:
329,192,115441,1,0,0:0:0:0:
402,192,115441,1,0,0:0:0:0:
36,192,115588,1,0,0:0:0:0:
256,192,115588,1,0,0:0:0:0:
329,192,115588,1,0,0:0:0:0:
402,192,115588,1,0,0:0:0:0:
475,192,115588,1,0,0:0:0:0:
36,192,115735,1,0,0:0:0:0:
109,192,115735,1,0,0:0:0:0:
182,192,115735,1,0,0:0:0:0:
256,192,115735,1,0,0:0:0:0:
36,192,115882,1,0,0:0:0:0:
256,192,115882,1,0,0:0:0:0:
329,192,115882,1,0,0:0:0:0:
402,192,115882,1,0,0:0:0:0:
475,192,115882,1,0,0:0:0:0:
36,192,116029,1,0,0:0:0:0:
109,192,116029,1,0,0:0:0:0:
182,192,116029,1,0,0:0:0:0:
256,192,116029,1,0,0:0:0:0:
36,192,116176,1,0,0:0:0:0:
182,192,116176,1,0,0:0:0:0:
256,192,116176,1,0,0:0:0:0:
329,192,116176,1,0,0:0:0:0:
402,192,116176,1,0,0:0:0:0:
475,192,116176,1,0,0:0:0:0:
36,192,116323,1,0,0:0:0:0:
109,192,116323,1,0,0:0:0:0:
182,192,116323,1,0,0:0:0:0:
256,192,116323,1,0,0:0:0:0:
36,192,116470,1,0,0:0:0:0:
109,192,116470,1,0,0:0:0:0:
182,192,116470,1,0,0:0:0:0:
256,192,116470,1,0,0:0:0:0:
402,192,116544,1,0,0:0:0:0:
36,192,116617,1,0,0:0:0:0:
109,192,116617,1,0,0:0:0:0:
182,192,116617,1,0,0:0:0:0:
256,192,116617,1,0,0:0:0:0:
329,192,116617,1,0,0:0:0:0:
475,192,116691,1,0,0:0:0:0:
109,192,116764,1,0,0:0:0:0:
182,192,116764,1,0,0:0:0:0:
256,192,116764,1,0,0:0:0:0:
329,192,116764,1,0,0:0:0:0:
402,192,116764,1,0,0:0:0:0:
36,192,116838,1,0,0:0:0:0:
182,192,116911,1,0,0:0:0:0:
256,192,116911,1,0,0:0:0:0:
329,192,116911,1,0,0:0:0:0:
402,192,116911,1,0,0:0:0:0:
475,192,116911,1,0,0:0:0:0:
109,192,116985,1,0,0:0:0:0:
36,192,117058,1,0,0:0:0:0:
182,192,117058,1,0,0:0:0:0:
256,192,117058,1,0,0:0:0:0:
329,192,117058,1,0,0:0:0:0:
402,192,117058,1,0,0:0:0:0:
475,192,117058,1,0,0:0:0:0:
109,192,117132,1,0,0:0:0:0:
36,192,117205,1,0,0:0:0:0:
182,192,117205,1,0,0:0:0:0:
256,192,117205,1,0,0:0:0:0:
329,192,117205,1,0,0:0:0:0:
475,192,117205,1,0,0:0:0:0:
402,192,117279,1,0,0:0:0:0:
109,192,117352,1,0,0:0:0:0:
182,192,117352,1,0,0:0:0:0:
256,192,117352,1,0,0:0:0:0:
329,192,117352,1,0,0:0:0:0:
475,192,117352,1,0,0:0:0:0:
36,192,117426,1,0,0:0:0:0:
256,192,117500,1,0,0:0:0:0:
329,192,117500,1,0,0:0:0:0:
402,192,117500,1,0,0:0:0:0:
475,192,117500,1,0,0:0:0:0:
36,192,117573,1,0,0:0:0:0:
109,192,117647,1,0,0:0:0:0:
182,192,117647,1,0,0:0:0:0:
256,192,117647,1,0,0:0:0:0:
329,192,117647,1,0,0:0:0:0:
402,192,117647,1,0,0:0:0:0:
475,192,117720,1,0,0:0:0:0:
109,192,117794,1,0,0:0:0:0:
182,192,117794,1,0,0:0:0:0:
256,192,117794,1,0,0:0:0:0:
329,192,117794,1,0,0:0:0:0:
475,192,117867,1,0,0:0:0:0:
36,192,117941,1,0,0:0:0:0:
109,192,117941,1,0,0:0:0:0:
182,192,117941,1,0,0:0:0:0:
256,192,117941,1,0,0:0:0:0:
329,192,117941,1,0,0:0:0:0:
402,192,117941,1,0,0:0:0:0:
475,192,118014,1,0,0:0:0:0:
36,192,118088,1,0,0:0:0:0:
109,192,118088,1,0,0:0:0:0:
182,192,118088,1,0,0:0:0:0:
256,192,118088,1,0,0:0:0:0:
329,192,118161,1,0,0:0:0:0:
