osu file format v14

[General]
AudioFilename: --GUMI--Plastic Girl ----------- PV (English Subs).mp3
AudioLeadIn: 0
PreviewTime: -1
Countdown: 1
SampleSet: Normal
StackLeniency: 0.7
Mode: 0
LetterboxInBreaks: 1
WidescreenStoryboard: 0

[Editor]
DistanceSpacing: 1.5
BeatDivisor: 4
GridSize: 4
TimelineZoom: 1

[Metadata]
Title:Plastic Girl
TitleUnicode:Plastic Girl
Artist:gumi
ArtistUnicode:gumi
Creator:shinrin321
Version:Normal
Source:Plastic Girl
Tags:Plastic Girl Gumi
BeatmapID:724125
BeatmapSetID:326068

[Difficulty]
HPDrainRate:5
CircleSize:5
OverallDifficulty:1
ApproachRate:5
SliderMultiplier:1.4
SliderTickRate:1

[Events]
//Background and Video events
0,0,"plastic doll.jpg",0,0
//Break Periods
2,46950,57550
2,107950,116800
2,140075,150675
//Storyboard Layer 0 (Background)
//Storyboard Layer 1 (Fail)
//Storyboard Layer 2 (Pass)
//Storyboard Layer 3 (Foreground)
//Storyboard Sound Samples

[TimingPoints]
0,500,4,1,0,100,1,0
36066,-100,4,1,0,100,0,1
46901,-100,4,1,0,100,0,0
82625,-100,4,1,0,100,0,1
93500,-100,4,1,0,100,0,0
129156,-100,4,1,0,100,0,1
140571,-100,4,1,0,100,0,0

[HitObjects]
256,192,6500,12,0,11625,0:0:0:0:
120,112,12250,5,0,0:0:0:0:
368,120,14500,1,0,0:0:0:0:
184,264,15250,1,0,0:0:0:0:
376,248,16000,1,0,0:0:0:0:
340,140,17000,1,0,0:0:0:0:
128,120,17625,5,0,0:0:0:0:
164,256,20125,1,0,0:0:0:0:
328,248,20875,1,0,0:0:0:0:
340,148,21625,1,0,0:0:0:0:
92,116,23250,6,0,L|164:116,20,70
344,120,28500,2,0,L|432:120,22,70
256,192,34000,12,0,35750,0:0:0:0:
80,148,36125,6,0,P|120:112|176:164,3,140
304,64,38000,1,0,0:0:0:0:
400,152,38375,1,0,0:0:0:0:
304,188,39125,1,0,0:0:0:0:
368,232,40000,1,0,0:0:0:0:
360,112,40875,1,0,0:0:0:0:
72,132,41500,6,0,P|108:104|160:148,4,105
344,132,43625,1,0,0:0:0:0:
164,264,44375,1,0,0:0:0:0:
252,268,45000,1,0,0:0:0:0:
172,128,45750,1,0,0:0:0:0:
280,144,46750,1,0,0:0:0:0:
92,108,58750,5,0,0:0:0:0:
96,268,61250,1,0,0:0:0:0:
224,256,61875,1,0,0:0:0:0:
320,152,62750,1,0,0:0:0:0:
116,56,64625,5,0,0:0:0:0:
128,284,66750,1,0,0:0:0:0:
288,224,67500,1,0,0:0:0:0:
356,92,68250,1,0,0:0:0:0:
44,108,70250,6,0,L|128:108,19,70
328,112,75000,2,0,L|408:112,22,70
256,192,80750,12,0,82375,0:0:0:0:
88,136,82625,6,0,P|120:100|180:152,3,140
140,184,84500,1,0,0:0:0:0:
264,104,85250,1,0,0:0:0:0:
360,160,85875,1,0,0:0:0:0:
136,248,86750,1,0,0:0:0:0:
128,112,87500,1,0,0:0:0:0:
320,108,88000,1,0,0:0:0:0:
388,144,88250,2,0,P|424:108|476:172,3,140
84,132,90000,1,0,0:0:0:0:
272,108,90625,1,0,0:0:0:0:
380,136,91250,1,0,0:0:0:0:
216,236,91625,1,0,0:0:0:0:
176,120,92375,1,0,0:0:0:0:
324,96,93125,1,0,0:0:0:0:
40,104,94125,6,0,L|100:104,20,35
328,100,96875,1,0,0:0:0:0:
116,216,97625,1,0,0:0:0:0:
328,216,98375,1,0,0:0:0:0:
184,92,99000,1,0,0:0:0:0:
104,264,99375,2,0,L|148:264,22,35
108,124,102375,5,0,0:0:0:0:
364,92,103250,1,0,0:0:0:0:
376,292,104000,1,0,0:0:0:0:
108,288,104750,1,0,0:0:0:0:
256,192,105250,12,0,107750,0:0:0:0:
128,124,118000,5,4,0:0:0:0:
324,124,118750,1,4,0:0:0:0:
164,232,120375,1,4,0:0:0:0:
308,228,121375,1,4,0:0:0:0:
328,136,122375,1,4,0:0:0:0:
176,128,123375,1,4,0:0:0:0:
256,64,124500,1,4,0:0:0:0:
360,88,125750,1,4,0:0:0:0:
128,128,126875,5,4,0:0:0:0:
300,128,127625,1,4,0:0:0:0:
208,232,128250,1,4,0:0:0:0:
64,128,129500,6,0,P|92:104|140:148,3,105
336,152,131125,1,0,0:0:0:0:
160,236,132000,1,0,0:0:0:0:
244,268,132625,1,0,0:0:0:0:
356,240,133375,1,0,0:0:0:0:
348,160,134125,1,0,0:0:0:0:
48,148,134375,6,0,P|68:120|120:184,4,140
364,132,136375,1,0,0:0:0:0:
156,272,136625,1,0,0:0:0:0:
284,280,137375,1,0,0:0:0:0:
348,232,138125,1,0,0:0:0:0:
296,160,139000,1,0,0:0:0:0:
152,168,139875,1,0,0:0:0:0:
256,192,151875,12,0,160500,0:0:0:0:
