osu file format v12

[General]
AudioFilename: toromi hearts 2.mp3
AudioLeadIn: 1500
PreviewTime: 43877
Countdown: 0
SampleSet: Normal
StackLeniency: 0.7
Mode: 0
LetterboxInBreaks: 1
WidescreenStoryboard: 0

[Editor]
Bookmarks: 8877,17644,26411,35178,39562,43945,61479,79014,96548,114082,131616,148055,157918,175452,192986
DistanceSpacing: 1.2
BeatDivisor: 8
GridSize: 4

[Metadata]
Title:toromi hearts 2
TitleUnicode:toromi hearts 2
Artist:goreshit
ArtistUnicode:goreshit
Creator:kiri09
Version:09+2
Source:
Tags:death stream
BeatmapID:297115
BeatmapSetID:114849

[Difficulty]
HPDrainRate:4
CircleSize:4
OverallDifficulty:8
ApproachRate:9
SliderMultiplier:2.1
SliderTickRate:1

[Events]
//Background and Video events
0,0,"bg.jpg",0,0
//Break Periods
//Storyboard Layer 0 (Background)
//Storyboard Layer 1 (Fail)
//Storyboard Layer 2 (Pass)
//Storyboard Layer 3 (Foreground)
//Storyboard Sound Samples
//Background Colour Transformations
3,100,163,162,255

[TimingPoints]
110,273.972602739726,4,1,0,60,1,0
26411,-100,4,1,0,70,0,0
43945,-100,4,1,0,70,0,1
79014,-100,4,1,0,50,0,0
96548,-100,4,1,0,70,0,1
131616,-100,4,1,0,50,0,0
148055,-100,4,1,0,70,0,0
149151,-100,4,1,0,60,0,0
173260,-100,4,1,0,70,0,0
175452,-100,4,1,0,70,0,1
192986,-100,4,1,0,60,0,0

[Colours]
Combo1 : 75,152,152
Combo2 : 81,81,255
Combo3 : 0,227,227
Combo4 : 0,0,232

[HitObjects]
100,112,110,1,0,0:0:0:0:
100,112,246,1,0,0:0:0:0:
100,112,383,1,0,0:0:0:0:
100,112,520,1,0,0:0:0:0:
188,56,657,2,0,L|232:52,4,26.25
280,128,931,2,0,L|324:124,4,26.25
432,120,1205,5,0,0:0:0:0:
432,120,1342,1,0,0:0:0:0:
432,120,1479,1,0,0:0:0:0:
432,120,1616,1,0,0:0:0:0:
472,216,1753,2,0,L|468:264,4,26.25
376,280,2027,2,0,L|372:328,4,26.25
236,344,2301,5,0,0:0:0:0:
236,344,2438,1,0,0:0:0:0:
236,344,2575,1,0,0:0:0:0:
236,344,2712,1,0,0:0:0:0:
140,304,2849,2,0,L|96:300,4,26.25
88,200,3123,2,0,L|44:196,4,26.25
220,160,3397,5,0,0:0:0:0:
220,160,3534,1,0,0:0:0:0:
220,160,3671,1,0,0:0:0:0:
220,160,3808,1,0,0:0:0:0:
304,224,3945,2,0,L|312:272,4,26.25
416,256,4219,2,0,L|424:304,4,26.25
456,128,4493,5,0,0:0:0:0:
456,128,4630,1,0,0:0:0:0:
456,128,4767,1,0,0:0:0:0:
456,128,4904,1,0,0:0:0:0:
388,48,5041,2,0,L|340:56,4,26.25
304,128,5315,2,0,L|256:136,4,26.25
196,48,5589,5,0,0:0:0:0:
196,48,5726,1,0,0:0:0:0:
196,48,5863,1,0,0:0:0:0:
196,48,6000,1,0,0:0:0:0:
112,112,6137,2,0,L|104:156,4,26.25
20,180,6411,2,0,L|12:224,4,26.25
144,276,6685,5,0,0:0:0:0:
144,276,6821,1,0,0:0:0:0:
144,276,6958,1,0,0:0:0:0:
144,276,7095,1,0,0:0:0:0:
232,332,7232,2,0,L|276:340,4,26.25
336,280,7507,2,0,L|380:288,4,26.25
440,168,7781,5,0,0:0:0:0:
440,168,7918,1,0,0:0:0:0:
440,168,8055,1,0,0:0:0:0:
440,168,8192,1,0,0:0:0:0:
344,104,8329,2,0,L|296:96,4,26.25
268,192,8603,2,0,L|220:184,4,26.25
152,272,8877,5,4,0:0:0:0:
152,272,9151,2,0,L|108:244,3,52.5
152,272,9425,2,0,L|128:164,1,105
360,112,9699,2,0,L|384:220,1,105
304,296,9973,5,0,0:0:0:0:
304,296,10246,2,0,L|248:308,3,52.5
304,296,10520,2,0,L|200:244,1,105
208,88,10794,2,0,L|312:140,1,105
360,240,11068,5,0,0:0:0:0:
360,240,11342,2,0,L|396:292,3,52.5
360,240,11616,2,0,L|336:348,1,105
152,144,11890,2,0,L|176:36,1,105
288,32,12164,5,0,0:0:0:0:
288,32,12438,2,0,L|344:28,3,52.5
288,32,12712,2,0,L|400:84,1,105
224,352,12986,2,0,L|112:300,1,105
76,244,13260,5,4,0:0:0:0:
56,164,13397,1,0,0:0:0:0:
76,84,13534,1,0,0:0:0:0:
144,32,13671,1,0,0:0:0:0:
228,40,13808,2,0,L|268:44,4,26.25
268,124,14082,2,0,L|308:128,4,26.25
360,84,14356,5,0,0:0:0:0:
416,148,14493,1,0,0:0:0:0:
420,232,14630,1,0,0:0:0:0:
364,292,14767,1,0,0:0:0:0:
280,300,14904,2,0,L|236:296,4,26.25
192,352,15178,2,0,L|148:348,4,26.25
80,324,15452,5,0,0:0:0:0:
136,264,15589,1,0,0:0:0:0:
216,244,15726,1,0,0:0:0:0:
296,272,15863,1,0,0:0:0:0:
372,312,16000,2,0,L|416:324,4,26.25
432,252,16274,2,0,L|476:264,4,26.25
468,156,16548,5,0,0:0:0:0:
404,104,16685,1,0,0:0:0:0:
320,96,16822,1,0,0:0:0:0:
240,116,16959,1,0,0:0:0:0:
176,172,17096,2,0,L|168:204,4,26.25
124,104,17370,2,0,L|116:136,4,26.25
248,52,17644,6,0,P|356:84|412:164,2,210,4|0|0,0:0|0:0|0:0,0:0:0:0:
232,164,18329,2,0,P|176:144|144:96,1,105
72,192,18603,5,0,0:0:0:0:
72,192,18671,1,0,0:0:0:0:
72,192,18740,1,0,0:0:0:0:
208,208,18877,1,0,0:0:0:0:
208,208,18945,1,0,0:0:0:0:
208,208,19014,1,0,0:0:0:0:
160,336,19151,1,0,0:0:0:0:
160,336,19219,1,0,0:0:0:0:
160,336,19288,1,0,0:0:0:0:
296,312,19425,1,0,0:0:0:0:
296,312,19493,1,0,0:0:0:0:
296,312,19562,2,0,L|404:312,1,105
452,224,19836,6,0,L|424:224,2,26.25,4|0|0,0:0|0:0|0:0,0:0:0:0:
396,44,20110,2,0,L|368:44,2,26.25
228,132,20383,2,0,L|200:132,2,26.25
204,192,20520,2,0,L|176:192,2,26.25
68,60,20794,2,0,L|40:60,2,26.25
128,240,21068,2,0,L|100:240,2,26.25
156,296,21205,2,0,L|128:296,2,26.25
340,336,21479,2,0,L|312:336,2,26.25
464,192,21753,2,0,L|436:192,2,26.25
304,108,22027,6,0,P|364:136|388:188,1,105,4|0,0:0|0:0,0:0:0:0:
208,276,22301,2,0,P|148:248|124:196,1,105,4|0,0:0|0:0,0:0:0:0:
316,228,22575,2,0,L|328:256,4,26.25
196,156,22849,2,0,L|184:128,4,26.25
300,56,23123,5,0,0:0:0:0:
300,56,23192,1,0,0:0:0:0:
300,56,23260,1,0,0:0:0:0:
212,328,23397,1,0,0:0:0:0:
212,328,23466,1,0,0:0:0:0:
212,328,23534,1,0,0:0:0:0:
424,204,23671,1,0,0:0:0:0:
424,204,23740,1,0,0:0:0:0:
424,204,23808,1,0,0:0:0:0:
88,180,23945,1,0,0:0:0:0:
88,180,24014,1,0,0:0:0:0:
88,180,24082,1,0,0:0:0:0:
422,204,24219,6,0,L|320:228,1,105,0|0,0:0|0:0,0:0:0:0:
89,179,24493,2,0,L|192:156,1,105
300,144,24767,2,0,L|344:40,1,105
212,240,25041,2,0,L|168:344,1,105
464,204,25315,6,0,L|392:184,2,52.5
48,180,25589,2,0,L|120:200,2,52.5
384,360,25863,2,0,L|368:292,2,52.5
128,24,26137,2,0,L|144:92,2,52.5
256,192,26411,5,4,0:0:0:0:
256,192,26685,6,0,P|168:220|48:204,1,210
4,112,27096,1,0,0:0:0:0:
48,292,27233,1,0,0:0:0:0:
144,136,27370,1,0,0:0:0:0:
196,312,27507,2,0,P|256:288|296:256,1,105
287,263,27712,1,0,0:0:0:0:
287,263,27781,1,0,0:0:0:0:
444,348,27918,5,0,0:0:0:0:
504,180,28055,1,0,0:0:0:0:
504,180,28123,1,0,0:0:0:0:
504,180,28192,1,0,0:0:0:0:
396,40,28329,1,0,0:0:0:0:
344,212,28466,1,0,0:0:0:0:
216,88,28603,6,0,P|164:112|116:160,1,105
296,296,28877,2,0,P|348:272|396:224,1,105
372,88,29151,2,0,P|424:112|472:160,1,105
140,296,29425,2,0,P|88:272|40:224,1,105
16,128,29699,1,0,0:0:0:0:
88,36,29836,1,0,0:0:0:0:
200,60,29973,2,0,L|240:60,4,26.25
360,124,30246,5,0,0:0:0:0:
152,160,30383,1,0,0:0:0:0:
360,196,30520,1,0,0:0:0:0:
152,232,30657,1,0,0:0:0:0:
284,328,30794,6,0,P|396:312|476:260,1,210,4|0,0:0|0:0,0:0:0:0:
508,84,31205,1,0,0:0:0:0:
372,200,31342,2,0,P|296:104|208:60,1,210
40,48,31753,5,0,0:0:0:0:
4,224,31890,1,0,0:0:0:0:
4,224,31959,1,0,0:0:0:0:
4,224,32027,1,0,0:0:0:0:
108,80,32164,1,0,0:0:0:0:
104,260,32301,1,0,0:0:0:0:
104,260,32370,1,0,0:0:0:0:
104,260,32438,1,0,0:0:0:0:
180,112,32575,1,0,0:0:0:0:
208,288,32712,2,0,P|268:244|296:204,1,105
204,112,32986,6,0,P|168:160|156:224,1,105
308,272,33260,2,0,P|344:224|356:160,1,105
304,84,33534,2,0,P|356:56|420:48,1,105
208,300,33808,2,0,P|156:328|92:336,1,105
140,144,34082,5,0,0:0:0:0:
176,120,34151,1,0,0:0:0:0:
216,116,34219,1,0,0:0:0:0:
256,124,34288,1,0,0:0:0:0:
292,144,34356,1,0,0:0:0:0:
316,176,34425,1,0,0:0:0:0:
340,208,34493,1,0,0:0:0:0:
380,216,34562,1,0,0:0:0:0:
420,216,34630,1,0,0:0:0:0:
460,200,34699,1,0,0:0:0:0:
484,164,34767,1,0,0:0:0:0:
488,120,34836,1,0,0:0:0:0:
472,80,34904,1,0,0:0:0:0:
440,52,34973,1,0,0:0:0:0:
400,40,35041,1,0,0:0:0:0:
360,48,35110,1,0,0:0:0:0:
328,76,35178,6,0,L|216:76,1,105,4|0,0:0|0:0,0:0:0:0:
140,76,35452,1,0,0:0:0:0:
56,76,35589,1,0,0:0:0:0:
56,76,35863,1,0,0:0:0:0:
24,272,36000,6,0,L|136:272,1,105
212,272,36274,1,0,0:0:0:0:
212,272,36548,1,0,0:0:0:0:
488,200,36685,6,0,L|376:200,1,105
300,200,36959,1,0,0:0:0:0:
300,200,37233,2,0,L|360:200,2,52.5
352,56,37507,6,0,L|247:56,1,105
164,56,37781,1,0,0:0:0:0:
164,56,38055,1,0,0:0:0:0:
88,88,38192,1,0,0:0:0:0:
44,160,38329,1,0,0:0:0:0:
48,244,38466,1,0,0:0:0:0:
104,308,38603,6,0,P|160:296|208:264,1,105
408,308,38877,2,0,P|352:296|304:264,1,105
256,52,39151,1,0,0:0:0:0:
256,224,39288,6,0,L|256:197,8,26.25
256,52,39836,5,0,0:0:0:0:
256,52,40246,2,0,L|256:172,2,105
256,52,40657,5,0,0:0:0:0:
256,52,40931,1,0,0:0:0:0:
256,52,41205,1,0,0:0:0:0:
256,52,41342,2,0,L|256:172,2,105
108,84,41753,6,0,L|140:192,1,105
404,84,42027,2,0,L|372:192,1,105
256,52,42301,5,0,0:0:0:0:
256,108,42438,1,0,0:0:0:0:
256,164,42575,1,0,0:0:0:0:
256,220,42712,1,0,0:0:0:0:
332,104,43945,5,0,0:0:0:0:
300,80,44014,1,0,0:0:0:0:
260,76,44082,1,0,0:0:0:0:
220,88,44151,1,0,0:0:0:0:
196,120,44219,1,0,0:0:0:0:
172,156,44288,1,0,0:0:0:0:
140,184,44356,1,0,0:0:0:0:
100,196,44425,1,0,0:0:0:0:
60,192,44493,1,0,0:0:0:0:
24,168,44562,1,0,0:0:0:0:
8,128,44630,1,0,0:0:0:0:
8,84,44699,1,0,0:0:0:0:
32,52,44767,2,0,P|88:52|144:76,1,105
264,160,45041,5,0,0:0:0:0:
292,192,45110,1,0,0:0:0:0:
296,232,45178,1,0,0:0:0:0:
284,272,45246,1,0,0:0:0:0:
256,304,45315,1,0,0:0:0:0:
216,320,45383,1,0,0:0:0:0:
176,304,45452,1,0,0:0:0:0:
152,272,45520,1,0,0:0:0:0:
112,252,45589,1,0,0:0:0:0:
72,248,45657,1,0,0:0:0:0:
32,256,45726,1,0,0:0:0:0:
4,280,45794,1,0,0:0:0:0:
0,324,45863,2,0,P|52:352|112:352,1,105
220,216,46137,5,0,0:0:0:0:
260,216,46205,1,0,0:0:0:0:
296,236,46274,1,0,0:0:0:0:
320,268,46342,1,0,0:0:0:0:
328,308,46411,1,0,0:0:0:0:
352,340,46479,1,0,0:0:0:0:
392,356,46548,1,0,0:0:0:0:
432,360,46616,1,0,0:0:0:0:
472,348,46685,1,0,0:0:0:0:
500,316,46753,1,0,0:0:0:0:
508,276,46822,1,0,0:0:0:0:
492,236,46890,1,0,0:0:0:0:
456,216,46959,2,0,P|448:160|472:104,1,105
376,36,47233,5,0,0:0:0:0:
376,80,47301,1,0,0:0:0:0:
348,112,47370,1,0,0:0:0:0:
308,136,47438,1,0,0:0:0:0:
268,144,47507,1,0,0:0:0:0:
228,144,47575,1,0,0:0:0:0:
188,136,47644,1,0,0:0:0:0:
148,140,47712,1,0,0:0:0:0:
108,152,47781,1,0,0:0:0:0:
76,176,47849,1,0,0:0:0:0:
56,212,47918,1,0,0:0:0:0:
52,252,47986,1,0,0:0:0:0:
60,292,48055,1,0,0:0:0:0:
80,328,48123,1,0,0:0:0:0:
116,348,48192,1,0,0:0:0:0:
156,348,48260,1,0,0:0:0:0:
196,332,48329,5,0,0:0:0:0:
208,292,48397,1,0,0:0:0:0:
236,264,48466,1,0,0:0:0:0:
276,256,48534,1,0,0:0:0:0:
320,260,48603,1,0,0:0:0:0:
356,284,48671,1,0,0:0:0:0:
396,300,48740,1,0,0:0:0:0:
436,296,48808,1,0,0:0:0:0:
472,276,48877,1,0,0:0:0:0:
496,240,48945,1,0,0:0:0:0:
500,200,49014,1,0,0:0:0:0:
492,160,49082,1,0,0:0:0:0:
456,136,49151,2,0,P|404:140|360:176,1,105
272,324,49425,5,0,0:0:0:0:
232,324,49493,1,0,0:0:0:0:
196,304,49562,1,0,0:0:0:0:
176,268,49630,1,0,0:0:0:0:
180,228,49699,1,0,0:0:0:0:
208,196,49767,1,0,0:0:0:0:
236,164,49836,1,0,0:0:0:0:
248,124,49904,1,0,0:0:0:0:
244,80,49973,1,0,0:0:0:0:
220,48,50041,1,0,0:0:0:0:
180,28,50110,1,0,0:0:0:0:
140,24,50178,1,0,0:0:0:0:
100,36,50246,2,0,P|84:88|92:144,1,105
220,248,50520,5,0,0:0:0:0:
260,260,50589,1,0,0:0:0:0:
300,256,50657,1,0,0:0:0:0:
340,240,50726,1,0,0:0:0:0:
368,208,50794,1,0,0:0:0:0:
372,164,50863,1,0,0:0:0:0:
360,124,50931,1,0,0:0:0:0:
360,80,51000,1,0,0:0:0:0:
380,44,51068,1,0,0:0:0:0:
420,28,51137,1,0,0:0:0:0:
460,28,51205,1,0,0:0:0:0:
496,48,51274,1,0,0:0:0:0:
512,88,51342,2,0,P|472:128|424:148,1,105
432,312,51616,5,0,0:0:0:0:
408,276,51685,1,0,0:0:0:0:
372,256,51753,1,0,0:0:0:0:
332,248,51822,1,0,0:0:0:0:
292,252,51890,1,0,0:0:0:0:
252,268,51959,1,0,0:0:0:0:
224,300,52027,1,0,0:0:0:0:
212,340,52096,1,0,0:0:0:0:
184,372,52164,1,0,0:0:0:0:
144,380,52233,1,0,0:0:0:0:
104,380,52301,1,0,0:0:0:0:
64,372,52370,1,0,0:0:0:0:
32,344,52438,1,0,0:0:0:0:
20,304,52507,1,0,0:0:0:0:
20,264,52575,1,0,0:0:0:0:
36,224,52644,1,0,0:0:0:0:
72,204,52712,5,0,0:0:0:0:
112,220,52780,1,0,0:0:0:0:
152,212,52849,1,0,0:0:0:0:
188,192,52917,1,0,0:0:0:0:
212,156,52986,1,0,0:0:0:0:
212,116,53054,1,0,0:0:0:0:
224,76,53123,1,0,0:0:0:0:
252,44,53191,1,0,0:0:0:0:
292,28,53260,1,0,0:0:0:0:
332,28,53328,1,0,0:0:0:0:
372,40,53397,1,0,0:0:0:0:
404,64,53465,1,0,0:0:0:0:
420,104,53534,2,0,P|412:160|384:204,1,105
216,268,53808,5,0,0:0:0:0:
256,280,53877,1,0,0:0:0:0:
296,276,53945,1,0,0:0:0:0:
332,252,54014,1,0,0:0:0:0:
352,216,54082,1,0,0:0:0:0:
352,172,54151,1,0,0:0:0:0:
332,136,54219,1,0,0:0:0:0:
296,116,54288,1,0,0:0:0:0:
256,116,54356,1,0,0:0:0:0:
220,140,54425,1,0,0:0:0:0:
180,152,54493,1,0,0:0:0:0:
136,148,54562,1,0,0:0:0:0:
100,128,54630,2,0,P|56:84|36:40,1,105
20,208,54904,5,0,0:0:0:0:
56,232,54973,1,0,0:0:0:0:
96,232,55041,1,0,0:0:0:0:
136,220,55110,1,0,0:0:0:0:
164,188,55178,1,0,0:0:0:0:
172,148,55246,1,0,0:0:0:0:
172,104,55315,1,0,0:0:0:0:
192,68,55383,1,0,0:0:0:0:
228,44,55452,1,0,0:0:0:0:
268,36,55520,1,0,0:0:0:0:
308,44,55589,1,0,0:0:0:0:
344,64,55657,1,0,0:0:0:0:
372,92,55726,2,0,P|424:112|476:100,1,105
288,140,56000,5,0,0:0:0:0:
280,180,56068,1,0,0:0:0:0:
288,220,56137,1,0,0:0:0:0:
320,244,56205,1,0,0:0:0:0:
364,248,56274,1,0,0:0:0:0:
404,236,56342,1,0,0:0:0:0:
448,240,56411,1,0,0:0:0:0:
484,264,56479,1,0,0:0:0:0:
500,304,56548,1,0,0:0:0:0:
496,344,56616,1,0,0:0:0:0:
468,372,56685,1,0,0:0:0:0:
428,380,56753,1,0,0:0:0:0:
384,376,56822,1,0,0:0:0:0:
348,352,56890,1,0,0:0:0:0:
344,312,56959,1,0,0:0:0:0:
324,276,57027,1,0,0:0:0:0:
296,244,57096,5,0,0:0:0:0:
256,244,57164,1,0,0:0:0:0:
216,256,57233,1,0,0:0:0:0:
188,284,57301,1,0,0:0:0:0:
172,324,57370,1,0,0:0:0:0:
144,356,57438,1,0,0:0:0:0:
104,368,57507,1,0,0:0:0:0:
64,364,57575,1,0,0:0:0:0:
28,340,57644,1,0,0:0:0:0:
12,300,57712,1,0,0:0:0:0:
20,260,57781,1,0,0:0:0:0:
52,232,57849,1,0,0:0:0:0:
96,228,57918,2,0,P|148:200|172:156,1,105
352,204,58192,5,0,0:0:0:0:
392,192,58260,1,0,0:0:0:0:
420,160,58329,1,0,0:0:0:0:
432,120,58397,1,0,0:0:0:0:
428,76,58466,1,0,0:0:0:0:
404,40,58534,1,0,0:0:0:0:
368,20,58603,1,0,0:0:0:0:
328,20,58671,1,0,0:0:0:0:
288,28,58740,1,0,0:0:0:0:
256,56,58808,1,0,0:0:0:0:
232,92,58877,1,0,0:0:0:0:
196,112,58945,1,0,0:0:0:0:
152,116,59014,2,0,P|116:72|100:24,1,105
40,152,59288,5,0,0:0:0:0:
16,188,59356,1,0,0:0:0:0:
8,228,59425,1,0,0:0:0:0:
12,268,59493,1,0,0:0:0:0:
28,308,59562,1,0,0:0:0:0:
56,340,59630,1,0,0:0:0:0:
96,352,59699,1,0,0:0:0:0:
136,356,59767,1,0,0:0:0:0:
176,352,59836,1,0,0:0:0:0:
212,336,59904,1,0,0:0:0:0:
240,304,59973,1,0,0:0:0:0:
276,280,60041,1,0,0:0:0:0:
320,276,60110,2,0,P|364:320|372:372,1,105
504,240,60383,5,0,0:0:0:0:
464,256,60452,1,0,0:0:0:0:
424,256,60520,1,0,0:0:0:0:
384,240,60589,1,0,0:0:0:0:
360,208,60657,1,0,0:0:0:0:
352,168,60726,1,0,0:0:0:0:
352,128,60794,1,0,0:0:0:0:
332,92,60863,1,0,0:0:0:0:
296,68,60931,1,0,0:0:0:0:
256,60,61000,1,0,0:0:0:0:
216,68,61068,1,0,0:0:0:0:
188,100,61137,1,0,0:0:0:0:
180,140,61205,1,0,0:0:0:0:
164,180,61274,1,0,0:0:0:0:
128,204,61342,1,0,0:0:0:0:
88,212,61411,1,0,0:0:0:0:
48,204,61479,5,0,0:0:0:0:
20,172,61548,1,0,0:0:0:0:
4,132,61616,1,0,0:0:0:0:
8,88,61685,1,0,0:0:0:0:
32,52,61753,1,0,0:0:0:0:
72,40,61822,1,0,0:0:0:0:
112,40,61890,1,0,0:0:0:0:
152,56,61959,1,0,0:0:0:0:
176,92,62027,1,0,0:0:0:0:
200,124,62096,1,0,0:0:0:0:
236,144,62164,1,0,0:0:0:0:
276,156,62233,1,0,0:0:0:0:
316,156,62301,2,0,P|368:120|392:72,1,105
488,176,62575,5,0,0:0:0:0:
500,216,62644,1,0,0:0:0:0:
496,256,62712,1,0,0:0:0:0:
484,296,62781,1,0,0:0:0:0:
464,332,62849,1,0,0:0:0:0:
428,356,62918,1,0,0:0:0:0:
392,332,62986,1,0,0:0:0:0:
352,316,63055,1,0,0:0:0:0:
312,312,63123,1,0,0:0:0:0:
268,312,63192,1,0,0:0:0:0:
228,324,63260,1,0,0:0:0:0:
192,348,63329,1,0,0:0:0:0:
164,380,63397,2,0,P|116:356|76:288,1,105
236,240,63671,5,0,0:0:0:0:
276,252,63740,1,0,0:0:0:0:
316,244,63808,1,0,0:0:0:0:
352,224,63877,1,0,0:0:0:0:
372,188,63945,1,0,0:0:0:0:
380,148,64014,1,0,0:0:0:0:
372,108,64082,1,0,0:0:0:0:
348,72,64151,1,0,0:0:0:0:
312,52,64219,1,0,0:0:0:0:
272,40,64288,1,0,0:0:0:0:
232,44,64356,1,0,0:0:0:0:
192,60,64425,1,0,0:0:0:0:
160,88,64493,2,0,P|76:92|48:80,1,105
80,228,64767,5,0,0:0:0:0:
120,236,64836,1,0,0:0:0:0:
160,228,64904,1,0,0:0:0:0:
196,204,64973,1,0,0:0:0:0:
220,168,65041,1,0,0:0:0:0:
232,128,65110,1,0,0:0:0:0:
248,88,65178,1,0,0:0:0:0:
280,60,65246,1,0,0:0:0:0:
320,52,65315,1,0,0:0:0:0:
360,52,65383,1,0,0:0:0:0:
400,64,65452,1,0,0:0:0:0:
436,88,65520,1,0,0:0:0:0:
460,124,65589,1,0,0:0:0:0:
464,164,65657,1,0,0:0:0:0:
464,208,65726,1,0,0:0:0:0:
452,248,65794,1,0,0:0:0:0:
424,280,65863,5,0,0:0:0:0:
384,296,65931,1,0,0:0:0:0:
340,296,66000,1,0,0:0:0:0:
300,280,66068,1,0,0:0:0:0:
268,252,66137,1,0,0:0:0:0:
240,220,66205,1,0,0:0:0:0:
204,200,66274,1,0,0:0:0:0:
164,192,66342,1,0,0:0:0:0:
120,192,66411,1,0,0:0:0:0:
80,204,66479,1,0,0:0:0:0:
44,228,66548,1,0,0:0:0:0:
24,264,66616,1,0,0:0:0:0:
12,304,66685,2,0,P|56:348|128:356,1,105
264,332,66959,5,0,0:0:0:0:
224,328,67027,1,0,0:0:0:0:
184,312,67096,1,0,0:0:0:0:
156,284,67164,1,0,0:0:0:0:
144,244,67233,1,0,0:0:0:0:
140,204,67301,1,0,0:0:0:0:
152,164,67370,1,0,0:0:0:0:
184,136,67438,1,0,0:0:0:0:
224,128,67507,1,0,0:0:0:0:
264,132,67575,1,0,0:0:0:0:
308,128,67644,1,0,0:0:0:0:
344,112,67712,1,0,0:0:0:0:
368,80,67781,2,0,P|304:28|252:24,1,105
164,60,68055,5,0,0:0:0:0:
124,72,68123,1,0,0:0:0:0:
80,76,68192,1,0,0:0:0:0:
40,92,68260,1,0,0:0:0:0:
12,124,68329,1,0,0:0:0:0:
4,164,68397,1,0,0:0:0:0:
8,208,68466,1,0,0:0:0:0:
28,244,68534,1,0,0:0:0:0:
64,268,68603,1,0,0:0:0:0:
104,272,68671,1,0,0:0:0:0:
144,260,68740,1,0,0:0:0:0:
176,232,68808,1,0,0:0:0:0:
216,216,68877,2,0,P|264:240|288:288,1,105
440,348,69151,5,0,0:0:0:0:
468,320,69219,1,0,0:0:0:0:
484,280,69288,1,0,0:0:0:0:
492,240,69356,1,0,0:0:0:0:
492,196,69425,1,0,0:0:0:0:
480,156,69493,1,0,0:0:0:0:
456,120,69562,1,0,0:0:0:0:
420,96,69630,1,0,0:0:0:0:
380,84,69699,1,0,0:0:0:0:
340,84,69767,1,0,0:0:0:0:
300,100,69836,1,0,0:0:0:0:
268,128,69904,1,0,0:0:0:0:
252,168,69973,1,0,0:0:0:0:
256,208,70041,1,0,0:0:0:0:
276,244,70110,1,0,0:0:0:0:
308,268,70178,1,0,0:0:0:0:
348,276,70246,5,0,0:0:0:0:
388,268,70315,1,0,0:0:0:0:
424,244,70383,1,0,0:0:0:0:
444,204,70452,1,0,0:0:0:0:
440,164,70520,1,0,0:0:0:0:
428,124,70589,1,0,0:0:0:0:
396,100,70657,1,0,0:0:0:0:
352,100,70726,1,0,0:0:0:0:
312,112,70794,1,0,0:0:0:0:
268,112,70863,1,0,0:0:0:0:
228,100,70931,1,0,0:0:0:0:
200,68,71000,1,0,0:0:0:0:
176,32,71068,2,0,P|124:68|84:120,1,105
212,180,71342,5,0,0:0:0:0:
180,152,71411,1,0,0:0:0:0:
140,136,71479,1,0,0:0:0:0:
96,136,71548,1,0,0:0:0:0:
56,144,71616,1,0,0:0:0:0:
20,168,71685,1,0,0:0:0:0:
4,208,71753,1,0,0:0:0:0:
0,252,71822,1,0,0:0:0:0:
12,292,71890,1,0,0:0:0:0:
44,320,71959,1,0,0:0:0:0:
84,324,72027,1,0,0:0:0:0:
124,316,72096,1,0,0:0:0:0:
156,292,72164,2,0,P|200:336|220:384,1,105
284,208,72438,5,0,0:0:0:0:
252,180,72507,1,0,0:0:0:0:
240,140,72575,1,0,0:0:0:0:
244,96,72644,1,0,0:0:0:0:
264,60,72712,1,0,0:0:0:0:
300,40,72781,1,0,0:0:0:0:
340,36,72849,1,0,0:0:0:0:
380,48,72918,1,0,0:0:0:0:
408,80,72986,1,0,0:0:0:0:
424,120,73055,1,0,0:0:0:0:
440,156,73123,1,0,0:0:0:0:
468,188,73192,1,0,0:0:0:0:
508,204,73260,2,0,P|476:260|420:288,1,105
352,148,73534,5,0,0:0:0:0:
356,192,73603,1,0,0:0:0:0:
348,232,73671,1,0,0:0:0:0:
324,264,73740,1,0,0:0:0:0:
288,288,73808,1,0,0:0:0:0:
244,292,73877,1,0,0:0:0:0:
208,276,73945,1,0,0:0:0:0:
184,244,74014,1,0,0:0:0:0:
172,204,74082,1,0,0:0:0:0:
160,164,74151,1,0,0:0:0:0:
132,132,74219,1,0,0:0:0:0:
92,120,74288,1,0,0:0:0:0:
52,124,74356,1,0,0:0:0:0:
16,148,74425,1,0,0:0:0:0:
4,188,74493,1,0,0:0:0:0:
4,232,74562,1,0,0:0:0:0:
24,268,74630,5,0,0:0:0:0:
48,232,74699,1,0,0:0:0:0:
76,200,74767,1,0,0:0:0:0:
116,184,74836,1,0,0:0:0:0:
156,184,74904,1,0,0:0:0:0:
196,196,74973,1,0,0:0:0:0:
232,220,75041,1,0,0:0:0:0:
260,252,75110,1,0,0:0:0:0:
268,292,75178,1,0,0:0:0:0:
284,328,75246,1,0,0:0:0:0:
312,360,75315,1,0,0:0:0:0:
352,372,75383,1,0,0:0:0:0:
396,368,75452,2,0,P|440:332|492:320,1,105
512,160,75726,5,0,0:0:0:0:
480,188,75794,1,0,0:0:0:0:
440,200,75863,1,0,0:0:0:0:
400,200,75931,1,0,0:0:0:0:
364,180,76000,1,0,0:0:0:0:
336,152,76068,1,0,0:0:0:0:
312,120,76137,1,0,0:0:0:0:
280,92,76205,1,0,0:0:0:0:
240,76,76274,1,0,0:0:0:0:
200,80,76342,1,0,0:0:0:0:
160,92,76411,1,0,0:0:0:0:
124,116,76479,1,0,0:0:0:0:
108,156,76548,2,0,P|148:212|196:240,1,105
48,232,76822,5,0,0:0:0:0:
24,200,76890,1,0,0:0:0:0:
12,160,76959,1,0,0:0:0:0:
16,120,77027,1,0,0:0:0:0:
28,80,77096,1,0,0:0:0:0:
60,52,77164,1,0,0:0:0:0:
100,44,77233,1,0,0:0:0:0:
140,48,77301,1,0,0:0:0:0:
176,68,77370,1,0,0:0:0:0:
200,100,77438,1,0,0:0:0:0:
232,128,77507,1,0,0:0:0:0:
272,140,77575,1,0,0:0:0:0:
312,128,77644,2,0,P|352:76|360:28,1,105
496,120,77918,5,0,0:0:0:0:
488,160,77986,1,0,0:0:0:0:
468,196,78055,1,0,0:0:0:0:
432,220,78123,1,0,0:0:0:0:
392,232,78192,1,0,0:0:0:0:
352,228,78260,1,0,0:0:0:0:
316,204,78329,1,0,0:0:0:0:
288,172,78397,1,0,0:0:0:0:
252,152,78466,1,0,0:0:0:0:
212,148,78534,1,0,0:0:0:0:
168,152,78603,1,0,0:0:0:0:
128,168,78671,1,0,0:0:0:0:
100,200,78740,1,0,0:0:0:0:
88,240,78808,1,0,0:0:0:0:
96,280,78877,1,0,0:0:0:0:
124,308,78945,1,0,0:0:0:0:
164,316,79014,6,0,L|280:288,1,105
348,68,79288,2,0,L|232:96,1,105
108,128,79562,2,0,L|196:220,1,105
404,256,79836,2,0,L|316:164,1,105
176,84,80110,6,0,L|60:68,1,105
336,300,80383,2,0,L|452:316,1,105
396,104,80657,2,0,L|276:128,1,105
116,280,80931,2,0,L|236:256,1,105
296,48,81205,6,0,L|332:148,1,105
216,336,81479,2,0,L|180:236,1,105
168,64,81753,2,0,L|144:168,1,105
344,320,82027,2,0,L|368:216,1,105
400,52,82301,6,0,L|312:124,1,105
112,332,82575,2,0,L|200:260,1,105
168,88,82849,2,0,L|68:128,1,105
344,296,83123,2,0,L|412:272,2,52.5
388,176,83397,6,0,L|348:80,1,105
124,208,83671,2,0,L|164:304,1,105
312,256,83945,2,0,L|444:272,1,105
200,128,84219,2,0,L|68:112,1,105
184,244,84493,6,0,L|120:336,1,105
328,140,84767,2,0,L|392:48,1,105
156,48,85041,2,0,L|248:112,1,105
356,336,85315,2,0,L|264:272,1,105
168,144,85589,6,0,L|68:184,1,105
344,240,85863,2,0,L|444:200,1,105
208,332,86137,2,0,L|184:228,1,105
304,52,86411,2,0,L|328:156,1,105
396,304,86685,6,0,L|288:248,1,105
116,80,86959,2,0,L|224:136,1,105
148,220,87233,2,0,L|128:328,1,105
364,164,87507,2,0,L|380:88,2,52.5
428,240,87781,6,0,L|308:256,1,105
84,144,88055,2,0,L|204:128,1,105
316,148,88329,2,0,L|244:36,1,105
196,236,88603,2,0,L|268:348,1,105
388,336,88877,6,0,L|288:276,1,105
124,48,89151,2,0,L|224:108,1,105
164,224,89425,2,0,L|200:328,1,105
348,160,89699,2,0,L|312:56,1,105
176,144,89973,6,0,L|160:264,1,105
336,240,90246,2,0,L|352:120,1,105
144,88,90520,2,0,L|80:180,1,105
368,296,90794,2,0,L|432:204,1,105
312,128,91068,6,0,L|440:96,1,105
200,256,91342,2,0,L|72:288,1,105
328,340,91616,2,0,L|356:232,1,105
184,44,91890,2,0,L|168:112,2,52.5
164,320,92164,6,0,L|124:208,1,105
348,64,92438,2,0,L|388:176,1,105
352,312,92712,2,0,L|244:288,1,105
160,72,92986,2,0,L|268:96,1,105
360,232,93260,6,0,L|376:124,1,105
152,152,93534,2,0,L|136:260,1,105
288,340,93808,2,0,L|396:360,1,105
224,44,94082,2,0,L|116:24,1,105
116,168,94356,6,0,L|84:276,1,105
396,216,94630,2,0,L|428:108,1,105
428,316,94904,2,0,L|328:368,1,105
84,68,95178,2,0,L|184:16,1,105
316,204,95452,5,0,0:0:0:0:
392,116,95589,1,0,0:0:0:0:
392,116,95657,1,0,0:0:0:0:
392,116,95726,2,0,P|360:52|312:36,1,105
216,36,96000,2,0,L|164:68,3,52.5
168,92,96274,2,0,L|116:124,3,52.5
140,160,96548,5,0,0:0:0:0:
172,188,96617,1,0,0:0:0:0:
212,200,96685,1,0,0:0:0:0:
256,196,96754,1,0,0:0:0:0:
292,172,96822,1,0,0:0:0:0:
332,160,96891,1,0,0:0:0:0:
372,168,96959,1,0,0:0:0:0:
404,192,97028,1,0,0:0:0:0:
424,228,97096,1,0,0:0:0:0:
424,272,97165,1,0,0:0:0:0:
412,312,97233,1,0,0:0:0:0:
388,348,97302,1,0,0:0:0:0:
356,376,97370,2,0,P|296:384|240:368,1,105
248,224,97644,5,0,0:0:0:0:
220,192,97713,1,0,0:0:0:0:
216,152,97781,1,0,0:0:0:0:
228,112,97849,1,0,0:0:0:0:
256,80,97918,1,0,0:0:0:0:
296,64,97986,1,0,0:0:0:0:
336,80,98055,1,0,0:0:0:0:
360,112,98123,1,0,0:0:0:0:
400,132,98192,1,0,0:0:0:0:
440,136,98260,1,0,0:0:0:0:
480,128,98329,1,0,0:0:0:0:
508,104,98397,1,0,0:0:0:0:
512,60,98466,2,0,P|460:32|400:32,1,105
288,192,98740,5,0,0:0:0:0:
248,192,98808,1,0,0:0:0:0:
212,172,98877,1,0,0:0:0:0:
188,140,98945,1,0,0:0:0:0:
180,100,99014,1,0,0:0:0:0:
156,68,99082,1,0,0:0:0:0:
116,52,99151,1,0,0:0:0:0:
76,48,99219,1,0,0:0:0:0:
36,60,99288,1,0,0:0:0:0:
8,92,99356,1,0,0:0:0:0:
0,132,99425,1,0,0:0:0:0:
16,172,99493,1,0,0:0:0:0:
52,192,99562,2,0,P|60:248|36:304,1,105
136,348,99836,5,0,0:0:0:0:
136,304,99904,1,0,0:0:0:0:
164,272,99973,1,0,0:0:0:0:
204,248,100041,1,0,0:0:0:0:
244,240,100110,1,0,0:0:0:0:
284,240,100178,1,0,0:0:0:0:
324,248,100247,1,0,0:0:0:0:
364,244,100315,1,0,0:0:0:0:
404,232,100384,1,0,0:0:0:0:
436,208,100452,1,0,0:0:0:0:
456,172,100521,1,0,0:0:0:0:
460,132,100589,1,0,0:0:0:0:
452,92,100658,1,0,0:0:0:0:
432,56,100726,1,0,0:0:0:0:
396,36,100795,1,0,0:0:0:0:
356,36,100863,1,0,0:0:0:0:
316,52,100932,5,0,0:0:0:0:
304,92,101000,1,0,0:0:0:0:
276,120,101069,1,0,0:0:0:0:
236,128,101137,1,0,0:0:0:0:
192,124,101206,1,0,0:0:0:0:
156,100,101274,1,0,0:0:0:0:
116,84,101343,1,0,0:0:0:0:
76,88,101411,1,0,0:0:0:0:
40,108,101480,1,0,0:0:0:0:
16,144,101548,1,0,0:0:0:0:
12,184,101617,1,0,0:0:0:0:
20,224,101685,1,0,0:0:0:0:
56,248,101754,2,0,P|108:244|152:208,1,105
240,60,102028,5,0,0:0:0:0:
280,60,102096,1,0,0:0:0:0:
316,80,102165,1,0,0:0:0:0:
336,116,102233,1,0,0:0:0:0:
332,156,102302,1,0,0:0:0:0:
304,188,102370,1,0,0:0:0:0:
276,220,102439,1,0,0:0:0:0:
264,260,102507,1,0,0:0:0:0:
268,304,102576,1,0,0:0:0:0:
292,336,102644,1,0,0:0:0:0:
332,356,102713,1,0,0:0:0:0:
372,360,102781,1,0,0:0:0:0:
412,348,102849,2,0,P|428:296|420:240,1,105
292,136,103123,5,0,0:0:0:0:
252,124,103192,1,0,0:0:0:0:
212,128,103260,1,0,0:0:0:0:
172,144,103329,1,0,0:0:0:0:
144,176,103397,1,0,0:0:0:0:
140,220,103466,1,0,0:0:0:0:
152,260,103534,1,0,0:0:0:0:
152,304,103603,1,0,0:0:0:0:
132,340,103671,1,0,0:0:0:0:
92,356,103740,1,0,0:0:0:0:
52,356,103808,1,0,0:0:0:0:
16,336,103877,1,0,0:0:0:0:
0,296,103945,2,0,P|40:256|88:236,1,105
100,96,104219,5,0,0:0:0:0:
124,132,104288,1,0,0:0:0:0:
160,152,104356,1,0,0:0:0:0:
200,160,104425,1,0,0:0:0:0:
240,156,104493,1,0,0:0:0:0:
280,140,104562,1,0,0:0:0:0:
308,108,104630,1,0,0:0:0:0:
320,68,104699,1,0,0:0:0:0:
348,36,104767,1,0,0:0:0:0:
388,28,104836,1,0,0:0:0:0:
428,28,104904,1,0,0:0:0:0:
468,36,104973,1,0,0:0:0:0:
500,64,105041,1,0,0:0:0:0:
512,104,105110,1,0,0:0:0:0:
512,144,105178,1,0,0:0:0:0:
496,184,105247,1,0,0:0:0:0:
460,204,105315,5,0,0:0:0:0:
420,188,105383,1,0,0:0:0:0:
380,196,105452,1,0,0:0:0:0:
344,216,105520,1,0,0:0:0:0:
320,252,105589,1,0,0:0:0:0:
320,292,105657,1,0,0:0:0:0:
308,332,105726,1,0,0:0:0:0:
280,364,105794,1,0,0:0:0:0:
240,380,105863,1,0,0:0:0:0:
200,380,105931,1,0,0:0:0:0:
160,368,106000,1,0,0:0:0:0:
128,344,106068,1,0,0:0:0:0:
112,304,106137,2,0,P|120:248|148:204,1,105
296,116,106411,5,0,0:0:0:0:
256,104,106480,1,0,0:0:0:0:
216,108,106548,1,0,0:0:0:0:
180,132,106617,1,0,0:0:0:0:
160,168,106685,1,0,0:0:0:0:
160,212,106754,1,0,0:0:0:0:
180,248,106822,1,0,0:0:0:0:
216,268,106891,1,0,0:0:0:0:
256,268,106959,1,0,0:0:0:0:
292,244,107028,1,0,0:0:0:0:
332,232,107096,1,0,0:0:0:0:
376,236,107165,1,0,0:0:0:0:
412,256,107233,2,0,P|456:300|476:344,1,105
492,176,107507,5,0,0:0:0:0:
456,152,107576,1,0,0:0:0:0:
416,152,107644,1,0,0:0:0:0:
376,164,107713,1,0,0:0:0:0:
348,196,107781,1,0,0:0:0:0:
340,236,107849,1,0,0:0:0:0:
340,280,107918,1,0,0:0:0:0:
320,316,107986,1,0,0:0:0:0:
284,340,108055,1,0,0:0:0:0:
244,348,108123,1,0,0:0:0:0:
204,340,108192,1,0,0:0:0:0:
168,320,108260,1,0,0:0:0:0:
140,292,108329,2,0,P|88:272|36:284,1,105
212,284,108603,5,0,0:0:0:0:
220,244,108671,1,0,0:0:0:0:
212,204,108740,1,0,0:0:0:0:
180,180,108808,1,0,0:0:0:0:
136,176,108877,1,0,0:0:0:0:
96,188,108945,1,0,0:0:0:0:
52,184,109014,1,0,0:0:0:0:
16,160,109082,1,0,0:0:0:0:
0,120,109151,1,0,0:0:0:0:
4,80,109219,1,0,0:0:0:0:
32,52,109288,1,0,0:0:0:0:
72,44,109356,1,0,0:0:0:0:
116,48,109425,1,0,0:0:0:0:
152,72,109493,1,0,0:0:0:0:
156,112,109562,1,0,0:0:0:0:
176,148,109630,1,0,0:0:0:0:
204,180,109699,5,0,0:0:0:0:
244,180,109767,1,0,0:0:0:0:
284,168,109836,1,0,0:0:0:0:
312,140,109904,1,0,0:0:0:0:
328,100,109973,1,0,0:0:0:0:
356,68,110041,1,0,0:0:0:0:
396,56,110110,1,0,0:0:0:0:
436,60,110178,1,0,0:0:0:0:
472,84,110247,1,0,0:0:0:0:
488,124,110315,1,0,0:0:0:0:
480,164,110384,1,0,0:0:0:0:
448,192,110452,1,0,0:0:0:0:
404,196,110521,2,0,P|352:224|328:268,1,105
160,180,110795,5,0,0:0:0:0:
120,192,110863,1,0,0:0:0:0:
92,224,110932,1,0,0:0:0:0:
80,264,111000,1,0,0:0:0:0:
84,308,111069,1,0,0:0:0:0:
108,344,111137,1,0,0:0:0:0:
144,364,111206,1,0,0:0:0:0:
184,364,111274,1,0,0:0:0:0:
224,356,111343,1,0,0:0:0:0:
256,328,111411,1,0,0:0:0:0:
280,292,111480,1,0,0:0:0:0:
316,272,111548,1,0,0:0:0:0:
360,268,111617,2,0,P|396:312|412:360,1,105
472,232,111891,5,0,0:0:0:0:
496,196,111959,1,0,0:0:0:0:
504,156,112028,1,0,0:0:0:0:
500,116,112096,1,0,0:0:0:0:
484,76,112165,1,0,0:0:0:0:
456,44,112233,1,0,0:0:0:0:
416,32,112302,1,0,0:0:0:0:
376,28,112370,1,0,0:0:0:0:
336,32,112439,1,0,0:0:0:0:
300,48,112507,1,0,0:0:0:0:
272,80,112576,1,0,0:0:0:0:
236,104,112644,1,0,0:0:0:0:
192,108,112713,2,0,P|148:64|140:12,1,105
8,144,112986,5,0,0:0:0:0:
48,128,113055,1,0,0:0:0:0:
88,128,113123,1,0,0:0:0:0:
128,144,113192,1,0,0:0:0:0:
152,176,113260,1,0,0:0:0:0:
160,216,113329,1,0,0:0:0:0:
160,256,113397,1,0,0:0:0:0:
180,292,113466,1,0,0:0:0:0:
216,316,113534,1,0,0:0:0:0:
256,324,113603,1,0,0:0:0:0:
296,316,113671,1,0,0:0:0:0:
324,284,113740,1,0,0:0:0:0:
332,244,113808,1,0,0:0:0:0:
348,204,113877,1,0,0:0:0:0:
384,180,113945,1,0,0:0:0:0:
424,172,114014,1,0,0:0:0:0:
464,180,114082,5,0,0:0:0:0:
492,212,114151,1,0,0:0:0:0:
508,252,114219,1,0,0:0:0:0:
504,296,114288,1,0,0:0:0:0:
480,332,114356,1,0,0:0:0:0:
440,344,114425,1,0,0:0:0:0:
400,344,114493,1,0,0:0:0:0:
360,328,114562,1,0,0:0:0:0:
336,292,114630,1,0,0:0:0:0:
312,260,114699,1,0,0:0:0:0:
276,240,114767,1,0,0:0:0:0:
236,228,114836,1,0,0:0:0:0:
196,228,114904,2,0,P|144:264|120:312,1,105
16,224,115178,5,0,0:0:0:0:
4,184,115247,1,0,0:0:0:0:
8,144,115315,1,0,0:0:0:0:
20,104,115384,1,0,0:0:0:0:
40,68,115452,1,0,0:0:0:0:
76,44,115521,1,0,0:0:0:0:
112,68,115589,1,0,0:0:0:0:
152,84,115658,1,0,0:0:0:0:
192,88,115726,1,0,0:0:0:0:
236,88,115795,1,0,0:0:0:0:
276,76,115863,1,0,0:0:0:0:
312,52,115932,1,0,0:0:0:0:
340,20,116000,2,0,P|388:44|428:112,1,105
276,144,116274,5,0,0:0:0:0:
236,132,116343,1,0,0:0:0:0:
196,140,116411,1,0,0:0:0:0:
160,160,116480,1,0,0:0:0:0:
140,196,116548,1,0,0:0:0:0:
132,236,116617,1,0,0:0:0:0:
140,276,116685,1,0,0:0:0:0:
164,312,116754,1,0,0:0:0:0:
200,332,116822,1,0,0:0:0:0:
240,344,116891,1,0,0:0:0:0:
280,340,116959,1,0,0:0:0:0:
320,324,117028,1,0,0:0:0:0:
352,296,117096,2,0,P|436:292|464:304,1,105
432,156,117370,5,0,0:0:0:0:
392,148,117439,1,0,0:0:0:0:
352,156,117507,1,0,0:0:0:0:
316,180,117576,1,0,0:0:0:0:
292,216,117644,1,0,0:0:0:0:
280,256,117713,1,0,0:0:0:0:
264,296,117781,1,0,0:0:0:0:
232,324,117849,1,0,0:0:0:0:
192,332,117918,1,0,0:0:0:0:
152,332,117986,1,0,0:0:0:0:
112,320,118055,1,0,0:0:0:0:
76,296,118123,1,0,0:0:0:0:
52,260,118192,1,0,0:0:0:0:
48,220,118260,1,0,0:0:0:0:
48,176,118329,1,0,0:0:0:0:
60,136,118397,1,0,0:0:0:0:
88,104,118466,5,0,0:0:0:0:
128,88,118534,1,0,0:0:0:0:
172,88,118603,1,0,0:0:0:0:
212,104,118671,1,0,0:0:0:0:
244,132,118740,1,0,0:0:0:0:
272,164,118808,1,0,0:0:0:0:
308,184,118877,1,0,0:0:0:0:
348,192,118945,1,0,0:0:0:0:
392,192,119014,1,0,0:0:0:0:
432,180,119082,1,0,0:0:0:0:
468,156,119151,1,0,0:0:0:0:
488,120,119219,1,0,0:0:0:0:
500,80,119288,2,0,P|456:36|384:28,1,105
248,52,119562,5,0,0:0:0:0:
288,56,119630,1,0,0:0:0:0:
328,72,119699,1,0,0:0:0:0:
356,100,119767,1,0,0:0:0:0:
368,140,119836,1,0,0:0:0:0:
372,180,119904,1,0,0:0:0:0:
360,220,119973,1,0,0:0:0:0:
328,248,120041,1,0,0:0:0:0:
288,256,120110,1,0,0:0:0:0:
248,252,120178,1,0,0:0:0:0:
204,256,120247,1,0,0:0:0:0:
168,272,120315,1,0,0:0:0:0:
144,304,120384,2,0,P|208:356|260:360,1,105
348,324,120658,5,0,0:0:0:0:
388,312,120726,1,0,0:0:0:0:
432,308,120795,1,0,0:0:0:0:
472,292,120863,1,0,0:0:0:0:
500,260,120932,1,0,0:0:0:0:
508,220,121000,1,0,0:0:0:0:
504,176,121069,1,0,0:0:0:0:
484,140,121137,1,0,0:0:0:0:
448,116,121206,1,0,0:0:0:0:
408,112,121274,1,0,0:0:0:0:
368,124,121343,1,0,0:0:0:0:
336,152,121411,1,0,0:0:0:0:
296,168,121480,2,0,P|248:144|224:96,1,105
72,36,121754,5,0,0:0:0:0:
44,64,121822,1,0,0:0:0:0:
28,104,121891,1,0,0:0:0:0:
20,144,121959,1,0,0:0:0:0:
20,188,122028,1,0,0:0:0:0:
32,228,122096,1,0,0:0:0:0:
56,264,122165,1,0,0:0:0:0:
92,288,122233,1,0,0:0:0:0:
132,300,122302,1,0,0:0:0:0:
172,300,122370,1,0,0:0:0:0:
212,284,122439,1,0,0:0:0:0:
244,256,122507,1,0,0:0:0:0:
260,216,122576,1,0,0:0:0:0:
256,176,122644,1,0,0:0:0:0:
236,140,122713,1,0,0:0:0:0:
204,116,122781,1,0,0:0:0:0:
164,108,122849,5,0,0:0:0:0:
124,116,122918,1,0,0:0:0:0:
88,140,122986,1,0,0:0:0:0:
68,180,123055,1,0,0:0:0:0:
72,220,123123,1,0,0:0:0:0:
84,260,123192,1,0,0:0:0:0:
116,284,123260,1,0,0:0:0:0:
160,284,123329,1,0,0:0:0:0:
200,272,123397,1,0,0:0:0:0:
244,272,123466,1,0,0:0:0:0:
284,284,123534,1,0,0:0:0:0:
312,316,123603,1,0,0:0:0:0:
336,352,123671,2,0,P|388:316|428:264,1,105
300,204,123945,5,0,0:0:0:0:
332,232,124014,1,0,0:0:0:0:
372,248,124082,1,0,0:0:0:0:
416,248,124151,1,0,0:0:0:0:
456,240,124219,1,0,0:0:0:0:
492,216,124288,1,0,0:0:0:0:
508,176,124356,1,0,0:0:0:0:
512,132,124425,1,0,0:0:0:0:
500,92,124493,1,0,0:0:0:0:
468,64,124562,1,0,0:0:0:0:
428,60,124630,1,0,0:0:0:0:
388,68,124699,1,0,0:0:0:0:
356,92,124767,2,0,P|312:48|292:0,1,105
228,176,125041,5,0,0:0:0:0:
260,204,125110,1,0,0:0:0:0:
272,244,125178,1,0,0:0:0:0:
268,288,125247,1,0,0:0:0:0:
248,324,125315,1,0,0:0:0:0:
212,344,125384,1,0,0:0:0:0:
172,348,125452,1,0,0:0:0:0:
132,336,125521,1,0,0:0:0:0:
104,304,125589,1,0,0:0:0:0:
88,264,125658,1,0,0:0:0:0:
72,228,125726,1,0,0:0:0:0:
44,196,125795,1,0,0:0:0:0:
4,180,125863,2,0,P|36:124|92:96,1,105
160,236,126137,5,0,0:0:0:0:
156,192,126206,1,0,0:0:0:0:
164,152,126274,1,0,0:0:0:0:
188,120,126343,1,0,0:0:0:0:
224,96,126411,1,0,0:0:0:0:
268,92,126480,1,0,0:0:0:0:
304,108,126548,1,0,0:0:0:0:
328,140,126617,1,0,0:0:0:0:
340,180,126685,1,0,0:0:0:0:
352,220,126754,1,0,0:0:0:0:
380,252,126822,1,0,0:0:0:0:
420,264,126891,1,0,0:0:0:0:
460,260,126959,1,0,0:0:0:0:
496,236,127028,1,0,0:0:0:0:
508,196,127096,1,0,0:0:0:0:
508,152,127165,1,0,0:0:0:0:
488,116,127233,5,0,0:0:0:0:
464,152,127302,1,0,0:0:0:0:
436,184,127370,1,0,0:0:0:0:
396,200,127439,1,0,0:0:0:0:
356,200,127507,1,0,0:0:0:0:
316,188,127576,1,0,0:0:0:0:
280,164,127644,1,0,0:0:0:0:
252,132,127713,1,0,0:0:0:0:
244,92,127781,1,0,0:0:0:0:
228,56,127849,1,0,0:0:0:0:
200,24,127918,1,0,0:0:0:0:
160,12,127986,1,0,0:0:0:0:
116,16,128055,2,0,P|72:52|20:64,1,105
0,224,128329,5,0,0:0:0:0:
32,196,128397,1,0,0:0:0:0:
72,184,128466,1,0,0:0:0:0:
112,184,128534,1,0,0:0:0:0:
148,204,128603,1,0,0:0:0:0:
176,232,128671,1,0,0:0:0:0:
200,264,128740,1,0,0:0:0:0:
232,292,128808,1,0,0:0:0:0:
272,308,128877,1,0,0:0:0:0:
312,304,128945,1,0,0:0:0:0:
352,292,129014,1,0,0:0:0:0:
388,268,129082,1,0,0:0:0:0:
404,228,129151,2,0,P|364:172|316:144,1,105
464,152,129425,5,0,0:0:0:0:
488,184,129493,1,0,0:0:0:0:
500,224,129562,1,0,0:0:0:0:
496,264,129630,1,0,0:0:0:0:
484,304,129699,1,0,0:0:0:0:
452,332,129767,1,0,0:0:0:0:
412,340,129836,1,0,0:0:0:0:
372,336,129904,1,0,0:0:0:0:
336,316,129973,1,0,0:0:0:0:
312,284,130041,1,0,0:0:0:0:
280,256,130110,1,0,0:0:0:0:
240,244,130178,1,0,0:0:0:0:
200,256,130247,2,0,P|160:308|152:356,1,105
16,264,130521,5,0,0:0:0:0:
24,224,130589,1,0,0:0:0:0:
44,188,130658,1,0,0:0:0:0:
80,164,130726,1,0,0:0:0:0:
120,152,130795,1,0,0:0:0:0:
160,156,130863,1,0,0:0:0:0:
196,180,130932,1,0,0:0:0:0:
224,212,131000,1,0,0:0:0:0:
260,232,131069,1,0,0:0:0:0:
300,236,131137,1,0,0:0:0:0:
344,232,131206,1,0,0:0:0:0:
384,216,131274,1,0,0:0:0:0:
412,184,131343,1,0,0:0:0:0:
424,144,131411,1,0,0:0:0:0:
416,104,131480,1,0,0:0:0:0:
388,76,131548,1,0,0:0:0:0:
348,64,131616,6,0,L|292:76,2,52.5
164,320,131890,2,0,L|220:308,2,52.5
148,128,132164,2,0,L|96:116,2,52.5
364,256,132438,2,0,L|416:268,2,52.5
335,108,132712,6,0,L|328:160,2,52.5
176,275,132986,2,0,L|184:224,2,52.5
348,320,133260,2,0,L|404:312,2,52.5
164,64,133534,2,0,L|108:72,2,52.5
128,256,133808,6,0,L|124:188,2,52.5
384,128,134082,2,0,L|388:196,2,52.5
236,76,134356,2,0,L|288:52,2,52.5
276,308,134630,2,0,L|224:332,2,52.5
176,152,134904,6,0,L|124:144,2,52.5
336,232,135178,2,0,L|388:240,2,52.5
368,100,135452,2,0,L|416:80,2,52.5
144,284,135726,2,0,L|112:300,4,26.25
112,144,136000,6,0,L|120:88,2,52.5
400,240,136274,2,0,L|392:296,2,52.5
216,332,136548,2,0,L|152:340,2,52.5
296,52,136822,2,0,L|360:44,2,52.5
204,136,137096,6,0,L|152:144,2,52.5
308,248,137370,2,0,L|360:240,2,52.5
360,104,137644,2,0,L|408:144,2,52.5
152,280,137918,2,0,L|104:240,2,52.5
196,56,138192,6,0,L|188:108,2,52.5
316,328,138466,2,0,L|324:276,2,52.5
316,96,138740,2,0,L|404:80,2,52.5
196,288,139014,2,0,L|108:304,2,52.5
132,144,139288,6,0,L|192:168,2,52.5
380,240,139562,2,0,L|320:216,2,52.5
96,224,139836,2,0,L|40:240,2,52.5
416,160,140110,2,0,L|460:148,4,26.25
128,92,140383,6,0,L|156:44,2,52.5
384,292,140657,2,0,L|356:340,2,52.5
168,336,140931,2,0,L|116:316,2,52.5
344,48,141205,2,0,L|396:68,2,52.5
188,144,141479,6,0,L|244:152,2,52.5
324,240,141753,2,0,L|268:232,2,52.5
152,284,142027,2,0,L|244:260,2,52.5
360,100,142301,2,0,L|268:124,2,52.5
164,80,142575,6,0,L|112:68,2,52.5
348,304,142849,2,0,L|400:316,2,52.5
148,344,143123,2,0,L|132:280,2,52.5
364,40,143397,2,0,L|380:104,2,52.5
164,152,143671,6,0,L|112:168,2,52.5
348,232,143945,2,0,L|400:216,2,52.5
96,296,144219,2,0,L|124:340,2,52.5
416,88,144493,2,0,L|396:52,4,26.25
360,168,144767,6,0,L|304:172,2,52.5
152,216,145041,2,0,L|208:212,2,52.5
176,52,145315,2,0,L|120:72,2,52.5
336,332,145589,2,0,L|392:312,2,52.5
160,284,145863,6,0,L|104:272,2,52.5
352,100,146137,2,0,L|408:112,2,52.5
356,240,146411,2,0,L|340:296,2,52.5
156,144,146685,2,0,L|172:88,2,52.5
168,336,146959,6,0,L|104:324,2,52.5
344,48,147233,2,0,L|408:60,2,52.5
100,32,147507,2,0,L|32:44,2,52.5
412,352,147781,2,0,L|480:340,2,52.5
256,192,148055,5,4,0:0:0:0:
100,56,149151,5,0,0:0:0:0:
40,116,149288,1,0,0:0:0:0:
32,200,149425,1,0,0:0:0:0:
52,280,149562,1,0,0:0:0:0:
116,336,149699,1,0,0:0:0:0:
200,344,149836,1,0,0:0:0:0:
280,316,149973,1,0,0:0:0:0:
364,328,150110,1,0,0:0:0:0:
364,328,150178,1,0,0:0:0:0:
364,328,150246,1,0,0:0:0:0:
444,308,150383,5,0,0:0:0:0:
500,244,150520,1,0,0:0:0:0:
500,160,150657,1,0,0:0:0:0:
444,96,150794,1,0,0:0:0:0:
384,156,150931,1,0,0:0:0:0:
300,168,151068,1,0,0:0:0:0:
224,136,151205,1,0,0:0:0:0:
224,136,151274,1,0,0:0:0:0:
224,136,151342,1,0,0:0:0:0:
156,84,151479,5,0,0:0:0:0:
72,92,151616,1,0,0:0:0:0:
16,152,151753,1,0,0:0:0:0:
20,236,151890,1,0,0:0:0:0:
88,284,152027,1,0,0:0:0:0:
172,288,152164,1,0,0:0:0:0:
236,232,152301,1,0,0:0:0:0:
236,232,152370,1,0,0:0:0:0:
236,232,152438,1,0,0:0:0:0:
232,148,152575,5,0,0:0:0:0:
276,76,152712,1,0,0:0:0:0:
356,64,152849,1,0,0:0:0:0:
440,64,152986,1,0,0:0:0:0:
504,120,153123,1,0,0:0:0:0:
508,204,153260,1,0,0:0:0:0:
480,284,153397,1,0,0:0:0:0:
480,284,153466,1,0,0:0:0:0:
480,284,153534,1,0,0:0:0:0:
400,304,153671,5,0,0:0:0:0:
328,260,153808,1,0,0:0:0:0:
316,176,153945,1,0,0:0:0:0:
268,108,154082,1,0,0:0:0:0:
196,68,154219,1,0,0:0:0:0:
112,76,154356,1,0,0:0:0:0:
44,124,154493,1,0,0:0:0:0:
44,124,154562,1,0,0:0:0:0:
44,124,154630,1,0,0:0:0:0:
36,208,154767,5,0,0:0:0:0:
96,148,154904,1,0,0:0:0:0:
176,124,155041,1,0,0:0:0:0:
260,132,155178,1,0,0:0:0:0:
328,180,155315,1,0,0:0:0:0:
360,256,155452,1,0,0:0:0:0:
324,332,155589,1,0,0:0:0:0:
324,332,155657,1,0,0:0:0:0:
324,332,155726,1,0,0:0:0:0:
240,340,155863,5,0,0:0:0:0:
164,304,156000,1,0,0:0:0:0:
148,220,156137,1,0,0:0:0:0:
204,156,156274,1,0,0:0:0:0:
288,156,156411,1,0,0:0:0:0:
368,132,156548,1,0,0:0:0:0:
416,64,156685,1,0,0:0:0:0:
416,64,156753,1,0,0:0:0:0:
416,64,156822,1,0,0:0:0:0:
476,120,156959,5,0,0:0:0:0:
468,204,157096,1,0,0:0:0:0:
436,280,157233,1,0,0:0:0:0:
360,316,157370,1,0,0:0:0:0:
276,320,157507,1,0,0:0:0:0:
204,276,157644,1,0,0:0:0:0:
184,196,157781,1,0,0:0:0:0:
184,196,157849,1,0,0:0:0:0:
184,196,157918,1,4,0:0:0:0:
184,112,158055,5,0,0:0:0:0:
128,48,158192,1,0,0:0:0:0:
48,72,158329,1,0,0:0:0:0:
36,156,158466,1,0,0:0:0:0:
92,216,158603,1,0,0:0:0:0:
148,280,158740,1,0,0:0:0:0:
112,356,158877,1,0,0:0:0:0:
112,356,158945,1,0,0:0:0:0:
112,356,159014,1,0,0:0:0:0:
32,332,159151,5,0,0:0:0:0:
12,252,159288,1,0,0:0:0:0:
60,180,159425,1,0,0:0:0:0:
144,168,159562,1,0,0:0:0:0:
204,224,159699,1,0,0:0:0:0:
252,292,159836,1,0,0:0:0:0:
328,324,159973,1,0,0:0:0:0:
328,324,160041,1,0,0:0:0:0:
328,324,160110,1,0,0:0:0:0:
388,264,160246,5,0,0:0:0:0:
356,188,160383,1,0,0:0:0:0:
284,140,160520,1,0,0:0:0:0:
200,136,160657,1,0,0:0:0:0:
132,188,160794,1,0,0:0:0:0:
112,268,160931,1,0,0:0:0:0:
148,344,161068,1,0,0:0:0:0:
148,344,161137,1,0,0:0:0:0:
148,344,161205,1,0,0:0:0:0:
232,356,161342,5,0,0:0:0:0:
292,296,161479,2,0,L|276:268,4,26.25
288,212,161753,1,0,0:0:0:0:
312,132,161890,1,0,0:0:0:0:
384,88,162027,1,0,0:0:0:0:
464,112,162164,1,0,0:0:0:0:
464,112,162233,1,0,0:0:0:0:
464,112,162301,1,0,0:0:0:0:
440,192,162438,5,0,0:0:0:0:
360,212,162575,1,0,0:0:0:0:
276,184,162712,1,0,0:0:0:0:
228,116,162849,1,0,0:0:0:0:
148,88,162986,1,0,0:0:0:0:
68,116,163123,1,0,0:0:0:0:
20,184,163260,1,0,0:0:0:0:
20,184,163329,1,0,0:0:0:0:
20,184,163397,1,0,0:0:0:0:
32,268,163534,5,0,0:0:0:0:
96,212,163671,1,0,0:0:0:0:
180,220,163808,1,0,0:0:0:0:
240,276,163945,1,0,0:0:0:0:
308,328,164082,1,0,0:0:0:0:
392,340,164219,1,0,0:0:0:0:
472,312,164356,1,0,0:0:0:0:
472,312,164425,1,0,0:0:0:0:
472,312,164493,1,0,0:0:0:0:
504,236,164630,5,0,0:0:0:0:
496,152,164767,1,0,0:0:0:0:
452,80,164904,1,0,0:0:0:0:
368,72,165041,1,0,0:0:0:0:
292,108,165178,1,0,0:0:0:0:
260,184,165315,1,0,0:0:0:0:
288,264,165452,1,0,0:0:0:0:
288,264,165520,1,0,0:0:0:0:
288,264,165589,1,0,0:0:0:0:
372,280,165726,5,0,0:0:0:0:
444,236,165863,1,0,0:0:0:0:
460,152,166000,1,0,0:0:0:0:
420,80,166137,1,0,0:0:0:0:
340,48,166274,1,0,0:0:0:0:
256,36,166411,1,0,0:0:0:0:
180,76,166548,1,0,0:0:0:0:
180,76,166616,1,0,0:0:0:0:
180,76,166685,1,0,0:0:0:0:
192,160,166822,5,0,0:0:0:0:
184,244,166959,1,0,0:0:0:0:
120,300,167096,1,0,0:0:0:0:
44,268,167233,1,0,0:0:0:0:
8,192,167370,1,0,0:0:0:0:
20,108,167507,1,0,0:0:0:0:
72,44,167644,1,0,0:0:0:0:
72,44,167712,1,0,0:0:0:0:
72,44,167781,1,0,0:0:0:0:
96,124,167918,5,0,0:0:0:0:
148,192,168055,1,0,0:0:0:0:
232,192,168192,1,0,0:0:0:0:
308,156,168329,1,0,0:0:0:0:
360,92,168466,1,0,0:0:0:0:
444,96,168603,1,0,0:0:0:0:
500,160,168740,1,0,0:0:0:0:
500,160,168808,1,0,0:0:0:0:
500,160,168877,1,0,0:0:0:0:
504,244,169014,5,0,0:0:0:0:
464,320,169151,1,0,0:0:0:0:
384,348,169288,1,0,0:0:0:0:
300,336,169425,1,0,0:0:0:0:
228,292,169562,1,0,0:0:0:0:
200,212,169699,1,0,0:0:0:0:
144,148,169836,1,0,0:0:0:0:
144,148,169904,1,0,0:0:0:0:
144,148,169973,1,0,0:0:0:0:
192,80,170110,5,0,0:0:0:0:
272,56,170246,1,0,0:0:0:0:
348,88,170383,1,0,0:0:0:0:
396,156,170520,1,0,0:0:0:0:
376,236,170657,1,0,0:0:0:0:
308,288,170794,6,0,L|272:276,6,26.25
220,304,171068,6,0,L|108:256,1,105
292,80,171342,2,0,L|404:128,1,105
388,121,171548,1,0,0:0:0:0:
388,121,171616,1,0,0:0:0:0:
288,236,171753,1,0,0:0:0:0:
288,236,171822,1,0,0:0:0:0:
288,236,171890,2,0,P|212:228|164:208,1,105
252,32,172164,6,0,P|328:40|376:60,1,105
428,136,172438,2,0,L|444:240,1,105
84,248,172712,2,0,L|68:144,1,105
256,192,172986,1,0,0:0:0:0:
256,192,173123,1,0,0:0:0:0:
448,192,173260,6,0,P|396:216|336:236,1,105
64,192,173534,2,0,P|116:168|176:148,1,105
396,104,173808,6,0,P|340:88|292:80,1,105
116,280,174082,2,0,P|172:296|220:304,1,105
412,300,174356,6,0,P|356:316|308:324,1,105
100,84,174630,2,0,P|156:68|204:60,1,105
456,64,174904,6,0,P|400:48|352:40,1,105
56,320,175178,2,0,P|112:336|160:344,1,105
344,240,175452,5,0,0:0:0:0:
304,252,175520,1,0,0:0:0:0:
260,252,175589,1,0,0:0:0:0:
220,240,175657,1,0,0:0:0:0:
184,216,175726,1,0,0:0:0:0:
164,180,175794,1,0,0:0:0:0:
156,140,175863,1,0,0:0:0:0:
160,100,175931,1,0,0:0:0:0:
188,68,176000,1,0,0:0:0:0:
220,44,176068,1,0,0:0:0:0:
264,40,176137,1,0,0:0:0:0:
304,40,176205,1,0,0:0:0:0:
344,56,176274,1,0,0:0:0:0:
468,228,176548,5,0,0:0:0:0:
452,268,176616,1,0,0:0:0:0:
424,300,176685,1,0,0:0:0:0:
388,324,176753,1,0,0:0:0:0:
348,332,176822,1,0,0:0:0:0:
308,332,176890,1,0,0:0:0:0:
268,324,176959,1,0,0:0:0:0:
228,308,177027,1,0,0:0:0:0:
192,288,177096,1,0,0:0:0:0:
152,284,177164,1,0,0:0:0:0:
112,288,177233,1,0,0:0:0:0:
72,300,177301,1,0,0:0:0:0:
40,328,177370,1,0,0:0:0:0:
8,88,177644,5,0,0:0:0:0:
12,128,177712,1,0,0:0:0:0:
36,164,177781,1,0,0:0:0:0:
72,184,177849,1,0,0:0:0:0:
112,192,177918,1,0,0:0:0:0:
152,188,177986,1,0,0:0:0:0:
192,180,178055,1,0,0:0:0:0:
228,164,178123,1,0,0:0:0:0:
268,172,178192,1,0,0:0:0:0:
304,196,178260,1,0,0:0:0:0:
324,232,178329,1,0,0:0:0:0:
320,272,178397,1,0,0:0:0:0:
292,304,178466,1,0,0:0:0:0:
460,148,178740,5,0,0:0:0:0:
432,120,178808,1,0,0:0:0:0:
396,100,178877,1,0,0:0:0:0:
356,92,178945,1,0,0:0:0:0:
312,92,179014,1,0,0:0:0:0:
272,108,179082,1,0,0:0:0:0:
240,136,179151,1,0,0:0:0:0:
220,172,179219,1,0,0:0:0:0:
192,204,179288,1,0,0:0:0:0:
160,232,179356,1,0,0:0:0:0:
120,244,179425,1,0,0:0:0:0:
80,244,179493,1,0,0:0:0:0:
40,228,179562,1,0,0:0:0:0:
264,264,179836,5,0,0:0:0:0:
304,252,179904,1,0,0:0:0:0:
340,228,179973,1,0,0:0:0:0:
364,196,180041,1,0,0:0:0:0:
376,156,180110,1,0,0:0:0:0:
376,116,180178,1,0,0:0:0:0:
356,80,180247,1,0,0:0:0:0:
324,56,180315,1,0,0:0:0:0:
284,48,180383,1,0,0:0:0:0:
244,60,180452,1,0,0:0:0:0:
204,72,180520,1,0,0:0:0:0:
160,76,180589,1,0,0:0:0:0:
120,60,180657,1,0,0:0:0:0:
444,80,180931,5,0,0:0:0:0:
412,108,181000,1,0,0:0:0:0:
372,124,181068,1,0,0:0:0:0:
328,124,181137,1,0,0:0:0:0:
288,120,181205,1,0,0:0:0:0:
248,132,181274,1,0,0:0:0:0:
212,156,181342,1,0,0:0:0:0:
188,192,181411,1,0,0:0:0:0:
176,232,181479,1,0,0:0:0:0:
188,272,181548,1,0,0:0:0:0:
212,304,181616,1,0,0:0:0:0:
252,320,181685,1,0,0:0:0:0:
292,320,181753,1,0,0:0:0:0:
464,168,182027,5,0,0:0:0:0:
428,192,182096,1,0,0:0:0:0:
388,200,182164,1,0,0:0:0:0:
344,204,182233,1,0,0:0:0:0:
304,192,182301,1,0,0:0:0:0:
268,172,182370,1,0,0:0:0:0:
236,148,182438,1,0,0:0:0:0:
224,108,182507,1,0,0:0:0:0:
232,68,182575,1,0,0:0:0:0:
260,36,182644,1,0,0:0:0:0:
296,16,182712,1,0,0:0:0:0:
340,20,182781,1,0,0:0:0:0:
372,44,182849,1,0,0:0:0:0:
436,308,183123,5,0,0:0:0:0:
400,328,183192,1,0,0:0:0:0:
364,344,183260,1,0,0:0:0:0:
324,348,183329,1,0,0:0:0:0:
284,348,183397,1,0,0:0:0:0:
248,328,183466,1,0,0:0:0:0:
216,300,183534,1,0,0:0:0:0:
180,276,183603,1,0,0:0:0:0:
140,268,183671,1,0,0:0:0:0:
96,272,183740,1,0,0:0:0:0:
56,284,183808,1,0,0:0:0:0:
24,308,183877,1,0,0:0:0:0:
8,348,183945,1,0,0:0:0:0:
96,104,184219,5,0,0:0:0:0:
108,144,184288,1,0,0:0:0:0:
124,184,184356,1,0,0:0:0:0:
156,212,184425,1,0,0:0:0:0:
196,224,184493,1,0,0:0:0:0:
240,228,184562,1,0,0:0:0:0:
280,220,184630,1,0,0:0:0:0:
320,200,184699,1,0,0:0:0:0:
352,172,184767,1,0,0:0:0:0:
368,132,184836,1,0,0:0:0:0:
376,92,184904,1,0,0:0:0:0:
372,48,184973,1,0,0:0:0:0:
352,12,185041,1,0,0:0:0:0:
96,44,185315,5,0,0:0:0:0:
60,64,185383,1,0,0:0:0:0:
28,92,185452,1,0,0:0:0:0:
12,132,185520,1,0,0:0:0:0:
12,176,185589,1,0,0:0:0:0:
24,216,185657,1,0,0:0:0:0:
52,248,185726,1,0,0:0:0:0:
92,264,185794,1,0,0:0:0:0:
132,272,185863,1,0,0:0:0:0:
172,284,185931,1,0,0:0:0:0:
208,308,186000,1,0,0:0:0:0:
232,340,186068,1,0,0:0:0:0:
244,380,186137,1,0,0:0:0:0:
144,128,186411,5,0,0:0:0:0:
160,168,186479,1,0,0:0:0:0:
188,200,186548,1,0,0:0:0:0:
224,216,186616,1,0,0:0:0:0:
264,224,186685,1,0,0:0:0:0:
304,220,186753,1,0,0:0:0:0:
344,204,186822,1,0,0:0:0:0:
372,176,186890,1,0,0:0:0:0:
408,156,186959,1,0,0:0:0:0:
448,152,187027,1,0,0:0:0:0:
484,172,187096,1,0,0:0:0:0:
504,208,187164,1,0,0:0:0:0:
504,252,187233,1,0,0:0:0:0:
264,284,187507,5,0,0:0:0:0:
244,248,187575,1,0,0:0:0:0:
232,208,187644,1,0,0:0:0:0:
244,168,187712,1,0,0:0:0:0:
276,144,187781,1,0,0:0:0:0:
304,112,187849,1,0,0:0:0:0:
304,68,187918,1,0,0:0:0:0:
268,44,187986,1,0,0:0:0:0:
228,28,188055,1,0,0:0:0:0:
188,28,188123,1,0,0:0:0:0:
148,40,188192,1,0,0:0:0:0:
120,72,188260,1,0,0:0:0:0:
112,112,188329,1,0,0:0:0:0:
344,204,188603,5,0,0:0:0:0:
304,216,188671,1,0,0:0:0:0:
264,208,188740,1,0,0:0:0:0:
228,184,188808,1,0,0:0:0:0:
204,148,188877,1,0,0:0:0:0:
188,112,188945,1,0,0:0:0:0:
160,80,189014,1,0,0:0:0:0:
120,64,189082,1,0,0:0:0:0:
80,60,189151,1,0,0:0:0:0:
40,72,189219,1,0,0:0:0:0:
12,104,189288,1,0,0:0:0:0:
4,144,189356,1,0,0:0:0:0:
20,184,189425,1,0,0:0:0:0:
212,344,189699,5,0,0:0:0:0:
252,340,189767,1,0,0:0:0:0:
292,324,189836,1,0,0:0:0:0:
324,296,189904,1,0,0:0:0:0:
340,256,189973,1,0,0:0:0:0:
348,216,190041,1,0,0:0:0:0:
344,172,190110,1,0,0:0:0:0:
348,132,190178,1,0,0:0:0:0:
364,92,190246,1,0,0:0:0:0:
396,64,190315,1,0,0:0:0:0:
436,52,190383,1,0,0:0:0:0:
476,68,190452,1,0,0:0:0:0:
504,100,190520,1,0,0:0:0:0:
272,232,190794,5,0,0:0:0:0:
276,276,190863,1,0,0:0:0:0:
288,316,190931,1,0,0:0:0:0:
320,344,191000,1,0,0:0:0:0:
360,356,191068,1,0,0:0:0:0:
404,360,191137,1,0,0:0:0:0:
444,352,191205,1,0,0:0:0:0:
476,328,191274,1,0,0:0:0:0:
496,292,191342,1,0,0:0:0:0:
504,252,191411,1,0,0:0:0:0:
504,212,191479,1,0,0:0:0:0:
480,176,191548,1,0,0:0:0:0:
448,148,191616,1,0,0:0:0:0:
196,100,191890,5,0,0:0:0:0:
152,96,191959,1,0,0:0:0:0:
112,108,192027,1,0,0:0:0:0:
84,140,192096,1,0,0:0:0:0:
72,180,192164,1,0,0:0:0:0:
72,224,192233,1,0,0:0:0:0:
88,264,192301,1,0,0:0:0:0:
116,296,192370,1,0,0:0:0:0:
156,308,192438,6,0,L|272:284,1,105
312,224,192712,2,0,L|428:200,1,105
468,136,192986,5,0,0:0:0:0:
436,212,193260,1,0,0:0:0:0:
368,264,193534,1,0,0:0:0:0:
368,264,193671,1,0,0:0:0:0:
284,280,193945,1,0,0:0:0:0:
284,280,194082,1,0,0:0:0:0:
200,268,194356,1,0,0:0:0:0:
144,204,194630,1,0,0:0:0:0:
144,204,194767,1,0,0:0:0:0:
144,204,194904,1,0,0:0:0:0:
144,204,195041,1,0,0:0:0:0:
144,204,195178,5,0,0:0:0:0:
148,120,195452,1,0,0:0:0:0:
212,64,195726,1,0,0:0:0:0:
212,64,195863,1,0,0:0:0:0:
296,68,196137,1,0,0:0:0:0:
296,68,196274,1,0,0:0:0:0:
356,128,196548,1,0,0:0:0:0:
372,212,196822,1,0,0:0:0:0:
320,280,197096,2,0,L|284:292,4,26.25
192,336,197370,5,0,0:0:0:0:
192,336,197507,1,0,0:0:0:0:
192,336,197644,1,0,0:0:0:0:
192,336,197781,1,0,0:0:0:0:
192,336,197918,1,0,0:0:0:0:
192,336,198055,1,0,0:0:0:0:
192,336,198192,1,0,0:0:0:0:
192,336,198329,1,0,0:0:0:0:
40,160,198466,5,0,0:0:0:0:
40,160,198603,1,0,0:0:0:0:
40,160,198740,1,0,0:0:0:0:
40,160,198877,1,0,0:0:0:0:
40,160,199014,1,0,0:0:0:0:
40,160,199151,1,0,0:0:0:0:
40,160,199288,1,0,0:0:0:0:
40,160,199425,1,0,0:0:0:0:
248,56,199562,5,0,0:0:0:0:
248,56,199699,1,0,0:0:0:0:
248,56,199836,1,0,0:0:0:0:
248,56,199973,1,0,0:0:0:0:
248,56,200110,1,0,0:0:0:0:
248,56,200247,1,0,0:0:0:0:
248,56,200384,1,0,0:0:0:0:
248,56,200521,1,0,0:0:0:0:
184,256,200657,5,0,0:0:0:0:
184,256,200794,1,0,0:0:0:0:
184,256,200931,1,0,0:0:0:0:
184,256,201068,1,0,0:0:0:0:
184,256,201205,1,0,0:0:0:0:
184,256,201342,1,0,0:0:0:0:
184,256,201479,1,0,0:0:0:0:
184,256,201616,1,0,0:0:0:0:
476,208,201753,5,0,0:0:0:0:
476,208,201890,1,0,0:0:0:0:
476,208,202027,1,0,0:0:0:0:
476,208,202164,1,0,0:0:0:0:
476,208,202301,1,0,0:0:0:0:
476,208,202438,1,0,0:0:0:0:
476,208,202575,1,0,0:0:0:0:
476,208,202712,1,0,0:0:0:0:
264,116,202849,5,0,0:0:0:0:
264,116,202986,1,0,0:0:0:0:
264,116,203123,1,0,0:0:0:0:
264,116,203260,1,0,0:0:0:0:
264,116,203397,1,0,0:0:0:0:
264,116,203534,1,0,0:0:0:0:
264,116,203671,1,0,0:0:0:0:
264,116,203808,1,0,0:0:0:0:
88,276,203945,5,0,0:0:0:0:
88,276,204082,1,0,0:0:0:0:
88,276,204219,1,0,0:0:0:0:
88,276,204356,1,0,0:0:0:0:
88,276,204493,1,0,0:0:0:0:
88,276,204630,1,0,0:0:0:0:
88,276,204767,1,0,0:0:0:0:
88,276,204904,1,0,0:0:0:0:
208,96,205041,5,0,0:0:0:0:
208,96,205178,1,0,0:0:0:0:
208,96,205315,1,0,0:0:0:0:
208,96,205452,1,0,0:0:0:0:
208,96,205589,1,0,0:0:0:0:
208,96,205726,1,0,0:0:0:0:
208,96,205863,1,0,0:0:0:0:
208,96,206000,1,0,0:0:0:0:
456,68,206137,5,0,0:0:0:0:
456,68,206274,1,0,0:0:0:0:
456,68,206411,1,0,0:0:0:0:
456,68,206548,1,0,0:0:0:0:
456,68,206685,1,0,0:0:0:0:
456,68,206822,1,0,0:0:0:0:
456,68,206959,1,0,0:0:0:0:
456,68,207096,1,0,0:0:0:0:
352,304,207233,5,0,0:0:0:0:
352,304,207370,1,0,0:0:0:0:
352,304,207507,1,0,0:0:0:0:
352,304,207644,1,0,0:0:0:0:
352,304,207781,1,0,0:0:0:0:
352,304,207918,1,0,0:0:0:0:
352,304,208055,1,0,0:0:0:0:
352,304,208192,1,0,0:0:0:0:
176,100,208329,5,0,0:0:0:0:
176,100,208466,1,0,0:0:0:0:
176,100,208603,1,0,0:0:0:0:
176,100,208740,1,0,0:0:0:0:
176,100,208877,1,0,0:0:0:0:
176,100,209014,1,0,0:0:0:0:
176,100,209151,1,0,0:0:0:0:
176,100,209288,1,0,0:0:0:0:
60,312,209425,5,0,0:0:0:0:
60,312,209562,1,0,0:0:0:0:
60,312,209699,1,0,0:0:0:0:
60,312,209836,1,0,0:0:0:0:
60,312,209973,1,0,0:0:0:0:
60,312,210110,1,0,0:0:0:0:
60,312,210247,1,4,0:0:0:0:
