osu file format v9

[General]
AudioFilename: nature_of_dying.mp3
AudioLeadIn: 0
PreviewTime: 76611
Countdown: 0
SampleSet: Soft
StackLeniency: 0.5
Mode: 0
LetterboxInBreaks: 1

[Editor]
Bookmarks: 821,31699,73804,76611,118716,121523,143979,188891,226632,230997,233804,278716,320821,323628,357313
DistanceSpacing: 1
BeatDivisor: 8
GridSize: 4

[Metadata]
Title:the nature of dying
Artist:goreshit
Creator:grumd
Version:The Nature of Dying
Source:
Tags:semantic compositions on death and its meaning breakcore loctav

[Difficulty]
HPDrainRate:7
CircleSize:4
OverallDifficulty:8
ApproachRate:9
SliderMultiplier:1.7
SliderTickRate:1

[Events]
//Background and Video events
0,0,"bg_alive.jpg"
//Break Periods
2,74024,76032
2,121743,143400
2,231174,233225
//Storyboard Layer 0 (Background)
Sprite,Background,Centre,"SB\bleeding_2.jpg",320,240 F,0,230667,230930,0,1 F,0,230930,231720,1,0 F,0,233825,233912,0,1 F,0,233912,278386,1 F,0,278386,278737,1,0
Sprite,Background,Centre,"SB\dead.jpg",320,240 F,0,278386,278842,0,0.7 F,0,278842,353123,0.7 F,0,353123,357334,0.7,0
Sprite,Background,Centre,"SB\bleeding_1.jpg",320,240 F,0,73474,73649,0,0.8 F,0,73737,74000,0.8,0 F,0,118365,118497,0,1 F,0,118737,118912,1,0 F,0,132751,135558,0,0.5 F,0,135558,136962,0.5,0.3 F,0,136962,137049,0 F,0,137049,137137,0.3 F,0,137137,137313,0 F,0,137313,138365,0.3,0.7 F,0,138365,139418,0.7,1 F,0,139418,139506,0.7 F,0,139506,139593,1 F,0,139593,139681,0.7 F,0,139681,139769,1 F,0,139769,139856,0.7 F,0,139856,141172,0.7,0.5 F,0,141172,143979,0.5,0.1 F,0,143979,144040,0.1,1 F,0,144088,188541,1 F,0,188541,188891,1,0
//Storyboard Layer 1 (Fail)
//Storyboard Layer 2 (Pass)
//Storyboard Layer 3 (Foreground)
//Storyboard Sound Samples
//Background Colour Transformations
3,100,80,61,37

[TimingPoints]
31720,350.877192982456,4,2,1,70,1,0
32070,-100,4,2,1,100,0,0
32334,-100,4,2,1,70,0,0
32597,-100,4,2,0,100,0,0
32860,-100,4,2,0,60,0,0
33123,-100,4,2,0,100,0,0
33386,-100,4,2,1,70,0,0
34000,-100,4,2,0,100,0,0
34176,-100,4,2,1,70,0,0
34351,-100,4,2,0,100,0,0
34527,-100,4,2,1,70,0,0
34877,-100,4,2,0,100,0,0
35141,-100,4,2,1,70,0,0
35404,-100,4,2,0,100,0,0
35579,-100,4,2,1,70,0,0
35930,-100,4,2,0,100,0,0
36632,-100,4,2,1,70,0,0
36807,-100,4,2,0,100,0,0
36983,-100,4,2,1,70,0,0
37070,-100,4,2,0,80,0,0
37158,-100,4,2,1,70,0,0
38035,-100,4,2,0,100,0,0
38298,-100,4,2,0,60,0,0
38386,-100,4,2,0,100,0,0
38562,-100,4,2,0,60,0,0
38737,-100,4,2,0,100,0,0
38912,-100,4,2,0,60,0,0
39000,-100,4,2,0,100,0,0
39439,-100,4,2,1,70,0,0
39790,-100,4,2,0,100,0,0
40141,-100,4,2,1,70,0,0
40491,-100,4,2,0,100,0,0
40755,-100,4,2,0,60,0,0
40842,-100,4,2,0,100,0,0
41369,-100,4,2,0,65,0,0
42421,-100,4,2,1,70,0,0
42597,-100,4,2,1,75,0,0
42772,-100,4,2,1,70,0,0
43649,-100,4,2,0,100,0,0
43912,-100,4,2,0,60,0,0
44000,-100,4,2,0,100,0,0
44351,-100,4,2,1,70,0,0
45053,-100,4,2,0,100,0,0
45228,-100,4,2,0,60,0,0
45755,-100,4,2,1,70,0,0
46105,-100,4,2,0,100,0,0
46281,-100,4,2,1,70,0,0
46632,-100,4,2,0,100,0,0
46807,-100,4,2,1,70,0,0
46895,-100,4,2,0,80,0,0
46983,-100,4,2,1,70,0,0
47158,-100,4,2,0,100,0,0
47334,-100,4,2,0,60,0,0
47421,-100,4,2,0,100,0,0
47597,-100,4,2,0,60,0,0
47684,-100,4,2,0,100,0,0
47860,-100,4,2,1,70,0,0
48035,-100,4,2,0,90,0,0
48386,-100,4,2,0,100,0,0
48825,-100,4,2,0,80,0,0
49000,-100,4,2,0,60,0,0
49088,-100,4,2,0,100,0,0
49263,-100,4,2,1,70,0,0
49527,-100,4,2,0,80,0,0
49702,-100,4,2,0,60,0,0
49790,-100,4,2,1,80,0,0
49965,-100,4,2,0,100,0,0
50141,-100,4,2,1,70,0,0
50316,-100,4,2,0,100,0,0
50491,-100,4,2,1,70,0,0
51369,-100,4,2,0,100,0,0
51632,-100,4,2,0,60,0,0
51895,-100,4,2,0,100,0,0
52158,-100,4,2,0,80,0,0
52421,-100,4,2,0,100,0,0
52948,-100,4,2,1,70,0,0
53123,-100,4,2,0,100,0,0
53298,-100,4,2,1,70,0,0
53649,-100,4,2,1,80,0,0
53737,-100,4,2,1,70,0,0
53825,-100,4,2,0,65,0,0
54439,-100,4,2,0,60,0,0
54527,-100,4,2,0,100,0,0
54790,-100,4,2,0,60,0,0
54877,-100,4,2,0,100,0,0
55053,-100,4,2,0,60,0,0
55228,-100,4,2,0,80,0,0
55404,-100,4,2,0,100,0,0
55667,-100,4,2,0,80,0,0
55930,-100,4,2,0,100,0,0
56193,-100,4,2,0,80,0,0
56369,-100,4,2,1,70,0,0
56632,-100,4,2,0,100,0,0
56807,-100,4,2,1,70,0,0
57158,-100,4,2,1,75,0,0
57334,-100,4,2,0,60,0,0
57509,-100,4,2,0,90,0,0
57684,-100,4,2,1,70,0,0
58035,-100,4,2,0,100,0,0
58298,-100,4,2,0,80,0,0
58737,-100,4,2,0,100,0,0
58912,-100,4,2,0,80,0,0
59088,-100,4,2,0,85,0,0
59263,-100,4,2,0,90,0,0
59351,-100,4,2,0,95,0,0
59439,-100,4,2,0,100,0,0
60053,-100,4,2,0,80,0,0
60316,-100,4,2,0,100,0,0
60579,-100,4,2,0,80,0,0
60842,-100,4,2,0,100,0,0
61018,-100,4,2,0,60,0,0
61281,-100,4,2,0,80,0,0
61895,-100,4,2,1,70,0,0
62070,-100,4,2,0,80,0,0
62246,-100,4,2,1,70,0,0
62597,-100,4,2,0,100,0,0
62860,-100,4,2,0,90,0,0
63211,-100,4,2,0,80,0,0
63562,-100,4,2,0,70,0,0
63912,-100,4,2,0,60,0,0
64527,-100,4,2,1,70,0,0
64702,-100,4,2,0,80,0,0
65053,-100,4,2,0,90,0,0
65404,-100,4,2,1,70,0,0
66105,-100,4,2,0,90,0,0
66369,-100,4,2,0,60,0,0
66456,-100,4,2,0,90,0,0
66807,-100,4,2,1,70,0,0
67509,-100,4,2,0,90,0,0
67684,-100,4,2,1,70,0,0
67860,-111.111111111111,4,2,0,60,0,0
68123,-100,4,2,0,50,0,0
68211,-100,4,2,1,70,0,0
68562,-100,4,2,0,90,0,0
68737,-100,4,2,1,70,0,0
69088,-100,4,2,0,90,0,0
69263,-100,4,2,1,70,0,0
69351,-100,4,2,0,90,0,0
69439,-100,4,2,1,70,0,0
69614,-100,4,2,0,90,0,0
69790,-100,4,2,0,60,0,0
69877,-100,4,2,0,90,0,0
70053,-100,4,2,0,60,0,0
70141,-100,4,2,0,90,0,0
70316,-100,4,2,1,70,0,0
70491,-100,4,2,0,90,0,0
71281,-100,4,2,0,60,0,0
71544,-100,4,2,0,90,0,0
71720,-100,4,2,1,70,0,0
72421,-100,4,2,0,100,0,0
72597,-100,4,2,1,70,0,0
72772,-100,4,2,0,100,0,0
72948,-100,4,2,1,70,0,0
73474,-100,4,2,0,75,0,0
76632,-100,4,1,0,40,0,0
76807,-100,4,2,0,60,0,0
76895,-100,4,1,0,40,0,0
77158,-100,4,2,0,60,0,0
77421,-100,4,1,0,40,0,0
77684,-100,4,2,0,60,0,0
77772,-100,4,1,0,40,0,0
77860,-100,4,2,0,60,0,0
77948,-100,4,1,0,40,0,0
78211,-100,4,2,0,60,0,0
78474,-100,4,2,0,45,0,0
78737,-100,4,1,0,40,0,0
79965,-100,4,2,0,60,0,0
80228,-100,4,1,0,40,0,0
80316,-100,4,2,0,70,0,0
80491,-100,4,1,0,40,0,0
81018,-100,4,2,0,70,0,0
81105,-100,4,1,0,40,0,0
81281,-100,4,2,0,70,0,0
81369,-100,4,1,0,40,0,0
81983,-100,4,2,0,70,0,0
82070,-100,4,1,0,40,0,0
82421,-100,4,2,0,70,0,0
82509,-100,4,1,0,40,0,0
82684,-100,4,2,0,60,0,0
82772,-100,4,1,0,40,0,0
83123,-100,4,2,0,70,0,0
83211,-100,4,1,0,40,0,0
83474,-100,4,2,0,70,0,0
83649,-100,4,1,0,40,0,0
84702,-100,4,2,0,70,0,0
84877,-100,4,1,0,10,0,0
85053,-100,4,1,0,40,0,0
85228,-100,4,2,0,70,0,0
85316,-100,4,1,0,40,0,0
85404,-100,4,2,0,70,0,0
85579,-100,4,1,0,40,0,0
86281,-100,4,1,0,65,0,0
86807,-100,4,1,0,40,0,0
87509,-111.111111111111,4,2,0,60,0,0
87860,-100,4,1,0,40,0,0
88737,-100,4,2,0,50,0,0
88912,-100,4,1,0,40,0,0
90491,-100,4,2,0,70,0,0
90667,-100,4,1,0,40,0,0
92246,-100,4,2,0,70,0,0
92334,-100,4,1,0,40,0,0
92421,-100,4,2,0,70,0,0
92597,-100,4,1,0,40,0,0
93649,-100,4,2,0,70,0,0
93737,-100,4,1,0,40,0,0
93825,-100,4,2,0,70,0,0
94000,-100,4,1,0,40,0,0
94351,-100,4,2,0,70,0,0
94614,-100,4,1,0,40,0,0
95404,-100,4,2,0,80,0,0
95491,-100,4,1,0,50,0,0
95667,-100,4,1,0,40,0,0
95842,-100,4,1,0,30,0,0
96281,-100,4,1,0,40,0,0
96456,-100,4,2,0,50,0,0
96544,-100,4,1,0,40,0,0
96632,-100,4,2,0,50,0,0
96720,-100,4,1,0,40,0,0
96983,-100,4,2,0,50,0,0
97071,-100,4,1,0,40,0,0
97159,-100,4,2,0,50,0,0
97247,-100,4,1,0,40,0,0
98211,-100,4,1,0,30,0,0
98562,-100,4,1,0,50,0,0
98649,-100,4,1,0,55,0,0
98737,-100,4,1,0,60,0,0
99088,-100,4,1,0,40,0,0
99263,-100,4,2,0,70,0,0
99351,-100,4,1,0,40,0,0
99614,-100,4,2,0,70,0,0
99790,-100,4,1,0,40,0,0
100491,-100,4,2,0,70,0,0
100579,-100,4,1,0,40,0,0
100667,-100,4,2,0,70,0,0
100842,-100,4,1,0,40,0,0
101895,-100,4,2,0,70,0,0
102070,-100,4,1,0,40,0,0
102246,-100,4,2,0,70,0,0
102421,-100,4,1,0,40,0,0
102772,-100,4,2,0,70,0,0
102948,-100,4,1,0,40,0,0
103123,-100,4,2,0,70,0,0
103649,-100,4,1,0,40,0,0
104176,-100,4,2,0,85,0,0
104702,-100,4,2,0,100,0,0
104877,-100,4,2,0,70,0,0
105228,-100,4,1,0,40,0,0
105930,-100,4,1,0,50,0,0
106193,-100,4,2,0,70,0,0
106456,-100,4,1,0,40,0,0
108211,-111.111111111111,4,1,0,30,0,0
108562,-117.647058823529,4,1,0,20,0,0
109088,-117.647058823529,4,1,0,30,0,0
109263,-100,4,1,0,35,0,0
109439,-100,4,1,0,40,0,0
109614,-100,4,2,0,50,0,0
109702,-100,4,1,0,40,0,0
109790,-100,4,2,0,50,0,0
110053,-100,4,1,0,40,0,0
110141,-100,4,2,0,50,0,0
110228,-100,4,1,0,40,0,0
112421,-100,4,1,0,50,0,0
113123,-100,4,1,0,40,0,0
114702,-100,4,2,0,70,0,0
114790,-100,4,1,0,40,0,0
114877,-100,4,2,0,70,0,0
115053,-100,4,1,0,40,0,0
116105,-100,4,2,0,70,0,0
116193,-100,4,1,0,40,0,0
116280,-100,4,2,0,70,0,0
116456,-100,4,1,0,40,0,0
116632,-100,4,2,0,70,0,0
117334,-100,4,1,0,40,0,0
118386,-100,4,1,0,55,0,0
119000,-100,4,1,0,30,0,0
121544,-100,4,2,0,20,0,0
144000,-90.9090909090909,4,1,0,50,0,1
144176,-90.9090909090909,4,2,0,100,0,1
144527,-90.9090909090909,4,1,0,50,0,1
144702,-90.9090909090909,4,2,0,100,0,1
145404,-90.9090909090909,4,1,0,50,0,1
145579,-90.9090909090909,4,2,0,100,0,1
145667,-90.9090909090909,4,1,0,50,0,1
146105,-90.9090909090909,4,2,0,100,0,1
146281,-90.9090909090909,4,1,0,50,0,1
146632,-90.9090909090909,4,2,0,100,0,1
148211,-90.9090909090909,4,1,0,50,0,1
148386,-90.9090909090909,4,2,0,100,0,1
148562,-90.9090909090909,4,1,0,50,0,1
148649,-90.9090909090909,4,2,0,100,0,1
148912,-90.9090909090909,4,1,0,50,0,1
149176,-90.9090909090909,4,2,0,92,0,1
149263,-90.9090909090909,4,2,0,100,0,1
149877,-90.9090909090909,4,1,0,50,0,1
150053,-90.9090909090909,4,2,0,100,0,1
150141,-90.9090909090909,4,1,0,50,0,1
150316,-90.9090909090909,4,2,0,100,0,1
150842,-90.9090909090909,4,1,0,50,0,1
151105,-90.9090909090909,4,2,0,100,0,1
151193,-90.9090909090909,4,1,0,50,0,1
151369,-90.9090909090909,4,2,0,95,0,1
151720,-90.9090909090909,4,2,0,100,0,1
152421,-90.9090909090909,4,2,0,95,0,1
153035,-90.9090909090909,4,2,0,100,0,1
153298,-90.9090909090909,4,2,0,85,0,1
153386,-90.9090909090909,4,2,0,90,0,1
153474,-90.9090909090909,4,2,0,100,0,1
154000,-90.9090909090909,4,1,0,50,0,1
154088,-90.9090909090909,4,2,0,100,0,1
154176,-90.9090909090909,4,1,0,50,0,1
154351,-90.9090909090909,4,2,0,100,0,1
154439,-90.9090909090909,4,1,0,50,0,1
154702,-90.9090909090909,4,2,0,95,0,1
154877,-90.9090909090909,4,2,0,100,0,1
155141,-90.9090909090909,4,1,0,50,0,1
155228,-90.9090909090909,4,2,0,100,0,1
155404,-90.9090909090909,4,1,0,50,0,1
155491,-90.9090909090909,4,2,0,100,0,1
155579,-90.9090909090909,4,1,0,50,0,1
155755,-90.9090909090909,4,2,0,100,0,1
155842,-90.9090909090909,4,1,0,50,0,1
156105,-90.9090909090909,4,2,0,100,0,1
156632,-90.9090909090909,4,1,0,50,0,1
156807,-90.9090909090909,4,2,0,100,0,1
156983,-90.9090909090909,4,1,0,50,0,1
157334,-90.9090909090909,4,2,0,100,0,1
157509,-90.9090909090909,4,1,0,50,0,1
157860,-90.9090909090909,4,2,0,100,0,1
158386,-90.9090909090909,4,1,0,50,0,1
158562,-90.9090909090909,4,2,0,100,0,1
158737,-90.9090909090909,4,1,0,50,0,1
158825,-90.9090909090909,4,2,0,100,0,1
159351,-90.9090909090909,4,1,0,50,0,1
159614,-90.9090909090909,4,2,0,100,0,1
159702,-90.9090909090909,4,1,0,50,0,1
159877,-90.9090909090909,4,2,0,100,0,1
160491,-90.9090909090909,4,1,0,50,0,1
160842,-90.9090909090909,4,2,0,100,0,1
161281,-90.9090909090909,4,1,0,50,0,1
161369,-90.9090909090909,4,2,0,100,0,1
161983,-90.9090909090909,4,1,0,50,0,1
162334,-90.9090909090909,4,2,0,100,0,1
162421,-90.9090909090909,4,1,0,50,0,1
162597,-90.9090909090909,4,2,0,100,0,1
163123,-90.9090909090909,4,1,0,50,0,1
163211,-90.9090909090909,4,2,0,100,0,1
163474,-90.9090909090909,4,1,0,50,0,1
163562,-90.9090909090909,4,2,0,100,0,1
164176,-90.9090909090909,4,1,0,50,0,1
164263,-90.9090909090909,4,2,0,100,0,1
165404,-90.9090909090909,4,1,0,50,0,1
165579,-90.9090909090909,4,2,0,100,0,1
165667,-90.9090909090909,4,1,0,50,0,1
165842,-90.9090909090909,4,2,0,100,0,1
166369,-90.9090909090909,4,1,0,50,0,1
166456,-90.9090909090909,4,2,0,100,0,1
166632,-90.9090909090909,4,1,0,50,0,1
166720,-90.9090909090909,4,2,0,100,0,1
166807,-90.9090909090909,4,1,0,50,0,1
166983,-90.9090909090909,4,2,0,100,0,1
167070,-90.9090909090909,4,1,0,50,0,1
167684,-90.9090909090909,4,2,0,100,0,1
167860,-90.9090909090909,4,1,0,50,0,1
168035,-90.9090909090909,4,2,0,100,0,1
168123,-90.9090909090909,4,1,0,50,0,1
168562,-90.9090909090909,4,2,0,100,0,1
169439,-90.9090909090909,4,1,0,50,0,1
169614,-90.9090909090909,4,2,0,100,0,1
169790,-90.9090909090909,4,1,0,50,0,1
169965,-90.9090909090909,4,2,0,100,0,1
170316,-90.9090909090909,4,1,0,50,0,1
170667,-90.9090909090909,4,2,0,100,0,1
171105,-90.9090909090909,4,1,0,50,0,1
171281,-90.9090909090909,4,2,0,100,0,1
172334,-90.9090909090909,4,1,0,50,0,1
172509,-90.9090909090909,4,2,0,100,0,1
172597,-90.9090909090909,4,1,0,50,0,1
172772,-90.9090909090909,4,2,0,100,0,1
173211,-90.9090909090909,4,1,0,50,0,1
173562,-90.9090909090909,4,2,0,100,0,1
173649,-90.9090909090909,4,1,0,50,0,1
173825,-90.9090909090909,4,2,0,100,0,1
174351,-90.9090909090909,4,1,0,50,0,1
174439,-90.9090909090909,4,2,0,100,0,1
174702,-90.9090909090909,4,1,0,50,0,1
174790,-90.9090909090909,4,2,0,100,0,1
175404,-90.9090909090909,4,1,0,50,0,1
175930,-90.9090909090909,4,2,0,100,0,1
176018,-90.9090909090909,4,1,0,50,0,1
176105,-90.9090909090909,4,2,0,100,0,1
176456,-90.9090909090909,4,1,0,50,0,1
176544,-90.9090909090909,4,2,0,100,0,1
176895,-90.9090909090909,4,1,0,50,0,1
177158,-90.9090909090909,4,2,0,100,0,1
177334,-90.9090909090909,4,1,0,60,0,1
177684,-90.9090909090909,4,2,0,100,0,1
178035,-90.9090909090909,4,1,0,50,0,1
178211,-90.9090909090909,4,2,0,100,0,1
178298,-90.9090909090909,4,1,0,50,0,1
178562,-90.9090909090909,4,2,0,100,0,1
178737,-90.9090909090909,4,1,0,50,0,1
179263,-90.9090909090909,4,2,0,100,0,1
179965,-90.9090909090909,4,1,0,60,0,1
180316,-90.9090909090909,4,2,0,100,0,1
180842,-90.9090909090909,4,1,0,50,0,1
181018,-90.9090909090909,4,2,0,100,0,1
181105,-90.9090909090909,4,1,0,50,0,1
181281,-90.9090909090909,4,2,0,100,0,1
181807,-90.9090909090909,4,1,0,50,0,1
182070,-90.9090909090909,4,2,0,100,0,1
182158,-90.9090909090909,4,1,0,50,0,1
182334,-90.9090909090909,4,2,0,100,0,1
183562,-90.9090909090909,4,1,0,50,0,1
183737,-90.9090909090909,4,2,0,100,0,1
183825,-90.9090909090909,4,1,0,50,0,1
184000,-90.9090909090909,4,2,0,100,0,1
184527,-90.9090909090909,4,1,0,50,0,1
184790,-90.9090909090909,4,2,0,100,0,1
184877,-90.9090909090909,4,1,0,50,0,1
185228,-90.9090909090909,4,2,0,100,0,1
185579,-90.9090909090909,4,1,0,50,0,1
185667,-90.9090909090909,4,2,0,100,0,1
186632,-90.9090909090909,4,1,0,50,0,1
186807,-90.9090909090909,4,2,0,100,0,1
186983,-90.9090909090909,4,1,0,50,0,1
187158,-90.9090909090909,4,2,0,100,0,1
187860,-90.9090909090909,4,1,0,50,0,1
188035,-90.9090909090909,4,2,0,100,0,1
188123,-90.9090909090909,4,1,0,50,0,1
188298,-90.9090909090909,4,2,0,100,0,1
188386,-90.9090909090909,4,1,0,50,0,1
188562,-90.9090909090909,4,1,0,60,0,1
188912,-100,4,2,1,70,0,0
189263,-100,4,2,0,100,0,0
189527,-100,4,2,0,60,0,0
189790,-100,4,2,0,100,0,0
190053,-100,4,2,0,60,0,0
190316,-100,4,2,0,100,0,0
190579,-100,4,2,1,70,0,0
191193,-100,4,2,0,100,0,0
191369,-100,4,2,1,70,0,0
191544,-100,4,2,0,100,0,0
191720,-100,4,2,1,70,0,0
192070,-100,4,2,0,100,0,0
192334,-100,4,2,1,70,0,0
192597,-100,4,2,0,100,0,0
192772,-100,4,2,1,70,0,0
193123,-100,4,2,0,100,0,0
193825,-100,4,2,1,70,0,0
194000,-100,4,2,0,100,0,0
194176,-100,4,2,1,70,0,0
194263,-100,4,2,0,80,0,0
194351,-100,4,2,1,70,0,0
195228,-100,4,2,0,100,0,0
195491,-100,4,2,0,60,0,0
195579,-100,4,2,0,100,0,0
195755,-100,4,2,0,60,0,0
195930,-100,4,2,0,100,0,0
196105,-100,4,2,0,60,0,0
196193,-100,4,2,0,100,0,0
196632,-100,4,2,1,70,0,0
196983,-100,4,2,0,100,0,0
197334,-100,4,2,1,70,0,0
197684,-100,4,2,0,100,0,0
197948,-100,4,2,0,60,0,0
198035,-100,4,2,0,100,0,0
198562,-100,4,2,0,65,0,0
199614,-100,4,2,1,70,0,0
199790,-100,4,2,0,65,0,0
199965,-100,4,2,1,70,0,0
200842,-100,4,2,0,100,0,0
201105,-100,4,2,0,60,0,0
201193,-100,4,2,0,100,0,0
201544,-100,4,2,1,70,0,0
202246,-100,4,2,0,100,0,0
202421,-100,4,2,0,60,0,0
202597,-100,4,2,0,100,0,0
202948,-100,4,2,1,70,0,0
203298,-100,4,2,0,100,0,0
203474,-100,4,2,1,70,0,0
203825,-100,4,2,0,100,0,0
204000,-100,4,2,1,70,0,0
204088,-100,4,2,0,80,0,0
204176,-100,4,2,1,70,0,0
204351,-100,4,2,0,100,0,0
204527,-100,4,2,0,60,0,0
204614,-100,4,2,0,100,0,0
204790,-100,4,2,0,60,0,0
204877,-100,4,2,0,100,0,0
205053,-100,4,2,1,70,0,0
205228,-100,4,2,0,90,0,0
205579,-100,4,2,0,100,0,0
206018,-100,4,2,0,80,0,0
206193,-100,4,2,0,60,0,0
206281,-100,4,2,0,100,0,0
206456,-100,4,2,1,70,0,0
206720,-100,4,2,0,80,0,0
206895,-100,4,2,0,60,0,0
206983,-100,4,2,1,80,0,0
207334,-100,4,2,1,70,0,0
207509,-100,4,2,0,100,0,0
207684,-100,4,2,1,70,0,0
208562,-100,4,2,0,100,0,0
208825,-100,4,2,0,60,0,0
209088,-100,4,2,0,100,0,0
209351,-100,4,2,0,80,0,0
209614,-100,4,2,0,100,0,0
210141,-100,4,2,1,70,0,0
210316,-100,4,2,0,100,0,0
210491,-100,4,2,1,70,0,0
210842,-100,4,2,1,80,0,0
210930,-100,4,2,1,70,0,0
211018,-100,4,2,0,70,0,0
211632,-100,4,2,0,60,0,0
211720,-100,4,2,0,100,0,0
211983,-100,4,2,0,60,0,0
212070,-100,4,2,0,100,0,0
212246,-100,4,2,0,60,0,0
212421,-100,4,2,0,80,0,0
212597,-100,4,2,0,100,0,0
212860,-100,4,2,0,80,0,0
213123,-100,4,2,0,100,0,0
213386,-100,4,2,0,80,0,0
213562,-100,4,2,1,70,0,0
213825,-100,4,2,0,100,0,0
214000,-100,4,2,1,70,0,0
214351,-100,4,2,1,75,0,0
214527,-100,4,2,0,60,0,0
214702,-100,4,2,0,90,0,0
214877,-100,4,2,1,70,0,0
215228,-100,4,2,0,100,0,0
215491,-100,4,2,0,80,0,0
215930,-100,4,2,0,100,0,0
216105,-100,4,2,0,80,0,0
216281,-100,4,2,0,85,0,0
216456,-100,4,2,0,90,0,0
216544,-100,4,2,0,95,0,0
216632,-100,4,2,0,100,0,0
217246,-100,4,2,0,80,0,0
217509,-100,4,2,0,100,0,0
217772,-100,4,2,0,80,0,0
218035,-100,4,2,0,100,0,0
218211,-100,4,2,0,60,0,0
218474,-100,4,2,0,80,0,0
219088,-100,4,2,1,70,0,0
219263,-100,4,2,0,80,0,0
219439,-100,4,2,1,70,0,0
219790,-100,4,2,0,100,0,0
220053,-100,4,2,0,90,0,0
220404,-111.111111111111,4,2,0,70,0,0
220755,-117.647058823529,4,2,0,50,0,0
221105,-117.647058823529,4,2,0,30,0,0
221720,-100,4,2,1,50,0,0
221895,-100,4,2,0,70,0,0
222070,-100,4,2,0,60,0,0
222246,-100,4,2,0,90,0,0
222597,-100,4,2,1,70,0,0
223298,-100,4,2,0,90,0,0
223562,-100,4,2,0,60,0,0
223649,-100,4,2,0,90,0,0
224000,-100,4,2,1,70,0,0
224702,-100,4,2,0,90,0,0
224877,-100,4,2,0,60,0,0
225404,-100,4,2,1,70,0,0
225755,-100,4,2,0,90,0,0
225930,-100,4,2,1,70,0,0
226281,-100,4,2,0,90,0,0
226456,-100,4,2,1,70,0,0
226544,-100,4,2,0,90,0,0
226632,-100,4,2,1,70,0,0
226807,-100,4,2,0,90,0,0
226983,-100,4,2,0,60,0,0
227070,-100,4,2,0,90,0,0
227246,-100,4,2,0,60,0,0
227334,-100,4,2,0,90,0,0
227509,-100,4,2,1,70,0,0
227684,-100,4,2,0,90,0,0
228035,-100,4,2,0,100,0,0
228474,-100,4,2,0,60,0,0
228737,-100,4,2,0,90,0,0
228913,-100,4,2,1,70,0,0
229614,-100,4,2,0,100,0,0
229790,-100,4,2,1,70,0,0
229965,-100,4,2,0,100,0,0
230141,-100,4,2,1,70,0,0
230667,-100,4,2,0,75,0,0
233825,-90.9090909090909,4,1,0,50,0,1
234001,-90.9090909090909,4,2,0,100,0,1
234352,-90.9090909090909,4,1,0,50,0,1
234702,-90.9090909090909,4,2,0,100,0,1
235229,-90.9090909090909,4,1,0,50,0,1
235404,-90.9090909090909,4,2,0,100,0,1
235492,-90.9090909090909,4,1,0,50,0,1
235930,-90.9090909090909,4,2,0,100,0,1
236106,-90.9090909090909,4,1,0,50,0,1
236457,-90.9090909090909,4,2,0,100,0,1
236983,-90.9090909090909,4,1,0,50,0,1
237158,-90.9090909090909,4,2,0,100,0,1
238036,-90.9090909090909,4,1,0,50,0,1
238211,-90.9090909090909,4,2,0,100,0,1
238387,-90.9090909090909,4,1,0,50,0,1
238474,-90.9090909090909,4,2,0,100,0,1
238737,-90.9090909090909,4,1,0,50,0,1
239001,-90.9090909090909,4,2,0,92,0,1
239088,-90.9090909090909,4,2,0,100,0,1
239702,-90.9090909090909,4,1,0,50,0,1
239878,-90.9090909090909,4,2,0,100,0,1
239966,-90.9090909090909,4,1,0,50,0,1
240141,-90.9090909090909,4,2,0,100,0,1
240667,-90.9090909090909,4,1,0,50,0,1
240930,-90.9090909090909,4,2,0,100,0,1
241018,-90.9090909090909,4,1,0,50,0,1
241194,-90.9090909090909,4,2,0,95,0,1
241545,-90.9090909090909,4,2,0,100,0,1
242246,-90.9090909090909,4,2,0,95,0,1
242860,-90.9090909090909,4,2,0,100,0,1
243123,-90.9090909090909,4,2,0,85,0,1
243211,-90.9090909090909,4,2,0,90,0,1
243299,-90.9090909090909,4,2,0,100,0,1
243825,-90.9090909090909,4,1,0,50,0,1
243913,-90.9090909090909,4,2,0,100,0,1
244001,-90.9090909090909,4,1,0,50,0,1
244176,-90.9090909090909,4,2,0,100,0,1
244264,-90.9090909090909,4,1,0,50,0,1
244527,-90.9090909090909,4,2,0,95,0,1
244702,-90.9090909090909,4,2,0,100,0,1
244966,-90.9090909090909,4,1,0,50,0,1
245053,-90.9090909090909,4,2,0,100,0,1
245229,-90.9090909090909,4,1,0,50,0,1
245316,-90.9090909090909,4,2,0,100,0,1
245404,-90.9090909090909,4,1,0,50,0,1
245580,-90.9090909090909,4,2,0,100,0,1
245667,-90.9090909090909,4,1,0,50,0,1
245930,-90.9090909090909,4,2,0,100,0,1
246457,-90.9090909090909,4,1,0,50,0,1
246632,-90.9090909090909,4,2,0,100,0,1
246808,-90.9090909090909,4,1,0,50,0,1
246983,-90.9090909090909,4,2,0,100,0,1
247070,-90.9090909090909,4,1,0,50,0,1
247159,-90.9090909090909,4,2,0,100,0,1
247334,-90.9090909090909,4,1,0,50,0,1
247685,-90.9090909090909,4,2,0,100,0,1
248211,-90.9090909090909,4,1,0,50,0,1
248387,-90.9090909090909,4,2,0,100,0,1
248562,-90.9090909090909,4,1,0,50,0,1
248650,-90.9090909090909,4,2,0,100,0,1
249176,-90.9090909090909,4,1,0,50,0,1
249439,-90.9090909090909,4,2,0,100,0,1
249527,-90.9090909090909,4,1,0,50,0,1
249702,-90.9090909090909,4,2,0,100,0,1
250316,-90.9090909090909,4,1,0,50,0,1
250667,-90.9090909090909,4,2,0,100,0,1
251106,-90.9090909090909,4,1,0,50,0,1
251194,-90.9090909090909,4,2,0,100,0,1
251808,-90.9090909090909,4,1,0,50,0,1
252159,-90.9090909090909,4,2,0,100,0,1
252246,-90.9090909090909,4,1,0,50,0,1
252422,-90.9090909090909,4,2,0,100,0,1
252948,-90.9090909090909,4,1,0,50,0,1
253036,-90.9090909090909,4,2,0,100,0,1
253299,-90.9090909090909,4,1,0,50,0,1
253387,-90.9090909090909,4,2,0,100,0,1
254001,-90.9090909090909,4,1,0,50,0,1
254088,-90.9090909090909,4,2,0,100,0,1
255229,-90.9090909090909,4,1,0,50,0,1
255404,-90.9090909090909,4,2,0,100,0,1
255492,-90.9090909090909,4,1,0,50,0,1
255667,-90.9090909090909,4,2,0,100,0,1
256457,-90.9090909090909,4,1,0,50,0,1
256545,-90.9090909090909,4,2,0,100,0,1
256632,-90.9090909090909,4,1,0,50,0,1
256808,-90.9090909090909,4,2,0,100,0,1
256895,-90.9090909090909,4,1,0,50,0,1
257509,-90.9090909090909,4,2,0,100,0,1
257685,-90.9090909090909,4,1,0,50,0,1
257860,-90.9090909090909,4,2,0,100,0,1
257948,-90.9090909090909,4,1,0,50,0,1
258387,-90.9090909090909,4,2,0,100,0,1
259264,-90.9090909090909,4,1,0,50,0,1
259439,-90.9090909090909,4,2,0,100,0,1
259615,-90.9090909090909,4,1,0,50,0,1
259790,-90.9090909090909,4,2,0,100,0,1
260141,-90.9090909090909,4,1,0,50,0,1
261106,-90.9090909090909,4,2,0,100,0,1
262159,-90.9090909090909,4,1,0,50,0,1
262334,-90.9090909090909,4,2,0,100,0,1
262422,-90.9090909090909,4,1,0,50,0,1
262597,-90.9090909090909,4,2,0,100,0,1
263036,-90.9090909090909,4,1,0,50,0,1
263387,-90.9090909090909,4,2,0,100,0,1
263474,-90.9090909090909,4,1,0,50,0,1
263650,-90.9090909090909,4,2,0,100,0,1
264176,-90.9090909090909,4,1,0,50,0,1
264264,-90.9090909090909,4,2,0,100,0,1
264527,-90.9090909090909,4,1,0,50,0,1
264615,-90.9090909090909,4,2,0,100,0,1
265229,-90.9090909090909,4,1,0,50,0,1
265755,-90.9090909090909,4,2,0,100,0,1
265843,-90.9090909090909,4,1,0,50,0,1
265930,-90.9090909090909,4,2,0,100,0,1
266281,-90.9090909090909,4,1,0,50,0,1
266369,-90.9090909090909,4,2,0,100,0,1
266720,-90.9090909090909,4,1,0,50,0,1
266983,-90.9090909090909,4,2,0,100,0,1
267159,-90.9090909090909,4,1,0,60,0,1
267509,-90.9090909090909,4,2,0,100,0,1
267860,-90.9090909090909,4,1,0,50,0,1
268036,-90.9090909090909,4,2,0,100,0,1
268123,-90.9090909090909,4,1,0,50,0,1
268387,-90.9090909090909,4,2,0,100,0,1
268562,-90.9090909090909,4,1,0,50,0,1
269088,-90.9090909090909,4,2,0,100,0,1
269790,-90.9090909090909,4,1,0,60,0,1
270141,-90.9090909090909,4,2,0,100,0,1
270667,-90.9090909090909,4,1,0,50,0,1
270843,-90.9090909090909,4,2,0,100,0,1
270930,-90.9090909090909,4,1,0,50,0,1
271106,-90.9090909090909,4,2,0,100,0,1
271632,-90.9090909090909,4,1,0,50,0,1
271895,-90.9090909090909,4,2,0,100,0,1
271983,-90.9090909090909,4,1,0,50,0,1
272159,-90.9090909090909,4,2,0,100,0,1
273387,-90.9090909090909,4,1,0,50,0,1
273562,-90.9090909090909,4,2,0,100,0,1
273650,-90.9090909090909,4,1,0,50,0,1
273825,-90.9090909090909,4,2,0,100,0,1
274352,-90.9090909090909,4,1,0,50,0,1
274615,-90.9090909090909,4,2,0,100,0,1
274702,-90.9090909090909,4,1,0,50,0,1
275053,-90.9090909090909,4,2,0,100,0,1
275404,-90.9090909090909,4,1,0,50,0,1
275492,-90.9090909090909,4,2,0,100,0,1
276457,-90.9090909090909,4,1,0,50,0,1
276632,-90.9090909090909,4,2,0,100,0,1
276808,-90.9090909090909,4,1,0,50,0,1
276983,-90.9090909090909,4,2,0,100,0,1
277685,-90.9090909090909,4,1,0,50,0,1
277860,-90.9090909090909,4,2,0,100,0,1
277948,-90.9090909090909,4,1,0,50,0,1
278123,-90.9090909090909,4,2,0,100,0,1
278211,-90.9090909090909,4,1,0,50,0,1
278387,-90.9090909090909,4,1,0,60,0,1
278474,-90.9090909090909,4,2,1,75,0,1
278725,350.877192982456,4,2,1,50,1,0
279076,-100,4,2,0,100,0,0
279340,-100,4,2,0,60,0,0
279603,-100,4,2,0,100,0,0
279866,-100,4,2,0,60,0,0
280129,-100,4,2,0,100,0,0
280392,-100,4,2,1,70,0,0
281005,-100,4,2,0,100,0,0
281182,-100,4,2,1,70,0,0
281357,-100,4,2,0,100,0,0
281533,-100,4,2,1,70,0,0
281883,-100,4,2,0,100,0,0
282147,-100,4,2,1,70,0,0
282410,-100,4,2,0,100,0,0
282585,-100,4,2,1,70,0,0
282936,-100,4,2,0,100,0,0
283638,-100,4,2,1,70,0,0
283813,-100,4,2,0,100,0,0
283989,-100,4,2,1,70,0,0
285041,-100,4,2,0,100,0,0
285304,-100,4,2,0,60,0,0
285392,-100,4,2,0,100,0,0
285568,-100,4,2,0,60,0,0
285743,-100,4,2,0,100,0,0
286445,-100,4,2,1,70,0,0
286796,-100,4,2,0,100,0,0
287147,-100,4,2,1,70,0,0
287497,-100,4,2,0,100,0,0
287761,-100,4,2,0,60,0,0
287848,-100,4,2,0,100,0,0
288375,-100,4,2,0,65,0,0
289427,-100,4,2,1,70,0,0
289603,-111.111111111111,4,2,0,65,0,0
289778,-111.111111111111,4,2,1,70,0,0
289953,-100,4,2,1,70,0,0
290655,-100,4,2,0,100,0,0
290918,-100,4,2,0,60,0,0
291006,-100,4,2,0,100,0,0
291357,-100,4,2,1,70,0,0
292059,-100,4,2,0,100,0,0
292234,-100,4,2,1,70,0,0
292410,-100,4,2,0,60,0,0
292761,-100,4,2,1,70,0,0
293111,-100,4,2,0,100,0,0
293287,-100,4,2,1,70,0,0
293638,-100,4,2,0,100,0,0
293813,-100,4,2,1,70,0,0
293901,-100,4,2,0,80,0,0
293989,-100,4,2,1,70,0,0
294164,-100,4,2,0,100,0,0
294340,-100,4,2,0,60,0,0
294427,-100,4,2,0,100,0,0
294603,-100,4,2,0,60,0,0
294690,-100,4,2,0,100,0,0
294866,-100,4,2,1,70,0,0
295041,-100,4,2,0,90,0,0
295392,-100,4,2,0,100,0,0
295831,-100,4,2,0,80,0,0
296006,-100,4,2,0,60,0,0
296094,-100,4,2,0,100,0,0
296269,-100,4,2,1,70,0,0
296533,-100,4,2,0,80,0,0
296708,-100,4,2,0,60,0,0
296796,-100,4,2,1,80,0,0
296971,-100,4,2,0,100,0,0
297147,-100,4,2,1,70,0,0
297322,-100,4,2,0,100,0,0
297497,-100,4,2,1,70,0,0
298375,-100,4,2,0,100,0,0
298638,-100,4,2,0,60,0,0
298901,-100,4,2,0,100,0,0
299164,-100,4,2,0,80,0,0
299427,-100,4,2,0,100,0,0
299954,-100,4,2,1,70,0,0
300129,-100,4,2,0,100,0,0
300304,-100,4,2,1,70,0,0
300830,-100,4,2,0,70,0,0
301445,-100,4,2,0,60,0,0
301533,-100,4,2,0,100,0,0
301796,-100,4,2,0,60,0,0
301883,-100,4,2,0,100,0,0
302059,-100,4,2,0,60,0,0
302234,-100,4,2,0,80,0,0
302410,-100,4,2,0,100,0,0
302673,-100,4,2,0,80,0,0
302936,-100,4,2,0,100,0,0
303199,-100,4,2,0,80,0,0
303375,-100,4,2,1,70,0,0
303638,-100,4,2,0,100,0,0
303813,-100,4,2,1,70,0,0
304164,-100,4,2,1,55,0,0
304340,-100,4,2,0,40,0,0
304515,-100,4,2,0,70,0,0
304690,-100,4,2,1,40,0,0
305041,-100,4,2,0,80,0,0
305304,-100,4,2,0,60,0,0
305743,-100,4,2,0,80,0,0
305918,-100,4,2,0,60,0,0
306094,-100,4,2,0,65,0,0
306269,-100,4,2,0,70,0,0
306357,-100,4,2,0,75,0,0
306445,-100,4,2,0,80,0,0
307322,-100,4,2,0,100,0,0
307585,-100,4,2,0,80,0,0
307848,-100,4,2,0,100,0,0
308024,-100,4,2,0,60,0,0
308287,-100,4,2,0,80,0,0
308901,-100,4,2,1,70,0,0
309076,-100,4,2,0,80,0,0
309252,-100,4,2,1,70,0,0
309603,-100,4,2,0,80,0,0
309866,-100,4,2,0,70,0,0
310217,-100,4,2,0,60,0,0
310568,-100,4,2,0,50,0,0
310918,-100,4,2,1,40,0,0
311533,-100,4,2,0,50,0,0
311708,-100,4,2,0,60,0,0
311883,-100,4,2,0,40,0,0
312059,-100,4,2,0,70,0,0
312410,-100,4,2,1,40,0,0
313111,-100,4,2,0,50,0,0
313813,-100,4,2,1,20,0,0
314515,-100,4,2,0,50,0,0
314690,-100,4,2,1,20,0,0
315568,-100,4,2,0,50,0,0
315743,-100,4,2,0,20,0,0
316094,-100,4,2,0,50,0,0
316269,-100,4,2,0,20,0,0
316357,-100,4,2,0,50,0,0
316445,-100,4,2,1,20,0,0
316620,-100,4,2,0,50,0,0
316796,-100,4,2,0,20,0,0
316883,-100,4,2,0,50,0,0
317322,-100,4,2,1,20,0,0
317497,-100,4,2,0,50,0,0
318287,-100,4,2,0,20,0,0
318550,-100,4,2,0,50,0,0
318726,-100,4,2,1,20,0,0
319076,-100,4,2,1,30,0,0
319427,-100,4,2,0,60,0,0
319603,-100,4,2,0,30,0,0
319778,-100,4,2,0,60,0,0
319954,-100,4,2,1,20,0,0
321181,-100,4,2,0,5,0,0

[Colours]
Combo1 : 170,66,51
Combo2 : 116,143,171
Combo3 : 100,109,121

[HitObjects]
57,210,31720,2,0,B|93:154|77:86,1,127.5,0|0
72,68,32070,2,0,B|196:36,1,127.5,0|0
236,112,32509,1,0
236,112,32597,2,0,B|276:164|348:168,1,127.5
428,156,33035,2,0,B|440:196,1,42.5
400,320,33386,1,0
320,344,33562,1,0
320,344,33649,1,0
252,292,33825,6,0,B|216:264|208:220,1,85,2|0
288,196,34176,2,0,B|328:180|348:140,1,85,2|0
288,196,34527,21,2
228,136,34702,2,0,B|220:92,2,42.5,2|0|0
128,212,35141,1,0
60,160,35316,2,0,B|72:120,1,42.5,2|0
144,72,35579,1,2
164,68,35667,1,2
184,64,35755,1,2
204,60,35842,1,2
224,56,35930,5,0
340,112,36193,1,0
460,72,36456,1,0
436,156,36632,2,0,B|448:200,2,42.5,0|2|0
360,196,36983,1,2
356,216,37070,1,0
352,236,37158,1,2
348,256,37246,1,2
344,276,37334,21,2
216,292,37597,2,0,B|88:308,1,127.5,2|2
50,232,38035,2,0,B|42:164|74:108,1,127.5
85,91,38386,2,0,B|117:123|161:123,1,85
238,86,38737,6,0,B|270:54|314:54,1,85
335,57,39000,2,0,B|379:177,1,127.5
452,220,39439,1,2
392,280,39614,1,2
372,272,39702,1,2
352,264,39790,1,0
276,112,40141,21,2
156,76,40404,1,2
156,76,40491,1,0
72,172,40755,1,0
72,172,40842,1,0
88,256,41018,1,0
164,296,41193,1,0
184,288,41281,1,0
204,280,41369,2,2,B|232:268,4,21.25
372,299,41895,6,0,B|459:264,1,85
469,256,42158,2,0,B|445:217|456:173,1,85
462,154,42421,1,2
408,87,42597,2,0,B|428:63,4,21.25
353,152,42948,21,2
298,217,43123,1,2
298,217,43211,1,2
298,217,43298,1,2
248,56,43649,2,0,B|208:108|136:112,1,127.5
116,113,44000,2,0,B|108:197,1,85
149,272,44351,5,2
219,224,44527,1,2
223,203,44614,1,2
227,182,44702,1,2
210,98,44877,1,2
273,41,45053,2,0,B|320:34|351:63,1,85
420,145,45448,2,2,B|415:228|480:273,1,148.75,2|2
328,320,46018,21,2
328,320,46105,2,0,B|292:300|272:256,1,85,0|2
296,132,46544,1,2
296,132,46632,2,0,B|276:168|232:188,1,85,0|2
213,196,46895,1,0
193,203,46983,1,2
172,207,47070,1,2
150,208,47158,5,0
81,157,47334,1,0
81,157,47421,2,0,B|112:124|108:79,1,85
106,57,47684,2,0,B|190:46,1,85,0|2
263,89,48035,1,0
348,80,48211,1,0
404,144,48386,1,0
484,168,48562,21,0
484,168,48825,1,0
460,248,49000,1,0
460,248,49088,2,0,B|376:264,1,85,0|2
276,344,49527,1,0
232,272,49702,1,0
232,272,49790,1,2
147,273,49965,6,0,B|63:257,1,85,0|2
31,177,50316,2,0,B|42:135|84:113,1,85
103,107,50579,1,0
123,102,50667,2,0,B|167:93|189:51,1,85,2|0
195,32,50930,1,2
304,100,51193,1,2
368,160,51369,22,0,B|296:200|296:200|248:192,1,127.5
173,224,51807,1,0
173,224,51895,2,0,B|133:170|60:178,1,127.5
34,258,52334,2,0,B|59:300,1,42.5
127,342,52597,1,0
209,320,52772,5,0
291,347,52948,2,0,B|328:320|371:327,1,85,2|0
449,293,53298,1,2
441,273,53386,1,2
433,253,53474,1,2
425,233,53562,1,2
417,213,53649,2,2,B|410:193,3,21.25
401,173,53825,2,2,B|394:153,8,21.25
444,52,54439,21,0
444,52,54527,2,0,B|384:76|318:60,1,127.5
311,79,54877,2,0,B|291:122|245:131,1,85
186,70,55228,2,0,B|150:94|106:90,1,85
87,216,55667,6,0,B|171:200,1,85
192,196,55930,2,0,B|260:180|296:128,1,127.5
380,152,56369,1,0
380,152,56456,1,2
444,212,56632,2,0,B|432:300,1,85,0|2
356,260,56983,22,0,B|344:348,2,85,0|2|0
284,212,57509,2,0,B|238:213|208:180,1,85,0|2
156,64,57948,1,0
156,64,58035,2,0,B|224:52|276:104,1,127.5
326,167,58474,6,0,B|408:141,1,85
428,144,58737,2,0,B|430:190|467:218,1,85,0|0
423,291,59088,1,0
344,324,59263,1,0
304,312,59351,1,0
264,300,59439,1,0
180,308,59614,1,0
151,227,59790,21,0
44,160,60053,1,0
92,88,60228,1,0
92,88,60316,1,0
208,144,60579,1,0
288,176,60755,1,0
288,176,60842,1,0
344,111,61018,6,2,B|348:83,3,21.25
376,147,61281,1,0
448,103,61456,1,0
448,103,61544,1,0
460,232,61807,1,0
460,232,61895,2,0,B|376:248,1,85,2|0
316,308,62246,1,2
248,260,62421,1,2
248,260,62509,1,2
248,260,62597,21,0
136,320,62860,1,0
136,320,62948,1,0
140,192,63211,1,0
140,192,63298,1,0
248,260,63562,1,0
248,260,63649,1,0
136,320,63912,5,0
136,320,64000,1,0
80,256,64176,1,0
140,192,64351,1,0
200,132,64527,2,0,B|220:96|216:48,1,85,2|0
140,192,65053,1,0
220,216,65228,1,0
240,208,65316,1,0
260,200,65404,21,2
328,152,65579,1,2
348,160,65667,1,2
368,168,65755,1,2
368,168,66105,2,0,B|364:240|406:286,1,127.5
419,302,66456,2,0,B|391:340|346:344,1,85
280,291,66807,5,2
196,304,66983,2,0,B|180:344,2,42.5,2|2|2
144,236,67334,1,0
92,168,67509,2,0,B|52:152|36:108,1,85,0|2
92,168,67904,2,2,B|126:132|181:132,1,95.6249954402449,2|0
198,134,68211,22,0,B|280:118|280:118|312:85,1,127.5,2|2
330,77,68562,2,0,B|375:70|413:91,1,85,0|2
412,91,69000,1,0
412,91,69088,1,0
378,170,69263,1,0
368,188,69351,1,0
360,207,69439,1,0
350,227,69527,1,0
343,245,69614,5,0
258,258,69790,1,0
258,258,69877,1,0
184,216,70053,1,0
184,216,70141,2,0,B|172:172|136:148,1,85,0|2
52,132,70491,1,0
136,148,70667,1,0
220,128,70842,2,0,B|320:104,1,85
414,169,71281,22,0,B|453:147|466:101,1,85
470,83,71544,1,0
396,40,71720,2,0,B|340:76|270:58,1,127.5,2|0
254,51,72070,1,0
234,42,72158,1,0
216,30,72246,1,2
134,54,72421,5,0
194,114,72597,2,0,B|221:150|209:196,2,85,2|0|0
134,54,73123,1,2
67,107,73298,1,2
59,127,73386,1,2
51,147,73474,6,2,B|39:175,8,21.25,2|2|2|2|2|2|2|2|0
420,248,76632,22,0,B|380:264|336:256,1,85,0|2
315,251,76895,1,0
294,243,76983,1,8
236,180,77158,1,2
156,204,77334,2,0,B|148:248,2,42.5,2|0|8
80,164,77684,1,2
70,144,77772,1,8
64,123,77860,1,0
63,101,77948,1,0
67,80,78035,21,8
152,77,78211,2,0,B|196:75|229:48,1,85,2|2
244,32,78474,2,0,B|294:74|363:67,1,127.5
384,66,78825,1,0
404,61,78912,1,8
454,129,79088,2,4,B|437:212,1,85,0|8
363,256,79439,5,0
292,210,79614,1,0
274,197,79702,1,0
256,184,79790,1,8
188,132,79965,1,2
104,148,80141,2,0,B|64:156,2,42.5,2|0|2
188,132,80491,1,0
208,124,80579,1,0
226,112,80667,1,0
242,98,80755,1,0
255,82,80842,21,8
332,44,81018,2,0,B|372:56,1,42.5,2|8
436,152,81281,2,0,B|396:140,1,42.5,2|8
324,192,81544,1,0
318,212,81632,1,0
315,233,81720,1,8
265,301,81895,1,0
247,289,81983,1,2
227,281,82070,1,0
206,277,82158,1,0
184,278,82246,6,0,B|140:284|104:256,1,85,0|2
88,240,82509,2,0,B|104:152,1,85
108,135,82772,1,0
158,66,82948,1,8
174,52,83035,1,0
193,43,83123,1,2
214,42,83211,1,0
234,48,83298,1,8
251,59,83386,1,0
270,68,83474,2,4,B|311:85|356:67,1,85,2|8
457,141,83912,22,0,B|430:267,1,127.5,8|8
345,253,84351,1,0
324,259,84439,1,0
303,265,84527,1,0
283,272,84614,1,0
262,278,84702,2,2,B|172:304|172:304|97:286,1,170,2|0
109,202,85228,6,0,B|97:162,2,42.5,2|0|2
192,220,85579,2,0,B|220:188|264:180,1,85,0|8
348,204,85930,1,8
400,136,86105,1,0
392,116,86193,1,0
384,96,86281,2,0,B|374:72,4,21.25
264,52,86807,22,8,B|184:76,1,85,8|0
162,83,87070,1,8
37,84,87246,2,0,B|78:71,1,42.5
39,170,87509,2,2,B|80:213|69:277,1,114.749994528294,2|0
80,294,87860,6,0,B|124:306|164:286,1,85
181,276,88123,1,0
197,261,88211,1,0
260,204,88386,1,0
340,172,88562,2,0,B|424:192,1,85,8|0
436,276,88912,2,0,B|352:256,1,85,8|8
280,296,89263,21,0
232,228,89439,1,0
217,212,89527,1,0
200,199,89614,2,0,B|166:169|118:173,1,85
72,104,89965,2,0,B|28:112,2,42.5,8|0|0
156,89,90316,2,12,B|176:80|176:80|216:86|216:86|237:78,1,85,8|0
304,132,90667,6,0,B|343:159|398:149|418:116,1,127.5
418,116,91018,2,0,B|452:144|464:188,1,85,8|0
328,264,91456,1,0
328,264,91544,2,0,B|288:244|244:252,1,85,8|0
224,257,91807,1,8
204,264,91895,1,0
185,274,91983,1,0
168,286,92070,21,8
104,342,92246,2,0,B|99:383,2,42.5,2|0|2
48,277,92597,2,0,B|60:192,1,85,8|0
63,171,92860,1,0
66,149,92948,1,8
140,104,93123,1,8
180,32,93298,1,8
264,38,93474,6,0,B|296:70|342:63,1,85,0|2
342,63,93737,1,0
342,63,93825,1,2
424,36,94000,1,8
408,120,94176,2,0,B|439:147,2,42.5,0|0|2
344,176,94527,1,2
352,196,94614,1,0
360,216,94702,2,0,B|380:260|364:300,1,85,0|8
284,324,95053,21,0
269,308,95141,1,0
252,295,95228,1,8
172,272,95404,1,2
177,251,95491,1,0
178,229,95579,1,0
174,207,95667,1,0
165,187,95755,1,0
152,170,95842,1,0
136,155,95930,1,0
56,128,96105,1,0
120,72,96281,6,0,B|168:52|168:52|200:60,1,85,8|2
219,67,96544,1,0
239,73,96632,1,2
259,80,96720,1,0
278,86,96807,1,8
326,155,96983,1,2
346,149,97070,1,0
366,142,97158,1,2
385,136,97246,1,0
405,130,97334,1,8
448,56,97509,1,8
405,130,97684,21,8
452,200,97860,2,0,B|424:232|376:236,1,85,0|8
317,296,98211,1,0
297,288,98298,1,0
275,285,98386,1,0
253,288,98474,1,0
233,297,98562,2,0,B|210:318,4,21.25,0|0|0|0|0
192,132,99088,5,0
177,215,99263,2,0,B|228:232,2,42.5,2|0|8
93,230,99614,1,2
48,157,99790,2,0,B|68:115|109:102,1,85,8|0
192,132,100141,1,0
272,104,100316,2,0,B|316:112|356:92,1,85,8|2
373,82,100579,21,0
390,69,100667,1,2
472,56,100842,1,8
443,136,101018,1,0
430,152,101105,1,0
420,171,101193,1,0
414,191,101281,1,0
411,212,101369,1,0
459,280,101544,1,8
400,340,101720,1,0
332,292,101895,6,0,B|248:276,1,85
228,284,102158,1,0
208,292,102246,1,2
144,344,102421,1,8
96,272,102597,2,0,B|52:260,2,42.5,0|0|2
156,212,102948,2,0,B|196:188|204:144,1,85
172,66,103298,21,2
250,33,103474,2,2,B|280:45,3,21.25
289,47,103649,2,0,B|376:29,1,85,8|0
455,72,104000,1,8
392,140,104176,1,0
404,180,104263,1,0
416,220,104351,1,0
364,288,104527,1,0
300,232,104702,6,0,B|216:216,1,85,0|2
216,216,104965,1,0
216,216,105053,1,2
156,276,105228,1,0
80,240,105404,2,0,B|72:196|36:168,1,85,8|0
46,84,105755,1,0
128,64,105930,2,0,B|144:52,3,21.25
140,92,106193,21,2
160,97,106281,1,2
181,100,106369,1,2
201,103,106456,2,0,B|237:47|309:39,1,127.5,8|0
316,58,106807,2,0,B|339:98|388:106,1,85,0|8
444,164,107158,1,0
424,248,107334,1,0
403,252,107421,1,0
382,256,107509,6,0,B|312:264|260:220,1,127.5,8|0
248,208,107860,2,0,B|264:128|264:128|256:84,1,127.5,8|0
252,64,108211,2,0,B|193:48|140:75,1,114.749994528294,8|0
127,85,108562,2,0,B|146:117|146:117|151:152|130:186,1,108.374995478243,8|0
122,200,108912,21,0
69,250,109088,1,0
138,273,109263,2,0,B|225:299,1,85
300,322,109614,1,2
320,314,109702,1,0
340,306,109790,1,2
419,276,109965,1,2
414,255,110053,1,0
412,233,110141,1,2
413,211,110228,1,0
417,190,110316,5,0
452,113,110491,2,0,B|471:71,2,42.5
367,126,110842,1,0
299,78,111018,2,0,B|259:162,1,85,8|0
261,240,111369,1,8
344,256,111544,2,0,B|380:232|424:240,1,85,8|0
444,324,111895,22,0,B|496:332,2,42.5
360,340,112246,1,0
280,316,112421,1,8
260,308,112509,1,0
240,300,112597,1,0
156,300,112772,2,4,B|140:216,1,85,8|0
60,184,113123,6,0,B|76:140|123:120|168:133,1,127.5
163,131,113474,1,8
204,60,113649,2,0,B|260:92|328:76,1,127.5
327,76,114000,1,8
404,44,114176,1,0
417,60,114263,1,8
427,78,114351,1,0
433,98,114439,1,0
434,119,114527,21,8
420,204,114702,2,0,B|412:248,2,42.5,2|0|2
356,148,115053,1,8
304,216,115228,1,0
284,224,115316,1,0
264,232,115404,1,8
192,276,115579,2,8,B|168:236|120:232,1,85
64,294,115930,5,8
123,233,116105,1,2
130,212,116193,1,0
137,191,116281,1,2
121,107,116456,1,0
39,83,116632,2,0,B|3:55|-1:11,2,85,0|2|2
121,107,117158,2,0,B|157:83|201:91,1,85,0|8
288,80,117509,21,0
307,72,117597,1,0
326,64,117684,1,8
366,139,117860,1,0
385,131,117948,1,0
404,123,118035,1,0
444,198,118211,1,0
463,190,118298,1,0
482,182,118386,22,0,B|506:172,8,21.25
408,288,119000,21,0
408,288,119088,1,0
356,221,119263,2,0,B|309:176|236:181,2,127.5
356,221,119877,1,0
356,221,119965,1,0
216,308,120316,21,0
136,284,120491,2,0,B|97:239|92:163|92:163|120:116,1,170,0|8
124,110,120930,1,0
135,92,121018,1,0
213,60,121193,1,0
228,75,121281,1,0
245,87,121369,1,0
263,96,121456,2,0,B|285:108|310:108,1,42.5
71,302,144000,22,0,B|106:267|157:271,1,93.4999972134829,0|2
179,273,144263,1,0
201,281,144351,1,0
283,324,144527,2,0,B|301:229,1,93.4999972134829,0|2
393,231,144877,2,0,B|383:292,2,46.7499986067415,2|0|0
449,156,145228,1,2
422,66,145404,22,0,B|395:20|347:14,1,93.4999972134829,0|2
326,24,145667,2,0,B|241:65|241:65|195:56,1,140.249995820224,0|0
117,107,146105,1,2
140,197,146281,1,0
234,201,146456,2,0,B|269:164|320:168,1,93.4999972134829
340,173,146720,1,0
361,183,146807,5,0
430,244,146983,1,0
417,263,147070,1,0
402,281,147158,1,0
329,340,147334,2,2,B|334:366,4,23.3749993033707
314,321,147597,1,0
294,307,147684,1,0
271,302,147772,1,0
247,302,147860,2,0,B|231:211,1,93.4999972134829
140,184,148211,22,0,B|130:124,2,46.7499986067415
104,269,148562,2,0,B|154:285,1,46.7499986067415
46,198,148825,2,0,B|-4:182,1,46.7499986067415
48,102,149088,2,0,B|19:92,4,23.3749993033707
140,83,149439,1,2
160,69,149527,1,2
179,56,149614,5,2
270,36,149790,1,2
291,43,149877,2,0,B|337:55|361:101,1,93.4999972134829,0|2
369,122,150141,2,0,B|465:137,2,93.4999972134829
276,135,150667,1,2
252,131,150755,1,0
229,127,150842,2,0,B|177:122|133:138|101:175,1,140.249995820224,0|2
93,195,151193,22,0,B|137:218|147:270,1,93.4999972134829,0|0
211,335,151544,2,0,B|199:382,2,46.7499986067415,0|0|2
286,280,151895,1,0
306,267,151983,1,0
326,256,152070,2,2,B|370:281|417:263,1,93.4999972134829
438,254,152334,1,0
459,244,152421,6,0,B|439:153,1,93.4999972134829
447,131,152684,1,0
456,109,152772,1,0
380,53,152948,2,2,B|395:11,4,23.3749993033707
295,93,153298,1,0
274,107,153386,1,0
253,115,153474,1,0
229,115,153562,1,0
205,107,153649,2,2,B|182:59|133:48,1,93.4999972134829
48,83,154000,21,0
54,105,154088,1,2
62,127,154176,1,0
29,214,154351,1,2
42,232,154439,2,0,B|133:215,1,93.4999972134829
147,233,154702,1,2
161,251,154790,1,2
180,264,154877,2,0,B|225:258|225:258|240:306|285:326,1,140.249995820224
307,332,155228,6,0,B|395:304,1,93.4999972134829,2|0
410,284,155491,1,2
422,263,155579,2,0,B|485:283,2,46.7499986067415,0|0|2
413,240,155842,1,0
404,217,155930,1,0
319,175,156105,2,2,B|302:222,2,46.7499986067415
397,123,156456,2,0,B|392:77|352:45,1,93.4999972134829,2|0
328,48,156720,21,0
305,52,156807,1,2
229,108,156983,1,0
206,112,157070,2,0,B|158:123|116:99,1,93.4999972134829
94,89,157334,2,0,B|52:176,1,93.4999972134829
78,263,157684,2,0,B|125:269|154:314,1,93.4999972134829,0|2
176,309,157948,1,0
198,306,158035,5,0
287,332,158211,2,2,B|300:284,1,46.7499986067415,2|0
328,322,158386,2,0,B|340:274,1,46.7499986067415
370,313,158562,1,2
433,243,158737,2,0,B|481:231,1,46.7499986067415
443,203,158912,2,0,B|491:190,1,46.7499986067415,2|0
452,161,159088,2,0,B|476:67,1,93.4999972134829,2|2
467,47,159351,1,0
457,25,159439,22,0,B|413:42|366:32,1,93.4999972134829,0|2
345,44,159702,1,0
325,57,159790,1,0
305,69,159877,2,0,B|212:51,1,93.4999972134829,0|2
190,45,160141,2,0,B|149:77|153:128,1,93.4999972134829,2|0
77,180,160491,1,0
111,267,160667,6,0,B|98:312,2,46.7499986067415
187,212,161018,1,2
207,221,161105,2,0,B|225:319,1,93.4999972134829,2|0
245,323,161369,1,0
323,272,161544,2,0,B|369:280|397:325,2,93.4999972134829,2|0|2
308,252,161983,2,0,B|292:208|316:161|316:161|401:117,1,186.999994426966,0|2
421,109,162421,22,0,B|449:150|502:153,1,93.4999972134829
499,247,162772,1,0
429,310,162948,1,0
342,344,163123,1,0
319,338,163211,1,0
296,331,163298,1,0
231,263,163474,1,0
208,270,163562,1,0
185,276,163649,6,0,B|155:232|106:227,2,93.4999972134829,2|0|2
275,249,164176,2,0,B|323:262,2,46.7499986067415,0|0|2
243,160,164527,1,0
235,138,164614,1,2
218,119,164702,1,0
197,106,164790,1,0
174,99,164877,1,2
81,111,165053,22,0,B|52:196|52:196|62:249,1,140.249995820224,2|2
68,267,165404,2,0,B|113:250|161:273,1,93.4999972134829,0|2
180,283,165667,2,0,B|220:309|270:295,1,93.4999972134829,0|2
291,287,165930,1,0
312,276,166018,1,0
329,261,166105,2,2,B|360:234|360:234|416:215|416:215|448:187,1,140.249995820224,2|0
461,174,166456,6,0,B|467:126|436:86,1,93.4999972134829
418,69,166720,1,0
399,56,166807,1,0
326,121,166983,2,0,B|280:135,1,46.7499986067415
221,58,167246,1,0
198,64,167334,1,0
175,70,167421,1,0
152,76,167509,2,0,B|118:115|72:119,1,93.4999972134829
62,212,167860,22,0,B|72:308,1,93.4999972134829,0|2
75,328,168123,2,0,B|124:310|168:331,1,93.4999972134829
185,343,168386,1,0
202,359,168474,1,0
215,377,168562,1,0
304,353,168737,2,0,B|311:302|353:276,1,93.4999972134829,2|0
405,198,169088,1,2
395,176,169176,1,2
386,154,169263,5,2
306,105,169439,1,0
296,127,169527,1,0
287,149,169614,1,2
195,127,169790,2,0,B|185:104,4,23.3749993033707
184,148,170053,1,2
169,165,170141,1,2
150,178,170228,1,0
129,189,170316,2,0,B|104:280,1,93.4999972134829
97,302,170579,22,0,B|190:295,1,93.4999972134829
208,308,170842,2,0,B|301:302,1,93.4999972134829,2|0
320,314,171105,2,0,B|413:307,1,93.4999972134829,0|2
433,319,171369,1,2
484,241,171544,2,0,B|510:255,4,23.3749993033707
405,189,171895,1,0
417,170,171983,1,0
429,150,172070,5,2
446,57,172246,1,0
429,40,172334,2,0,B|388:62|339:52,1,93.4999972134829
316,44,172597,1,0
235,91,172772,1,2
141,93,172948,1,2
63,144,173123,21,2
64,167,173211,1,0
67,189,173298,1,0
73,211,173386,1,0
81,232,173474,1,0
92,252,173562,1,0
105,270,173649,1,0
184,318,173825,6,2,B|232:335|275:308,2,93.4999972134829
187,223,174351,2,0,B|171:180,2,46.7499986067415
280,211,174702,2,0,B|296:256,2,46.7499986067415
290,118,175053,2,2,B|320:82|372:74,1,93.4999972134829
463,71,175404,2,0,B|489:71,4,23.3749993033707
454,91,175667,1,0
448,113,175755,1,0
445,135,175842,1,0
445,159,175930,1,2
447,182,176018,1,0
451,204,176105,1,2
487,289,176281,21,2
407,339,176456,1,0
384,346,176544,1,0
360,349,176632,1,0
273,314,176807,1,0
290,296,176895,2,0,B|269:205,1,93.4999972134829
280,184,177158,1,0
291,163,177246,1,0
302,144,177334,2,0,B|259:86|176:80,1,140.249995820224,0|0
158,83,177684,6,0,B|64:98,1,93.4999972134829,2|0
57,120,177948,1,2
50,142,178035,1,0
83,229,178211,1,2
100,243,178298,2,0,B|192:222,1,93.4999972134829
212,234,178562,1,2
230,247,178649,1,2
249,259,178737,2,0,B|297:270|341:244,1,93.4999972134829
413,188,179088,21,0
403,166,179176,1,0
393,144,179263,1,0
440,63,179439,2,0,B|401:36,1,46.7499986067415
308,52,179702,1,0
285,57,179790,2,0,B|258:94|204:100,1,93.4999972134829,2|0
117,67,180141,1,0
37,116,180316,1,2
30,138,180404,1,2
23,160,180491,5,2
93,222,180667,1,0
99,200,180755,1,0
106,178,180842,1,0
198,163,181018,1,2
192,185,181105,1,0
185,207,181193,1,0
177,229,181281,1,0
170,251,181369,1,0
163,273,181456,1,0
155,295,181544,2,0,B|143:342|97:368,1,93.4999972134829,2|0
76,373,181807,22,0,B|56:330|8:313,1,93.4999972134829,0|0
12,289,182070,1,2
17,266,182158,1,0
21,243,182246,1,0
26,220,182334,2,0,B|73:201|98:151,1,93.4999972134829,2|0
100,135,182597,2,0,B|193:124,1,93.4999972134829,2|0
286,113,182948,1,2
250,199,183123,1,2
242,220,183211,1,0
235,241,183298,5,0
208,330,183474,1,0
229,339,183562,2,0,B|323:323,1,93.4999972134829
341,334,183825,1,0
358,242,184000,2,0,B|454:262,2,93.4999972134829,0|2|0
352,218,184439,1,0
346,195,184527,2,0,B|332:123|260:90,1,140.249995820224,0|2
239,81,184877,22,0,B|193:63|146:74,1,93.4999972134829,0|0
61,109,185228,2,2,B|43:203,1,93.4999972134829
77,287,185579,1,0
99,282,185667,1,2
121,276,185755,2,0,B|174:261|174:261|260:280,1,140.249995820224,2|0
280,283,186105,6,0,B|328:282|361:245,1,93.4999972134829,2|0
452,267,186456,1,2
427,176,186632,1,0
421,153,186720,1,0
414,130,186807,1,2
380,42,186983,1,0
360,54,187070,1,0
338,63,187158,1,2
314,65,187246,1,0
291,59,187334,1,2
208,14,187509,22,0,B|191:57|191:57|157:88|106:93,1,140.249995820224,2|2
91,110,187860,2,0,B|104:207|104:206,1,93.4999972134829,0|2
91,222,188123,2,0,B|104:319|104:318,1,93.4999972134829
120,330,188386,1,0
141,340,188474,1,0
163,346,188562,2,0,B|216:337|216:337|256:346|295:337|295:337|348:346,1,186.999994426966,0|2
448,264,189176,21,2
445,243,189263,2,0,B|434:172|379:137,1,127.5
392,52,189702,1,0
392,52,189790,2,0,B|331:61|331:61|269:42,1,127.5
208,101,190228,1,0
227,108,190316,6,0,B|351:147,1,127.5
396,216,190755,1,0
396,216,190842,2,0,B|442:210|477:237,2,85,2|2|0
316,247,191369,2,0,B|279:258|279:258|233:253,1,85,2|0
148,240,191720,22,0,B|106:231|84:188,1,85,2|2
74,169,191983,1,2
66,149,192070,2,0,B|101:111|101:111|122:32,1,127.5
202,59,192509,1,2
202,59,192597,1,0
270,108,192772,1,2
290,101,192860,1,2
310,94,192948,1,2
329,87,193035,1,2
349,80,193123,6,0,B|431:50|431:50|475:58,2,127.5
357,164,193825,2,0,B|407:146,2,42.5,0|2|0
348,248,194176,1,0
345,268,194263,1,0
339,288,194351,1,2
329,306,194439,1,2
316,323,194527,22,0,B|189:307,1,127.5,2|2
66,341,195053,1,2
113,270,195228,2,0,B|92:230|106:186,1,85
113,167,195491,1,0
122,147,195579,2,0,B|144:108|134:63,1,85
215,40,195930,6,0,B|273:70|340:54,2,127.5
134,64,196632,1,2
78,129,196807,1,2
82,149,196895,1,2
86,169,196983,1,0
86,169,197334,22,0,B|101:233|162:266,1,127.5,2|2
181,274,197684,2,0,B|241:298|241:298|306:294,1,127.5
324,291,198035,2,0,B|348:256|394:245,1,85
457,189,198386,1,0
452,168,198474,1,0
446,147,198562,2,2,B|437:112,4,21.25
310,44,199088,6,0,B|295:85|255:106,1,85
236,116,199351,2,0,B|247:201,1,85
250,221,199614,1,2
208,295,199790,22,2,B|177:319|177:319|141:285|92:276|92:276|96:239,1,170,0|2
79,156,200316,2,0,B|39:164,2,42.5,2|2|2
213,51,200842,2,0,B|244:87|244:87|320:121,1,127.5
336,128,201193,2,0,B|363:164|355:209,1,85
311,281,201544,5,2
230,309,201720,1,2
209,302,201807,1,2
188,295,201895,1,2
143,222,202070,2,0,B|51:189,2,85,2|0|0
246,194,202641,2,0,B|279:151|279:151|268:56,1,148.75,0|2
394,81,203211,21,2
394,82,203298,1,0
444,151,203474,2,0,B|460:218|418:272,1,127.5,2|2
404,287,203825,2,0,B|319:275,1,85,0|2
298,271,204088,1,0
277,267,204176,1,2
256,263,204263,1,2
234,259,204351,5,0
160,301,204527,2,0,B|106:292,1,42.5
102,205,204790,2,0,B|144:212,1,42.5
78,123,205053,2,0,B|101:85|94:42,1,85,2|0
178,50,205404,1,0
260,32,205579,1,0
335,71,205755,22,0,B|464:54,1,127.5
486,135,206193,2,0,B|437:142,1,42.5
397,212,206456,2,0,B|372:248|323:252,1,85,2|0
303,254,206720,2,0,B|257:258|230:290,1,85
219,310,206983,1,2
135,297,207158,6,0,B|124:320,4,21.25
105,218,207509,1,0
189,229,207684,2,0,B|181:183,2,42.5,0|0|2
268,200,208035,1,2
271,179,208123,2,0,B|284:111|343:73,1,127.5,2|2
421,96,208562,22,0,B|354:93|302:50,1,127.5
224,81,209000,1,0
204,88,209088,2,0,B|124:115,1,85
103,123,209351,1,0
84,133,209439,1,0
68,147,209527,1,0
56,164,209614,2,0,B|29:200|29:245,1,85
98,292,209965,6,0,B|139:274|162:237,1,85,0|2
195,161,210316,2,0,B|279:178,1,85,0|2
299,182,210579,1,2
319,186,210667,1,2
339,190,210755,1,2
359,194,210842,2,2,B|393:200,4,21.25
359,194,211369,22,0,B|348:260|400:308,1,127.5
417,321,211720,2,0,B|344:269|251:290,1,170
97,353,212421,1,0
41,288,212597,2,0,B|70:209|70:209|63:164,1,127.5
48,82,213035,5,0
69,84,213123,2,0,B|115:87|149:59,1,85
165,46,213386,2,0,B|252:62,1,85
269,66,213649,1,2
298,145,213825,1,0
244,210,214000,22,0,B|207:252|207:252|150:274|96:252,2,170,2|2|0
244,210,214877,1,2
391,294,215228,2,0,B|380:228|422:175,1,127.5
482,113,215667,5,0
469,96,215755,2,0,B|441:60|398:50,1,85
328,97,216105,1,0
244,77,216281,1,0
216,157,216456,1,0
177,173,216544,1,0
138,191,216632,1,0
96,264,216807,1,0
164,314,216983,22,0,B|230:306|277:250,1,127.5
358,256,217421,1,0
365,236,217509,2,0,B|389:162|389:162|432:129,1,127.5
384,59,217948,2,0,B|342:70,1,42.5
278,125,218211,2,2,B|254:119,4,21.25
298,131,218474,5,0
268,210,218649,1,0
268,210,218737,2,0,B|207:228|207:228|156:266,1,127.5
139,279,219088,2,0,B|94:276|65:240,1,85,2|0
86,158,219439,1,2
145,98,219614,1,2
166,101,219702,1,2
187,104,219790,22,0,B|256:113|308:73,1,127.5
324,60,220141,2,0,B|352:118|352:118|376:143|408:149,1,127.5
424,150,220491,2,0,B|362:150|319:190,1,114.749994528294
309,204,220842,2,0,B|300:242|315:272|315:272|345:296,1,108.374995478243
362,309,221193,6,0,B|392:286|430:285,2,72.2499969854952
285,346,221720,1,2
208,309,221895,2,0,B|82:324,1,127.5
60,327,222246,2,0,B|66:281|37:248,1,85
44,227,222509,1,0
51,206,222597,21,2
125,164,222772,1,2
118,143,222860,1,2
111,122,222948,1,2
258,38,223298,2,0,B|273:104|332:139,1,127.5
350,147,223649,1,0
433,161,223825,1,0
465,239,224000,6,0,B|439:320,1,85,2|2
418,323,224263,1,2
397,327,224351,1,2
324,282,224527,2,0,B|284:305|236:293,2,85,2|0|0
387,196,225097,22,2,B|396:141|363:94|303:92,1,148.75,2|2
179,111,225667,5,2
171,131,225755,2,0,B|156:172|113:188,1,85,0|2
167,303,226193,1,2
188,306,226281,2,0,B|271:318,1,85,0|2
282,299,226544,1,0
295,282,226632,1,2
312,270,226720,1,2
331,262,226807,22,0,B|375:249|412:272,1,85
430,284,227070,2,0,B|476:272|492:229,1,85
497,209,227334,2,0,B|464:177|468:132,1,85,0|2
490,50,227684,1,0
408,73,227860,1,0
326,96,228035,1,0
244,119,228211,6,0,B|181:121|128:69,1,127.5
51,102,228649,2,0,B|61:146,1,42.5
32,224,228912,2,0,B|68:251|112:244,1,85,2|0
133,239,229176,2,0,B|216:265,1,85
234,271,229439,1,2
300,324,229614,22,0,B|383:298,1,85,0|2
336,225,229965,2,0,B|419:199,1,85
437,193,230228,1,0
457,186,230316,2,0,B|452:140|476:105,1,85,2|2
487,87,230579,1,2
499,69,230667,22,2,B|516:46,7,21.25
72,88,233825,38,0,B|166:99,1,93.4999972134829,0|0
184,110,234088,1,2
204,122,234176,1,0
246,207,234351,1,0
267,199,234439,2,0,B|311:182|325:132,1,93.4999972134829
331,108,234702,1,2
341,87,234790,1,2
356,69,234877,1,2
442,33,235053,1,2
468,122,235228,22,0,B|498:222,1,93.4999972134829,0|2
501,233,235491,2,0,B|472:273|416:266,1,93.4999972134829,0|0
395,263,235755,2,0,B|346:250|305:280,1,93.4999972134829,0|2
262,362,236105,2,0,B|165:344,1,93.4999972134829
122,264,236456,1,2
99,269,236544,1,2
76,272,236632,5,2
25,194,236807,1,2
48,190,236895,1,0
71,185,236983,1,0
110,100,237158,2,2,B|85:93,4,23.3749993033707
132,107,237421,1,0
155,109,237509,1,0
179,106,237597,1,0
199,98,237684,2,0,B|247:75|250:22,1,93.4999972134829,0|2
267,9,237948,22,0,B|361:20,1,93.4999972134829,2|0
378,34,238211,2,0,B|471:44,1,93.4999972134829
487,61,238474,1,2
442,143,238649,1,2
459,159,238737,1,0
399,230,238912,2,0,B|418:251,4,23.3749993033707,0|0|2|2|2
307,251,239263,6,2,B|256:264,2,46.7499986067415
330,160,239614,1,2
307,156,239702,1,0
282,152,239790,1,0
259,150,239877,1,0
235,145,239965,2,0,B|206:186|154:189,1,93.4999972134829
62,179,240316,2,2,B|40:272,1,93.4999972134829
63,276,240579,1,0
85,283,240667,2,0,B|132:295|162:333,1,93.4999972134829,0|0
175,351,240930,21,0
195,339,241018,2,0,B|238:313|286:321,1,93.4999972134829
342,248,241369,1,2
331,227,241456,1,0
320,205,241544,1,0
238,160,241719,1,2
227,139,241806,1,0
216,117,241895,2,0,B|149:149|78:126,1,140.249995820224,2|0
57,117,242246,6,2,B|49:65|0:34,2,93.4999972134829
36,208,242772,2,0,B|27:232,4,23.3749993033707
125,179,243123,1,0
148,174,243211,1,2
169,167,243298,1,2
192,162,243386,1,0
213,156,243474,22,0,B|304:133,1,93.4999972134829,2|0
370,66,243825,2,0,B|433:49,2,46.7499986067415,0|2|0
395,156,244176,1,2
410,174,244263,2,0,B|445:209|494:208,1,93.4999972134829
499,231,244527,1,2
503,253,244614,1,2
507,275,244702,2,0,B|470:339|389:344,1,140.249995820224
368,346,245053,5,2
345,344,245141,1,0
320,339,245228,1,0
297,332,245316,1,2
275,324,245404,1,0
257,309,245491,1,0
239,293,245579,2,0,B|224:244,2,46.7499986067415,2|0|0
146,282,245930,2,2,B|130:234,2,46.7499986067415
114,371,246281,1,2
52,299,246456,21,0
45,277,246544,1,0
39,254,246632,1,2
17,162,246807,1,0
15,140,246895,1,0
22,115,246983,1,2
36,95,247070,1,0
54,83,247158,2,0,B|107:79|138:41,1,93.4999972134829,2|0
219,89,247509,1,0
295,37,247684,1,2
318,43,247772,1,2
340,49,247860,5,2
404,116,248035,1,2
425,121,248123,1,2
447,128,248211,2,0,B|479:219,1,93.4999972134829,0|2
481,239,248474,1,0
480,262,248562,1,0
472,283,248649,1,2
459,303,248737,1,2
441,318,248825,1,0
421,330,248912,2,0,B|378:353|327:335,1,93.4999972134829,2|0
307,328,249176,22,0,B|265:302|215:314,1,93.4999972134829,0|0
194,318,249439,2,0,B|169:228,1,93.4999972134829,2|0
148,218,249702,1,0
120,128,249877,1,2
98,116,249965,2,0,B|49:130|31:181,2,93.4999972134829,2|0|0
188,90,250491,1,0
211,86,250579,1,0
235,83,250667,6,0,B|268:116|322:112,1,93.4999972134829,2|0
344,111,250930,2,0,B|380:148|371:197,1,93.4999972134829,2|0
384,216,251193,2,0,B|362:312,1,93.4999972134829,2|0
278,347,251544,1,0
215,278,251719,2,0,B|159:296,2,46.7499986067415,2|0|0
94,206,252158,21,2
98,182,252246,2,0,B|114:88,1,93.4999972134829
199,53,252597,1,0
282,97,252772,2,0,B|324:123|374:110,1,93.4999972134829
394,104,253035,1,2
414,94,253123,2,2,B|454:174|454:174|447:227,1,140.249995820224,2|0
442,247,253474,6,2,B|432:298|463:337,2,93.4999972134829
368,188,254000,1,0
346,181,254088,1,0
324,172,254176,1,2
231,187,254351,1,0
207,193,254439,1,0
184,196,254527,1,2
161,201,254614,1,0
138,206,254702,1,2
48,229,254877,22,0,B|1:250|-10:308|26:348,1,140.249995820224,2|2
41,364,255228,2,0,B|87:353|130:381,1,93.4999972134829,0|2
153,376,255491,2,0,B|247:352|248:352,1,93.4999972134829
267,347,255755,1,2
289,340,255842,1,2
311,333,255930,1,2
370,166,256281,6,0,B|324:149|276:164,1,93.4999972134829,2|0
256,173,256544,1,2
234,181,256632,1,0
194,264,256807,2,0,B|136:285,3,46.7499986067415,2|0|0|0
127,287,257158,1,0
103,288,257246,1,0
80,283,257334,2,0,B|33:270|10:225,1,93.4999972134829,0|2
4,200,257597,22,0,B|28:106,1,93.4999972134829
33,86,257860,2,0,B|78:67|100:29|100:29|151:21,2,140.249995820224,2|0|0
105,145,258562,1,0
80,234,258737,1,0
129,314,258912,6,2,B|116:358,2,46.7499986067415
199,251,259263,2,0,B|210:205,2,46.7499986067415,0|0|2
217,342,259614,2,0,B|228:365,2,23.3749993033707
240,339,259790,1,0
262,331,259877,1,2
282,319,259965,1,2
300,303,260053,2,0,B|335:265|384:267,1,93.4999972134829
406,270,260316,22,0,B|421:178,1,93.4999972134829
444,178,260579,2,0,B|458:85,1,93.4999972134829
458,62,260842,1,0
447,40,260930,1,0
428,23,261018,1,0
408,12,261105,1,2
383,10,261193,1,0
355,100,261369,2,0,B|388:91,4,23.3749993033707
357,195,261719,1,0
333,203,261807,1,0
311,210,261895,6,0,B|220:233,1,93.4999972134829,2|2
196,228,262158,2,0,B|169:185|118:176,1,93.4999972134829,0|2
97,174,262421,1,0
34,101,262597,2,2,B|44:52|12:13,2,93.4999972134829
27,123,263035,1,0
18,145,263123,2,0,B|-12:225|49:273,1,140.249995820224,0|2
67,283,263474,22,0,B|161:271,1,93.4999972134829,0|2
252,260,263825,1,0
219,347,264000,1,2
161,272,264176,1,0
166,250,264263,1,2
176,228,264351,2,0,B|217:163|294:162,1,140.249995820224,2|0
316,162,264702,6,2,B|417:171,2,93.4999972134829
291,73,265228,2,0,B|248:67,4,23.3749993033707
314,73,265491,1,0
337,66,265579,1,0
357,56,265667,1,0
374,40,265755,1,2
395,47,265842,1,0
416,55,265930,1,2
476,128,266105,22,0,B|446:167|458:216,1,93.4999972134829
468,238,266369,1,2
478,258,266456,2,0,B|393:306,1,93.4999972134829,2|2
375,316,266720,2,0,B|335:338|285:326,1,93.4999972134829
263,316,266983,1,2
243,303,267070,1,2
226,286,267158,2,0,B|175:230|100:227,1,140.249995820224
78,225,267509,6,0,B|56:183,1,46.7499986067415,2|0
91,196,267684,2,0,B|68:154,1,46.7499986067415
104,171,267860,2,0,B|83:129,1,46.7499986067415,0|0
116,143,268035,2,0,B|94:101,1,46.7499986067415
129,118,268211,1,0
216,94,268386,1,2
238,98,268474,1,2
260,102,268562,2,0,B|311:111|353:84,1,93.4999972134829
444,87,268912,22,0,B|487:62,2,46.7499986067415,0|0|2
395,167,269263,1,0
384,188,269351,2,0,B|362:232|314:245,1,93.4999972134829,2|0
291,253,269614,2,0,B|243:264|218:309,2,93.4999972134829,2|0|0
289,157,270141,5,2
306,143,270228,1,2
318,123,270316,1,2
298,31,270491,1,2
278,43,270579,1,2
254,50,270667,1,0
231,53,270755,1,0
208,50,270842,1,2
186,43,270930,1,0
162,37,271018,1,0
139,34,271105,1,2
115,36,271193,1,2
94,47,271281,1,2
75,62,271369,2,0,B|52:86|49:123|60:149,1,93.4999972134829,2|0
71,171,271632,1,0
86,187,271720,21,0
83,208,271807,1,0
80,232,271895,1,2
76,255,271983,1,0
74,277,272070,1,0
72,299,272158,2,0,B|120:308|143:352,1,93.4999972134829,2|0
166,350,272421,2,0,B|258:336,1,93.4999972134829,2|0
351,319,272772,1,0
442,304,272948,1,2
450,282,273035,1,0
458,260,273123,5,0
392,189,273298,1,2
400,166,273386,1,0
336,97,273561,1,2
341,73,273649,1,0
435,81,273825,2,0,B|480:65|502:19,2,93.4999972134829,0|0|2
435,81,274263,1,0
435,81,274351,1,0
304,28,274614,21,2
287,44,274702,2,0,B|251:73|246:126,1,93.4999972134829
274,216,275053,2,0,B|315:192|367:203,2,93.4999972134829,2|0|0
254,230,275491,1,2
239,248,275579,2,0,B|99:228,1,140.249995820224,2|0
76,225,275930,5,2
9,157,276105,1,2
42,69,276281,1,2
136,59,276456,1,0
158,57,276544,1,0
181,55,276632,1,2
250,116,276807,1,0
273,113,276895,1,0
296,111,276983,1,2
319,109,277071,1,0
344,107,277159,1,2
426,147,277334,22,0,B|470:205|447:280,1,140.249995820224,2|2
437,300,277684,2,0,B|397:333|342:325,1,93.4999972134829
326,320,277948,2,0,B|232:340,1,93.4999972134829
211,345,278211,1,0
188,351,278298,1,0
165,356,278386,2,0,B|104:352|64:310|64:310|61:272|40:240,1,186.999994426966,0|2
173,142,278988,21,2
193,136,279076,2,0,B|234:122|234:122|281:130|321:117,1,127.5
400,138,279515,1,0
400,138,279602,2,0,B|410:89|383:47|342:37,1,127.5
258,43,280041,1,0
237,49,280129,6,0,B|168:68|112:36,1,127.5
52,96,280567,1,0
52,96,280655,1,2
74,177,280830,2,0,B|96:264,1,85,2|0
171,221,281181,2,0,B|191:303,1,85,2|0
268,340,281532,22,0,B|296:308|344:301,1,85,2|2
362,299,281795,1,2
383,301,281883,2,0,B|429:307|458:338|458:338|484:304,1,127.5
485,218,282322,1,2
465,210,282409,2,0,B|424:194|408:151,1,85
401,130,282672,1,2
398,108,282760,1,2
400,86,282848,1,2
405,65,282936,6,0,B|322:48,1,85
303,58,283199,2,0,B|220:41,1,85
201,51,283462,2,0,B|118:34,1,85
97,39,283725,1,2
79,50,283813,1,0
56,131,283988,2,0,B|76:172|123:181,1,85,0|2
142,184,284251,1,2
163,183,284339,22,0,B|288:160,2,127.5,2|2|2
154,267,285041,2,0,B|199:258|236:288,1,85
247,302,285304,1,0
261,317,285392,2,0,B|290:351|338:349,1,85
408,303,285743,6,0,B|428:217|428:217|452:187,2,127.5
343,247,286444,1,2
277,192,286620,2,0,B|268:233,2,42.5,2|2|0
111,226,287146,22,0,B|160:181|157:111,1,127.5,2|2
145,93,287497,2,0,B|183:151|250:158,1,127.5
270,159,287848,2,0,B|317:158|352:129,1,85
409,71,288199,1,0
421,87,288286,1,0
433,103,288374,2,2,B|452:128,4,21.25
365,259,288900,6,0,B|329:284|282:271,1,85
262,275,289164,2,0,B|217:285|195:323,1,85
187,342,289427,1,2
114,299,289602,22,2,B|53:278|24:220|49:162,1,170,2|2
104,99,290129,5,2
124,94,290216,1,2
144,89,290304,1,2
313,84,290655,2,0,B|325:134|325:134|380:194|380:193,1,127.5
391,204,291006,2,0,B|411:292,1,85
341,337,291357,22,0,B|312:303|268:301,1,85,2|2
245,301,291620,1,2
224,306,291707,1,2
150,348,291883,1,2
94,284,292058,2,0,B|107:200,1,85,0|2
32,124,292453,6,2,B|81:182|168:167,1,148.75,2|2
284,116,293023,1,2
304,108,293111,2,0,B|348:94|348:94|390:100,1,85,0|2
464,200,293550,1,2
444,208,293638,2,0,B|400:222|400:222|358:217,1,85,0|2
340,213,293900,1,0
318,210,293988,1,2
296,207,294076,1,2
274,204,294164,22,0,B|230:196|194:224,1,85
177,237,294427,2,0,B|95:197,1,85
81,190,294690,2,0,B|40:167|32:123,2,85
147,136,295216,1,0
232,142,295392,1,0
296,86,295567,6,0,B|380:96|380:96|416:122,1,127.5
461,192,296006,1,0
465,212,296093,2,0,B|474:261|442:293,1,85,0|2
362,314,296444,1,0
341,307,296532,2,0,B|299:293|260:315,1,85
241,327,296795,2,0,B|202:351|160:339,1,85,2|0
90,288,297146,21,2
59,208,297322,2,0,B|29:203,8,21.25,0|0|0|0|0|0|0|0|2
87,127,297848,1,2
108,124,297936,2,0,B|236:104,1,127.5,2|2
317,91,298374,6,0,B|372:132|442:108|441:108,1,127.5
488,177,298813,2,0,B|477:217,1,42.5
392,207,299076,2,0,B|385:227,8,21.25
316,168,299602,2,0,B|270:156|235:187,1,85
212,267,299953,22,0,B|258:279|293:248,1,85,2|0
316,168,300304,1,2
321,147,300392,1,2
326,126,300479,1,2
331,105,300567,1,2
337,84,300655,2,2,B|344:57,4,21.25
171,46,301181,6,0,B|135:70|135:70|51:80,1,127.5
30,82,301532,2,0,B|5:118|19:164,1,85
92,205,301883,2,0,B|117:241|103:287,2,85
89,119,302409,22,0,B|134:69|206:76,1,127.5
285,101,302848,1,0
304,110,302936,2,0,B|344:124|387:108,1,85
406,99,303199,2,0,B|444:176,1,85
453,194,303462,2,0,B|471:237|449:277,2,85,2|0|2
350,270,303988,5,0
283,217,304164,2,0,B|232:286|132:287,1,170,2|0
56,252,304690,2,0,B|69:168,1,85,2|0
72,146,304953,1,0
75,124,305041,2,0,B|83:76|116:52,1,85
134,61,305304,22,0,B|175:84|217:70,1,85
236,63,305567,2,0,B|257:54,4,21.25
301,117,305918,1,0
310,201,306093,1,0
229,171,306269,1,0
189,189,306357,1,0
150,207,306444,1,0
69,176,306620,1,0
16,280,306795,6,0,B|82:279|133:341,1,127.5
211,357,307234,1,0
231,351,307322,2,0,B|314:328,1,85
333,322,307585,1,0
353,316,307672,1,0
373,310,307760,1,0
393,304,307848,1,0
458,249,308023,22,2,B|484:275,4,21.25
442,234,308286,1,0
426,218,308374,1,0
410,203,308462,1,0
394,188,308550,2,0,B|402:120|352:73,1,127.5
333,62,308900,2,0,B|416:48,1,85,2|0
286,152,309251,2,0,B|199:166,1,85,2|0
180,169,309515,1,0
159,173,309602,6,0,B|159:217|129:251|129:251|92:270,1,127.5
72,280,309953,2,0,B|136:265|192:309,1,127.5
205,324,310304,2,0,B|252:321|252:321|321:281,1,127.5
342,279,310655,2,0,B|423:231,1,85
462,164,311006,21,0
464,143,311093,1,0
466,121,311181,1,0
453,103,311269,1,0
438,87,311357,2,0,B|396:45|396:45|336:66|283:52,2,170,2|0|0
374,140,312234,5,0
367,160,312322,1,0
360,179,312409,1,2
275,192,312585,1,2
282,172,312673,1,2
289,153,312760,1,2
139,72,313111,21,0
25,198,313462,1,0
81,261,313637,1,0
158,226,313813,5,2
229,274,313988,1,2
249,281,314076,1,2
269,287,314164,2,0,B|314:302|351:279,1,85,2|2
411,219,314515,2,0,B|424:134,1,85
401,53,314865,2,0,B|406:21,4,21.25
319,75,315216,22,0,B|296:134|226:156,1,127.5,2|2
205,160,315567,2,0,B|161:168|136:206,1,85
111,287,315918,2,0,B|107:313,8,21.25
129,275,316357,1,0
211,292,316532,1,2
211,292,316620,6,0,B|256:304|294:282,1,85
347,216,316971,1,0
278,166,317146,2,0,B|249:130|261:86,1,85,0|2
333,40,317497,1,0
417,47,317672,1,0
477,107,317848,1,0
450,187,318023,21,0
430,193,318110,1,0
410,199,318198,1,0
390,205,318286,1,0
370,212,318374,2,0,B|341:222,8,21.25,0|0|0|0|0|0|0|0|2
325,139,318900,1,0
305,145,318987,1,0
284,151,319076,2,0,B|249:128|204:132,1,85,0|2
203,218,319427,6,0,B|161:215|124:241,1,85
46,206,319778,2,0,B|62:123,2,85,0|0|2
57,290,320304,1,2
77,295,320392,1,2
97,300,320479,1,0
116,294,320567,1,0
136,288,320655,1,0
156,282,320743,1,0
176,276,320830,2,2,B|232:275|284:296|284:296|328:336,1,170
256,192,321357,12,0,323637
