osu file format v14

[General]
AudioFilename: o'er the flood cut.mp3
AudioLeadIn: 0
PreviewTime: 155318
Countdown: 0
SampleSet: Normal
StackLeniency: 0.7
Mode: 3
LetterboxInBreaks: 0
SpecialStyle: 0
WidescreenStoryboard: 1

[Editor]
DistanceSpacing: 1
BeatDivisor: 4
GridSize: 4
TimelineZoom: 2.4

[Metadata]
Title:o'er the flood
TitleUnicode:o'er the flood
Artist:goreshit
ArtistUnicode:goreshit
Creator:Blocko
Version:insane
Source:
Tags:breakcore dnb over semantic compositions on death and its meaning max richter horizon variations electronic instrumental ancul hydria jinjin pope_gadget
BeatmapID:1182318
BeatmapSetID:454793

[Difficulty]
HPDrainRate:8.5
CircleSize:7
OverallDifficulty:8.5
ApproachRate:8.5
SliderMultiplier:1.4
SliderTickRate:1

[Events]
//Background and Video events
0,0,"bg.jpg",0,0
//Break Periods
//Storyboard Layer 0 (Background)
//Storyboard Layer 1 (Fail)
//Storyboard Layer 2 (Pass)
//Storyboard Layer 3 (Foreground)
//Storyboard Sound Samples

[TimingPoints]
16762,309.278350515464,4,1,0,20,1,0
175112,-100,4,1,0,20,0,1
194829,-100,4,1,0,20,0,0
194906,-100,4,1,0,20,0,1
214622,-100,4,1,0,20,0,0
214700,-100,4,1,0,20,0,1
214777,-100,4,1,0,20,0,0

[HitObjects]
36,192,16762,5,0,0:0:0:35:kick1.wav
256,192,16762,1,0,2:0:0:0:
402,192,16762,1,2,2:0:0:25:
36,192,17071,1,0,0:0:0:35:kick1.wav
402,192,17380,1,0,2:0:0:0:
402,192,17999,1,0,2:0:0:0:
36,192,18308,1,0,0:0:0:35:kick1.wav
36,192,18463,1,0,0:0:0:35:kick1.wav
402,192,18617,1,0,2:0:0:0:
36,192,18926,1,0,0:0:0:35:kick1.wav
182,192,19081,1,0,0:0:0:35:drum1.wav
109,192,19081,1,0,0:0:0:0:
475,192,19236,1,0,2:0:0:0:
475,192,19854,1,0,2:0:0:0:
402,192,20473,1,2,2:0:0:25:
256,192,21091,1,2,2:0:0:25:
36,192,21710,1,0,0:0:0:35:kick1.wav
329,192,21710,1,0,2:0:0:0:
475,192,21710,1,2,2:0:0:25:
36,192,22019,1,0,0:0:0:35:kick1.wav
329,192,22329,1,0,2:0:0:0:
329,192,22947,1,0,2:0:0:0:
36,192,23256,1,0,0:0:0:35:kick1.wav
36,192,23411,1,0,0:0:0:35:kick1.wav
329,192,23566,1,0,2:0:0:0:
36,192,23875,1,0,0:0:0:35:kick1.wav
182,192,24030,1,0,0:0:0:35:drum1.wav
109,192,24030,1,0,0:0:0:0:
256,192,24184,1,0,2:0:0:0:
256,192,24803,1,0,2:0:0:0:
36,192,25112,1,0,0:0:0:35:kick1.wav
109,192,25267,1,0,0:0:0:35:drum1.wav
182,192,25267,1,0,0:0:0:0:
475,192,25421,1,2,2:0:0:25:
329,192,26040,1,2,2:0:0:25:
36,192,26658,1,0,0:0:0:35:kick1.wav
402,192,26658,1,0,2:0:0:0:
256,192,26658,1,2,2:0:0:25:
36,192,26968,1,0,0:0:0:35:kick1.wav
402,192,27277,1,0,2:0:0:0:
402,192,27896,1,0,2:0:0:0:
36,192,28205,1,0,0:0:0:35:kick1.wav
36,192,28359,1,0,0:0:0:35:kick1.wav
402,192,28514,1,0,2:0:0:0:
36,192,28823,1,0,0:0:0:35:kick1.wav
182,192,28978,1,0,0:0:0:35:drum1.wav
109,192,28978,1,0,0:0:0:0:
475,192,29133,1,0,2:0:0:0:
475,192,29751,1,0,2:0:0:0:
256,192,30370,1,2,2:0:0:25:
109,192,30988,1,2,2:0:0:25:
329,192,31607,1,0,2:0:0:0:
36,192,31607,1,0,0:0:0:35:kick1.wav
475,192,31607,1,2,2:0:0:25:
36,192,31916,1,0,0:0:0:35:kick1.wav
329,192,32225,1,0,2:0:0:0:
329,192,32844,1,0,2:0:0:0:
36,192,33153,1,0,0:0:0:35:kick1.wav
36,192,33308,1,0,0:0:0:35:kick1.wav
329,192,33463,1,0,2:0:0:0:
36,192,33772,1,0,0:0:0:35:kick1.wav
109,192,33926,1,0,0:0:0:35:drum1.wav
182,192,33926,1,0,0:0:0:0:
256,192,34081,1,0,2:0:0:0:
256,192,34700,1,0,2:0:0:0:
36,192,35009,1,0,0:0:0:35:kick1.wav
109,192,35164,1,0,0:0:0:35:drum1.wav
182,192,35164,1,0,0:0:0:0:
256,192,35318,1,0,2:0:0:0:
256,192,35937,128,0,36555:2:0:0:0:
36,192,36246,1,0,0:0:0:35:kick1.wav
36,192,36555,1,0,0:0:0:50:kick1.wav
109,192,36555,1,0,0:0:0:25:hihat2.wav
475,192,36555,1,2,2:0:0:50:
36,192,36865,1,0,0:0:0:50:kick1.wav
109,192,36865,1,0,0:0:0:25:hihat2.wav
329,192,37174,1,0,0:0:0:50:drum1.wav
475,192,37174,1,0,0:0:0:25:hihat2.wav
109,192,37329,1,0,0:0:0:25:hihat1.wav
256,192,37483,1,0,0:0:0:25:hihat2.wav
402,192,37638,1,0,0:0:0:25:hihat2.wav
182,192,37792,1,0,0:0:0:25:hihat2.wav
329,192,37947,1,0,0:0:0:25:hihat2.wav
36,192,38102,1,0,0:0:0:50:kick1.wav
109,192,38102,1,0,0:0:0:25:hihat2.wav
36,192,38256,1,0,0:0:0:50:kick1.wav
109,192,38256,1,0,0:0:0:25:hihat1.wav
402,192,38411,1,0,0:0:0:25:hihat2.wav
256,192,38566,1,0,0:0:0:25:hihat1.wav
36,192,38720,1,0,0:0:0:50:kick1.wav
109,192,38720,1,0,0:0:0:25:hihat2.wav
475,192,38875,1,0,0:0:0:50:drum1.wav
329,192,38875,1,0,0:0:0:25:hihat1.wav
182,192,39030,1,0,0:0:0:25:hihat2.wav
182,192,39339,1,0,0:0:0:25:hihat2.wav
329,192,39648,1,0,0:0:0:50:drum1.wav
475,192,39648,1,0,0:0:0:25:hihat2.wav
256,192,39803,1,0,0:0:0:25:hihat1.wav
109,192,39957,1,0,0:0:0:25:hihat2.wav
329,192,40112,1,0,0:0:0:50:drum1.wav
475,192,40112,1,0,0:0:0:25:hihat2.wav
182,192,40267,1,2,2:0:0:50:
329,192,40421,1,0,0:0:0:50:drum1.wav
475,192,40421,1,0,0:0:0:25:hihat2.wav
36,192,40576,1,0,0:0:0:50:kick1.wav
109,192,40576,1,0,0:0:0:25:hihat2.wav
36,192,40731,1,0,0:0:0:50:kick1.wav
109,192,40731,1,0,0:0:0:25:hihat1.wav
475,192,40885,1,0,0:0:0:50:drum1.wav
329,192,40885,1,2,2:0:0:50:
109,192,41040,1,0,0:0:0:50:kick1.wav
36,192,41040,1,0,0:0:0:25:hihat1.wav
256,192,41194,1,0,0:0:0:25:hihat2.wav
109,192,41349,1,0,0:0:0:50:kick1.wav
36,192,41349,1,0,0:0:0:25:hihat2.wav
109,192,41504,1,0,0:0:0:50:kick1.wav
36,192,41504,1,0,0:0:0:25:hihat2.wav
402,192,41504,1,2,2:0:0:50:
36,192,41813,1,0,0:0:0:50:kick1.wav
109,192,41813,1,0,0:0:0:25:hihat2.wav
475,192,42122,1,0,0:0:0:50:drum1.wav
329,192,42122,1,0,0:0:0:25:hihat2.wav
109,192,42277,1,0,0:0:0:25:hihat1.wav
182,192,42432,1,0,0:0:0:25:hihat2.wav
329,192,42586,1,0,0:0:0:50:drum1.wav
475,192,42586,1,0,0:0:0:25:hihat2.wav
256,192,42741,1,0,0:0:0:25:hihat2.wav
182,192,42896,1,0,0:0:0:25:hihat2.wav
109,192,43050,1,0,0:0:0:50:kick1.wav
36,192,43050,1,0,0:0:0:25:hihat2.wav
109,192,43205,1,0,0:0:0:50:kick1.wav
36,192,43205,1,0,0:0:0:25:hihat1.wav
402,192,43359,1,0,0:0:0:25:hihat2.wav
256,192,43514,1,0,0:0:0:25:hihat1.wav
109,192,43669,1,0,0:0:0:50:kick1.wav
36,192,43669,1,0,0:0:0:25:hihat2.wav
475,192,43823,1,0,0:0:0:50:drum1.wav
329,192,43823,1,0,0:0:0:25:hihat1.wav
182,192,43978,1,0,0:0:0:25:hihat2.wav
36,192,44287,1,0,0:0:0:50:kick1.wav
109,192,44287,1,0,0:0:0:25:hihat2.wav
109,192,44442,1,0,0:0:0:50:kick1.wav
36,192,44442,1,0,0:0:0:25:hihat1.wav
402,192,44597,1,0,0:0:0:25:hihat2.wav
256,192,44751,1,0,0:0:0:25:hihat1.wav
36,192,44906,1,0,0:0:0:50:kick1.wav
109,192,44906,1,0,0:0:0:25:hihat2.wav
329,192,45060,1,0,0:0:0:50:drum1.wav
475,192,45060,1,0,0:0:0:25:hihat2.wav
182,192,45215,1,2,2:0:0:50:
402,192,45370,1,0,0:0:0:25:hihat2.wav
109,192,45524,1,0,0:0:0:50:kick1.wav
36,192,45524,1,0,0:0:0:25:hihat2.wav
109,192,45679,1,0,0:0:0:50:kick1.wav
36,192,45679,1,0,0:0:0:25:hihat1.wav
329,192,45834,1,0,0:0:0:50:drum1.wav
475,192,45834,1,2,2:0:0:50:
36,192,45988,1,0,0:0:0:50:kick1.wav
109,192,46066,1,0,0:0:0:50:kick1.wav
182,192,46143,1,0,0:0:0:50:kick1.wav
329,192,46298,1,0,0:0:0:50:drum1.wav
475,192,46298,1,0,0:0:0:25:hihat2.wav
36,192,46452,1,0,0:0:0:50:kick1.wav
182,192,46452,1,0,0:0:0:25:hihat2.wav
256,192,46452,1,2,2:0:0:50:
36,192,46762,1,0,0:0:0:50:kick1.wav
182,192,46762,1,0,0:0:0:25:hihat2.wav
402,192,47071,1,0,0:0:0:50:drum1.wav
475,192,47071,1,0,0:0:0:25:hihat2.wav
256,192,47225,1,0,0:0:0:25:hihat1.wav
182,192,47380,1,0,0:0:0:25:hihat2.wav
402,192,47535,1,0,0:0:0:25:hihat2.wav
109,192,47689,1,0,0:0:0:25:hihat2.wav
329,192,47844,1,0,0:0:0:25:hihat2.wav
36,192,47999,1,0,0:0:0:50:kick1.wav
182,192,47999,1,0,0:0:0:25:hihat2.wav
36,192,48153,1,0,0:0:0:50:kick1.wav
182,192,48153,1,0,0:0:0:25:hihat1.wav
329,192,48308,1,0,0:0:0:25:hihat2.wav
256,192,48463,1,0,0:0:0:25:hihat1.wav
36,192,48617,1,0,0:0:0:50:kick1.wav
182,192,48617,1,0,0:0:0:25:hihat2.wav
402,192,48772,1,0,0:0:0:50:drum1.wav
475,192,48772,1,0,0:0:0:25:hihat1.wav
109,192,48926,1,0,0:0:0:25:hihat2.wav
109,192,49236,1,0,0:0:0:25:hihat2.wav
475,192,49545,1,0,0:0:0:50:drum1.wav
402,192,49545,1,0,0:0:0:25:hihat2.wav
36,192,49700,1,0,0:0:0:25:hihat1.wav
256,192,49854,1,0,0:0:0:25:hihat2.wav
475,192,50009,1,0,0:0:0:50:drum1.wav
402,192,50009,1,0,0:0:0:25:hihat2.wav
109,192,50164,1,2,2:0:0:50:
475,192,50318,1,0,0:0:0:50:drum1.wav
402,192,50318,1,0,0:0:0:25:hihat2.wav
36,192,50473,1,0,0:0:0:50:kick1.wav
182,192,50473,1,0,0:0:0:25:hihat2.wav
36,192,50627,1,0,0:0:0:50:kick1.wav
182,192,50627,1,0,0:0:0:25:hihat1.wav
475,192,50782,1,0,0:0:0:50:drum1.wav
402,192,50782,1,2,2:0:0:50:
36,192,50937,1,0,0:0:0:50:kick1.wav
182,192,50937,1,0,0:0:0:25:hihat1.wav
329,192,51091,1,0,0:0:0:25:hihat2.wav
36,192,51246,1,0,0:0:0:50:kick1.wav
182,192,51246,1,0,0:0:0:25:hihat2.wav
36,192,51401,1,0,0:0:0:50:kick1.wav
475,192,51401,1,0,0:0:0:25:hihat2.wav
182,192,51401,1,2,2:0:0:50:
36,192,51710,1,0,0:0:0:50:kick1.wav
182,192,51710,1,0,0:0:0:25:hihat2.wav
475,192,52019,1,0,0:0:0:50:drum1.wav
402,192,52019,1,0,0:0:0:25:hihat2.wav
109,192,52174,1,0,0:0:0:25:hihat1.wav
256,192,52329,1,0,0:0:0:25:hihat2.wav
402,192,52483,1,0,0:0:0:50:drum1.wav
475,192,52483,1,0,0:0:0:25:hihat2.wav
182,192,52638,1,0,0:0:0:25:hihat2.wav
329,192,52792,1,0,0:0:0:25:hihat2.wav
36,192,52947,1,0,0:0:0:50:kick1.wav
182,192,52947,1,0,0:0:0:25:hihat2.wav
36,192,53102,1,0,0:0:0:50:kick1.wav
182,192,53102,1,0,0:0:0:25:hihat1.wav
329,192,53256,1,0,0:0:0:25:hihat2.wav
256,192,53411,1,0,0:0:0:25:hihat1.wav
36,192,53566,1,0,0:0:0:50:kick1.wav
182,192,53566,1,0,0:0:0:25:hihat2.wav
475,192,53720,1,0,0:0:0:50:drum1.wav
402,192,53720,1,0,0:0:0:25:hihat1.wav
256,192,53875,1,0,0:0:0:25:hihat2.wav
36,192,54184,1,0,0:0:0:50:kick1.wav
182,192,54184,1,0,0:0:0:25:hihat2.wav
182,192,54339,1,0,0:0:0:50:kick1.wav
36,192,54339,1,0,0:0:0:25:hihat1.wav
329,192,54493,1,0,0:0:0:25:hihat2.wav
256,192,54648,1,0,0:0:0:25:hihat1.wav
182,192,54803,1,0,0:0:0:50:kick1.wav
36,192,54803,1,0,0:0:0:25:hihat2.wav
475,192,54957,1,0,0:0:0:50:drum1.wav
402,192,54957,1,0,0:0:0:25:hihat2.wav
329,192,55112,1,2,2:0:0:50:
256,192,55731,128,2,56349:2:0:0:25:
329,192,56349,1,0,0:0:0:25:drum2.wav
36,192,56349,128,2,58823:2:0:0:50:
475,192,56658,1,0,0:0:0:45:drum3.wav
182,192,56658,1,0,0:0:0:0:
402,192,56890,1,0,0:0:0:20:drum4.wav
329,192,56968,1,0,0:0:0:25:drum2.wav
329,192,57122,1,0,0:0:0:25:drum2.wav
329,192,57277,1,0,0:0:0:25:drum2.wav
182,192,57432,1,0,0:0:0:45:drum3.wav
475,192,57432,1,0,0:0:0:0:
329,192,57586,1,0,0:0:0:25:drum2.wav
329,192,57741,1,0,0:0:0:25:drum2.wav
329,192,57896,1,0,0:0:0:25:drum2.wav
329,192,58050,1,0,0:0:0:25:drum2.wav
475,192,58205,1,0,0:0:0:45:drum3.wav
402,192,58205,1,0,0:0:0:0:
329,192,58282,1,0,0:0:0:45:drum3.wav
182,192,58359,1,0,0:0:0:25:drum2.wav
256,192,58437,1,0,0:0:0:25:drum2.wav
329,192,58514,1,0,0:0:0:25:drum2.wav
329,192,58669,1,0,0:0:0:25:drum2.wav
109,192,58823,1,0,0:0:0:25:drum2.wav
182,192,58823,128,0,61298:0:0:0:0:
256,192,59055,1,0,0:0:0:25:drum2.wav
329,192,59133,1,0,0:0:0:45:drum3.wav
475,192,59133,1,0,0:0:0:0:
36,192,59287,1,0,0:0:0:25:drum2.wav
36,192,59442,1,0,0:0:0:25:drum2.wav
256,192,59519,1,0,0:0:0:25:drum2.wav
329,192,59597,1,0,0:0:0:45:drum3.wav
475,192,59597,1,0,0:0:0:0:
36,192,59751,1,0,0:0:0:25:drum2.wav
402,192,59906,1,0,0:0:0:25:drum2.wav
329,192,59983,1,0,0:0:0:25:drum2.wav
36,192,60060,1,0,0:0:0:25:drum2.wav
109,192,60060,1,2,2:0:0:50:
402,192,60215,1,0,0:0:0:25:drum2.wav
329,192,60292,1,0,0:0:0:25:drum2.wav
36,192,60370,1,0,0:0:0:25:drum2.wav
329,192,60524,1,0,0:0:0:45:drum3.wav
475,192,60524,1,0,0:0:0:0:
475,192,60679,1,0,0:0:0:45:drum3.wav
402,192,60679,1,2,2:0:0:50:
329,192,60756,1,0,0:0:0:45:drum3.wav
36,192,60834,1,0,0:0:0:25:drum2.wav
109,192,60911,1,0,0:0:0:25:drum2.wav
256,192,60988,1,0,0:0:0:25:drum2.wav
109,192,61143,1,0,0:0:0:45:drum3.wav
475,192,61143,1,0,0:0:0:0:
402,192,61220,1,0,0:0:0:45:drum3.wav
36,192,61298,1,0,0:0:0:25:drum2.wav
329,192,61298,128,2,63772:2:0:0:50:
256,192,61452,1,0,0:0:0:25:drum2.wav
182,192,61530,1,0,0:0:0:25:drum2.wav
109,192,61607,1,0,0:0:0:45:drum3.wav
36,192,61607,1,0,0:0:0:0:
475,192,61762,1,0,0:0:0:25:drum2.wav
402,192,61839,1,0,0:0:0:25:drum2.wav
256,192,61916,1,0,0:0:0:25:drum2.wav
36,192,62071,1,0,0:0:0:45:drum3.wav
109,192,62071,1,0,0:0:0:0:
475,192,62225,1,0,0:0:0:25:drum2.wav
402,192,62303,1,0,0:0:0:25:drum2.wav
256,192,62380,1,0,0:0:0:25:drum2.wav
182,192,62457,1,0,0:0:0:25:drum2.wav
109,192,62535,1,0,0:0:0:45:drum3.wav
36,192,62535,1,0,0:0:0:0:
402,192,62689,1,0,0:0:0:25:drum2.wav
256,192,62767,1,0,0:0:0:25:drum2.wav
182,192,62844,1,0,0:0:0:25:drum2.wav
109,192,62999,1,0,0:0:0:45:drum3.wav
36,192,62999,1,0,0:0:0:0:
256,192,63153,1,0,0:0:0:25:drum2.wav
256,192,63308,1,0,0:0:0:25:drum2.wav
182,192,63463,1,0,0:0:0:20:drum4.wav
109,192,63617,1,0,0:0:0:45:drum3.wav
36,192,63617,1,0,0:0:0:0:
182,192,63772,1,0,0:0:0:25:drum2.wav
475,192,63772,128,0,66246:0:0:0:0:
182,192,63926,1,0,0:0:0:25:drum2.wav
329,192,64081,1,0,0:0:0:45:drum3.wav
36,192,64081,1,0,0:0:0:0:
109,192,64313,1,0,0:0:0:20:drum4.wav
182,192,64390,1,0,0:0:0:25:drum2.wav
182,192,64545,1,0,0:0:0:25:drum2.wav
329,192,64700,1,0,0:0:0:45:drum3.wav
36,192,64700,1,0,0:0:0:0:
182,192,64854,1,0,0:0:0:25:drum2.wav
329,192,65009,1,0,0:0:0:45:drum3.wav
36,192,65009,1,0,0:0:0:0:
109,192,65241,1,0,0:0:0:20:drum4.wav
182,192,65318,1,0,0:0:0:25:drum2.wav
182,192,65473,1,0,0:0:0:25:drum2.wav
329,192,65627,1,0,0:0:0:45:drum3.wav
36,192,65627,1,0,0:0:0:0:
182,192,65782,1,0,0:0:0:25:drum2.wav
182,192,65937,1,0,0:0:0:25:drum2.wav
109,192,66091,128,0,66246:0:0:0:45:drum3.wav
256,192,66091,128,0,66246:0:0:0:0:
182,192,66246,1,0,0:0:0:25:drum2.wav
36,192,66246,128,2,68720:2:0:0:50:
329,192,66323,1,0,0:0:0:45:drum3.wav
402,192,66323,1,0,0:0:0:0:
256,192,66401,1,0,0:0:0:25:drum2.wav
182,192,66478,1,0,0:0:0:25:drum2.wav
402,192,66555,1,0,0:0:0:45:drum3.wav
475,192,66555,1,0,0:0:0:0:
402,192,66710,1,0,0:0:0:45:drum3.wav
475,192,66710,1,0,0:0:0:0:
329,192,66865,1,0,0:0:0:25:drum2.wav
182,192,66942,1,0,0:0:0:25:drum2.wav
256,192,67019,1,0,0:0:0:25:drum2.wav
329,192,67097,1,0,0:0:0:25:drum2.wav
182,192,67174,1,0,0:0:0:25:drum2.wav
402,192,67329,1,0,0:0:0:45:drum3.wav
475,192,67329,1,0,0:0:0:0:
329,192,67483,1,0,0:0:0:25:drum2.wav
329,192,67638,1,0,0:0:0:25:drum2.wav
329,192,67792,1,0,0:0:0:25:drum2.wav
329,192,67947,1,0,0:0:0:25:drum2.wav
402,192,68102,1,0,0:0:0:45:drum3.wav
475,192,68102,1,0,0:0:0:0:
329,192,68179,1,0,0:0:0:45:drum3.wav
109,192,68256,1,0,0:0:0:25:drum2.wav
182,192,68334,1,0,0:0:0:25:drum2.wav
256,192,68411,1,0,0:0:0:25:drum2.wav
402,192,68566,1,0,0:0:0:25:drum2.wav
329,192,68720,1,0,0:0:0:25:drum2.wav
475,192,68720,128,0,71194:0:0:0:0:
256,192,68798,1,0,0:0:0:25:drum2.wav
36,192,68875,1,0,0:0:0:45:drum3.wav
182,192,68875,1,0,0:0:0:0:
36,192,69030,1,0,0:0:0:45:drum3.wav
182,192,69030,1,0,0:0:0:0:
329,192,69184,1,0,0:0:0:25:drum2.wav
329,192,69339,1,0,0:0:0:25:drum2.wav
256,192,69416,1,0,0:0:0:25:drum2.wav
36,192,69493,1,0,0:0:0:45:drum3.wav
182,192,69493,1,0,0:0:0:0:
329,192,69648,1,0,0:0:0:25:drum2.wav
109,192,69803,1,0,0:0:0:25:drum2.wav
182,192,69880,1,0,0:0:0:25:drum2.wav
329,192,69957,1,0,0:0:0:25:drum2.wav
402,192,69957,1,2,2:0:0:50:
109,192,70112,1,0,0:0:0:25:drum2.wav
182,192,70189,1,0,0:0:0:25:drum2.wav
329,192,70267,1,0,0:0:0:25:drum2.wav
182,192,70421,1,0,0:0:0:25:drum2.wav
36,192,70576,1,0,0:0:0:45:drum3.wav
109,192,70576,1,2,2:0:0:50:
182,192,70653,1,0,0:0:0:45:drum3.wav
402,192,70731,1,0,0:0:0:25:drum2.wav
329,192,70808,1,0,0:0:0:25:drum2.wav
256,192,70885,1,0,0:0:0:25:drum2.wav
36,192,71040,1,0,0:0:0:45:drum3.wav
109,192,71040,1,0,0:0:0:0:
182,192,71117,1,0,0:0:0:45:drum3.wav
402,192,71194,1,0,0:0:0:25:drum2.wav
256,192,71194,128,2,76143:2:0:0:50:
36,192,71349,1,0,0:0:0:25:drum2.wav
329,192,71504,1,0,0:0:0:45:drum3.wav
475,192,71504,1,0,0:0:0:0:
109,192,71658,1,0,0:0:0:25:drum2.wav
329,192,71736,1,0,0:0:0:25:drum2.wav
402,192,71813,1,0,0:0:0:25:drum2.wav
182,192,71968,1,0,0:0:0:45:drum3.wav
36,192,71968,1,0,0:0:0:0:
402,192,72122,1,0,0:0:0:25:drum2.wav
329,192,72200,1,0,0:0:0:25:drum2.wav
109,192,72277,1,0,0:0:0:25:drum2.wav
182,192,72354,1,0,0:0:0:25:drum2.wav
329,192,72432,1,0,0:0:0:45:drum3.wav
475,192,72432,1,0,0:0:0:0:
182,192,72586,1,0,0:0:0:25:drum2.wav
109,192,72664,1,0,0:0:0:25:drum2.wav
402,192,72741,1,0,0:0:0:25:drum2.wav
182,192,72896,1,0,0:0:0:45:drum3.wav
36,192,72896,1,0,0:0:0:0:
329,192,73050,1,0,0:0:0:25:drum2.wav
109,192,73205,1,0,0:0:0:25:drum2.wav
402,192,73359,1,0,0:0:0:20:drum4.wav
182,192,73514,1,0,0:0:0:45:drum3.wav
36,192,73514,1,0,0:0:0:0:
402,192,73669,1,0,0:0:0:25:drum2.wav
109,192,73823,1,0,0:0:0:25:drum2.wav
329,192,73978,1,0,0:0:0:45:drum3.wav
475,192,73978,1,0,0:0:0:0:
109,192,74133,1,0,0:0:0:25:drum2.wav
329,192,74210,1,0,0:0:0:20:drum4.wav
402,192,74287,1,0,0:0:0:25:drum2.wav
182,192,74442,1,0,0:0:0:25:drum2.wav
109,192,74519,1,0,0:0:0:25:drum2.wav
329,192,74597,1,0,0:0:0:45:drum3.wav
475,192,74597,1,0,0:0:0:0:
36,192,74751,1,0,0:0:0:25:drum2.wav
182,192,74829,1,0,0:0:0:25:drum2.wav
329,192,74906,1,0,0:0:0:45:drum3.wav
475,192,74906,1,0,0:0:0:20:hihat2.wav
109,192,75060,1,0,0:0:0:25:drum2.wav
182,192,75138,1,0,0:0:0:20:drum4.wav
402,192,75215,1,0,0:0:0:25:drum2.wav
329,192,75292,1,0,0:0:0:25:drum2.wav
36,192,75370,1,0,0:0:0:25:drum2.wav
182,192,75447,1,0,0:0:0:25:drum2.wav
329,192,75524,1,0,0:0:0:45:drum3.wav
475,192,75524,1,0,0:0:0:28:hihat2.wav
109,192,75602,1,0,0:0:0:25:drum2.wav
402,192,75679,1,0,0:0:0:25:drum2.wav
182,192,75756,1,0,0:0:0:25:drum2.wav
329,192,75834,128,0,76143:0:0:0:25:drum2.wav
182,192,75988,128,0,76143:0:0:0:45:drum3.wav
109,192,76143,1,0,0:0:0:45:kick2.wav
475,192,76143,1,0,0:0:0:35:hihat1.wav
36,192,76143,1,0,0:0:0:0:
402,192,76143,1,0,0:0:0:60:crash.wav
256,192,76298,1,0,0:0:0:35:hihat2.wav
475,192,76452,1,0,0:0:0:65:drum1.wav
329,192,76452,1,0,0:0:0:35:hihat2.wav
36,192,76607,1,0,0:0:0:45:kick2.wav
182,192,76607,1,0,0:0:0:35:hihat2.wav
182,192,76762,1,0,0:0:0:35:hihat2.wav
256,192,76916,1,0,0:0:0:65:drum1.wav
402,192,76916,1,0,0:0:0:35:hihat2.wav
109,192,77071,1,0,0:0:0:35:hihat2.wav
329,192,77225,1,0,0:0:0:65:drum5.wav
475,192,77225,1,0,0:0:0:35:hihat2.wav
36,192,77380,1,0,0:0:0:45:kick2.wav
109,192,77380,1,0,0:0:0:35:hihat1.wav
256,192,77535,1,0,0:0:0:35:hihat2.wav
329,192,77689,1,0,0:0:0:65:drum1.wav
475,192,77689,1,0,0:0:0:35:hihat2.wav
109,192,77844,1,0,0:0:0:45:kick2.wav
36,192,77844,1,0,0:0:0:35:hihat2.wav
329,192,77999,1,0,0:0:0:65:drum1.wav
475,192,77999,1,0,0:0:0:35:hihat2.wav
182,192,78076,1,0,0:0:0:65:drum5.wav
36,192,78153,1,0,0:0:0:45:kick2.wav
402,192,78231,1,0,0:0:0:35:hihat1.wav
256,192,78308,1,0,0:0:0:35:hihat2.wav
109,192,78385,1,0,0:0:0:35:hihat1.wav
475,192,78463,1,0,0:0:0:65:drum1.wav
329,192,78463,1,0,0:0:0:35:hihat2.wav
36,192,78617,1,0,0:0:0:45:kick2.wav
182,192,78617,1,0,0:0:0:35:hihat1.wav
256,192,78772,1,0,0:0:0:35:hihat2.wav
109,192,78849,1,0,0:0:0:45:kick2.wav
402,192,78926,1,0,0:0:0:65:drum1.wav
475,192,78926,1,0,0:0:0:35:hihat2.wav
36,192,79081,1,0,0:0:0:45:kick2.wav
182,192,79081,1,0,0:0:0:35:hihat2.wav
329,192,79236,1,0,0:0:0:35:hihat2.wav
109,192,79313,1,0,0:0:0:45:kick2.wav
402,192,79390,1,0,0:0:0:65:drum1.wav
475,192,79390,1,0,0:0:0:35:hihat2.wav
182,192,79545,1,0,0:0:0:45:kick2.wav
329,192,79622,1,0,0:0:0:45:kick2.wav
182,192,79700,1,0,0:0:0:45:kick2.wav
329,192,79777,1,0,0:0:0:45:kick2.wav
109,192,79854,1,0,0:0:0:45:kick2.wav
36,192,79854,1,0,0:0:0:35:hihat1.wav
475,192,80009,1,0,0:0:0:65:drum1.wav
329,192,80009,1,0,0:0:0:35:hihat2.wav
182,192,80164,1,0,0:0:0:35:hihat2.wav
402,192,80318,1,0,0:0:0:45:kick2.wav
256,192,80318,1,0,0:0:0:65:drum1.wav
329,192,80473,1,0,0:0:0:65:drum1.wav
475,192,80473,1,0,0:0:0:35:hihat2.wav
109,192,80550,1,0,0:0:0:65:drum5.wav
256,192,80627,1,0,0:0:0:45:kick2.wav
402,192,80705,1,0,0:0:0:65:drum1.wav
475,192,80705,1,0,0:0:0:35:hihat1.wav
36,192,80782,1,0,0:0:0:35:hihat2.wav
182,192,80859,1,0,0:0:0:35:hihat1.wav
329,192,80937,1,0,0:0:0:45:kick2.wav
475,192,80937,1,0,0:0:0:65:drum1.wav
256,192,81014,1,0,0:0:0:65:drum5.wav
182,192,81091,1,0,0:0:0:45:kick2.wav
36,192,81091,1,0,0:0:0:35:hihat1.wav
329,192,81246,1,0,0:0:0:45:kick2.wav
109,192,81323,1,0,0:0:0:45:kick2.wav
402,192,81401,1,0,0:0:0:65:drum1.wav
475,192,81401,1,0,0:0:0:35:hihat2.wav
36,192,81555,1,0,0:0:0:45:kick2.wav
182,192,81555,1,0,0:0:0:35:hihat2.wav
329,192,81633,1,0,0:0:0:45:kick2.wav
256,192,81710,1,0,0:0:0:35:hihat2.wav
109,192,81787,1,0,0:0:0:45:kick2.wav
402,192,81865,1,0,0:0:0:65:drum1.wav
475,192,81865,1,0,0:0:0:35:hihat2.wav
256,192,82019,1,0,0:0:0:45:kick2.wav
256,192,82174,1,0,0:0:0:45:kick2.wav
109,192,82329,1,0,0:0:0:45:kick2.wav
36,192,82329,1,0,0:0:0:65:drum5.wav
182,192,82483,1,0,0:0:0:45:kick2.wav
402,192,82638,1,0,0:0:0:65:drum1.wav
475,192,82638,1,0,0:0:0:35:hihat2.wav
36,192,82792,1,0,0:0:0:45:kick2.wav
182,192,82792,1,0,0:0:0:65:drum5.wav
329,192,82947,1,0,0:0:0:65:drum1.wav
475,192,82947,1,0,0:0:0:35:hihat2.wav
109,192,83102,1,0,0:0:0:45:kick2.wav
402,192,83179,1,0,0:0:0:45:kick2.wav
109,192,83256,1,0,0:0:0:45:kick2.wav
402,192,83334,1,0,0:0:0:45:kick2.wav
256,192,83411,1,0,0:0:0:45:kick2.wav
36,192,83411,1,0,0:0:0:65:drum5.wav
475,192,83566,1,0,0:0:0:45:kick2.wav
329,192,83566,1,0,0:0:0:65:drum1.wav
36,192,83720,1,0,0:0:0:45:kick2.wav
109,192,83720,1,0,0:0:0:35:hihat1.wav
182,192,83875,1,0,0:0:0:65:drum5.wav
475,192,84030,1,0,0:0:0:45:kick2.wav
329,192,84030,1,0,0:0:0:65:drum1.wav
109,192,84184,1,0,0:0:0:45:kick2.wav
36,192,84184,1,0,0:0:0:35:hihat1.wav
182,192,84339,1,0,0:0:0:45:kick2.wav
256,192,84339,1,0,0:0:0:35:hihat2.wav
329,192,84493,1,0,0:0:0:65:drum1.wav
475,192,84493,1,0,0:0:0:35:hihat2.wav
256,192,84648,1,0,0:0:0:45:kick2.wav
402,192,84648,1,0,0:0:0:35:hihat2.wav
36,192,84803,1,0,0:0:0:45:kick2.wav
182,192,84803,1,0,0:0:0:65:drum5.wav
109,192,84957,1,0,0:0:0:35:hihat2.wav
402,192,85035,1,0,0:0:0:45:kick2.wav
256,192,85035,1,0,0:0:0:35:hihat1.wav
329,192,85189,1,0,0:0:0:35:hihat2.wav
36,192,85267,1,0,0:0:0:45:kick2.wav
182,192,85267,1,0,0:0:0:35:hihat1.wav
329,192,85421,1,0,0:0:0:65:drum1.wav
475,192,85421,1,0,0:0:0:35:hihat2.wav
36,192,85576,1,0,0:0:0:45:kick2.wav
182,192,85576,1,0,0:0:0:35:hihat2.wav
256,192,85653,1,0,0:0:0:35:hihat2.wav
329,192,85731,128,0,86040:0:0:0:50:hihat1.wav
182,192,85885,128,0,86040:0:0:0:45:kick2.wav
256,192,85885,1,0,0:0:0:65:drum1.wav
109,192,86040,1,0,0:0:0:45:kick2.wav
36,192,86040,1,0,0:0:0:35:hihat1.wav
402,192,86117,1,0,0:0:0:65:drum5.wav
475,192,86349,1,0,0:0:0:65:drum1.wav
329,192,86349,1,0,0:0:0:35:hihat2.wav
256,192,86504,1,0,0:0:0:45:kick2.wav
109,192,86504,1,0,0:0:0:65:drum5.wav
109,192,86658,1,0,0:0:0:35:hihat2.wav
329,192,86813,1,0,0:0:0:65:drum1.wav
475,192,86813,1,0,0:0:0:35:hihat2.wav
182,192,86968,1,0,0:0:0:35:hihat2.wav
329,192,87122,1,0,0:0:0:65:drum5.wav
475,192,87122,1,0,0:0:0:35:hihat2.wav
109,192,87277,1,0,0:0:0:45:kick2.wav
36,192,87277,1,0,0:0:0:35:hihat1.wav
256,192,87432,1,0,0:0:0:35:hihat2.wav
329,192,87586,1,0,0:0:0:65:drum1.wav
475,192,87586,1,0,0:0:0:35:hihat2.wav
109,192,87741,1,0,0:0:0:45:kick2.wav
36,192,87741,1,0,0:0:0:35:hihat2.wav
402,192,87896,1,0,0:0:0:65:drum1.wav
475,192,87896,1,0,0:0:0:35:hihat2.wav
256,192,87973,1,0,0:0:0:65:drum5.wav
109,192,88050,1,0,0:0:0:45:kick2.wav
329,192,88127,1,0,0:0:0:35:hihat1.wav
182,192,88205,1,0,0:0:0:35:hihat2.wav
36,192,88282,1,0,0:0:0:35:hihat1.wav
475,192,88359,1,0,0:0:0:65:drum1.wav
402,192,88359,1,0,0:0:0:35:hihat2.wav
36,192,88514,1,0,0:0:0:45:kick2.wav
109,192,88514,1,0,0:0:0:35:hihat1.wav
256,192,88669,1,0,0:0:0:65:drum5.wav
329,192,88669,1,0,0:0:0:35:hihat2.wav
182,192,88746,1,0,0:0:0:45:kick2.wav
475,192,88823,1,0,0:0:0:65:drum1.wav
402,192,88823,1,0,0:0:0:35:hihat2.wav
36,192,88978,1,0,0:0:0:45:kick2.wav
109,192,88978,1,0,0:0:0:35:hihat2.wav
329,192,89133,1,0,0:0:0:35:hihat2.wav
182,192,89210,1,0,0:0:0:45:kick2.wav
402,192,89287,1,0,0:0:0:65:drum1.wav
475,192,89287,1,0,0:0:0:35:hihat2.wav
182,192,89442,1,0,0:0:0:45:kick2.wav
329,192,89519,1,0,0:0:0:45:kick2.wav
182,192,89597,1,0,0:0:0:45:kick2.wav
329,192,89674,1,0,0:0:0:45:kick2.wav
36,192,89751,1,0,0:0:0:45:kick2.wav
109,192,89751,1,0,0:0:0:35:hihat1.wav
475,192,89906,1,0,0:0:0:65:drum1.wav
402,192,89906,1,0,0:0:0:35:hihat2.wav
182,192,90060,1,0,0:0:0:35:hihat2.wav
329,192,90215,1,0,0:0:0:65:drum1.wav
256,192,90215,1,0,0:0:0:45:kick2.wav
475,192,90370,1,0,0:0:0:65:drum1.wav
402,192,90370,1,0,0:0:0:35:hihat2.wav
256,192,90447,1,0,0:0:0:65:drum5.wav
109,192,90524,1,0,0:0:0:45:kick2.wav
475,192,90602,1,0,0:0:0:65:drum1.wav
329,192,90602,1,0,0:0:0:35:hihat1.wav
36,192,90679,1,0,0:0:0:35:hihat2.wav
182,192,90756,1,0,0:0:0:35:hihat1.wav
475,192,90834,1,0,0:0:0:45:kick2.wav
402,192,90834,1,0,0:0:0:65:drum1.wav
256,192,90911,1,0,0:0:0:65:drum5.wav
36,192,90988,1,0,0:0:0:45:kick2.wav
109,192,90988,1,0,0:0:0:35:hihat1.wav
402,192,91143,1,0,0:0:0:45:kick2.wav
182,192,91220,1,0,0:0:0:45:kick2.wav
329,192,91298,1,0,0:0:0:65:drum1.wav
475,192,91298,1,0,0:0:0:35:hihat2.wav
109,192,91452,1,0,0:0:0:45:kick2.wav
36,192,91452,1,0,0:0:0:35:hihat2.wav
256,192,91530,1,0,0:0:0:45:kick2.wav
402,192,91607,1,0,0:0:0:35:hihat2.wav
182,192,91684,1,0,0:0:0:45:kick2.wav
475,192,91762,1,0,0:0:0:65:drum1.wav
329,192,91762,1,0,0:0:0:35:hihat2.wav
256,192,91916,1,0,0:0:0:45:kick2.wav
256,192,92071,1,0,0:0:0:45:kick2.wav
182,192,92225,1,0,0:0:0:45:kick2.wav
36,192,92225,1,0,0:0:0:65:drum5.wav
109,192,92380,1,0,0:0:0:45:kick2.wav
329,192,92535,1,0,0:0:0:65:drum1.wav
475,192,92535,1,0,0:0:0:35:hihat2.wav
182,192,92689,1,0,0:0:0:45:kick2.wav
36,192,92689,1,0,0:0:0:65:drum5.wav
475,192,92844,1,0,0:0:0:65:drum1.wav
329,192,92844,1,0,0:0:0:35:hihat2.wav
109,192,92999,1,0,0:0:0:45:kick2.wav
402,192,93076,1,0,0:0:0:45:kick2.wav
109,192,93153,1,0,0:0:0:45:kick2.wav
402,192,93231,1,0,0:0:0:45:kick2.wav
36,192,93308,1,0,0:0:0:45:kick2.wav
256,192,93308,1,0,0:0:0:65:drum5.wav
329,192,93463,1,0,0:0:0:45:kick2.wav
475,192,93463,1,0,0:0:0:65:drum1.wav
182,192,93617,1,0,0:0:0:45:kick2.wav
36,192,93617,1,0,0:0:0:35:hihat1.wav
256,192,93772,1,0,0:0:0:65:drum5.wav
475,192,93926,1,0,0:0:0:45:kick2.wav
402,192,93926,1,0,0:0:0:65:drum1.wav
36,192,94081,1,0,0:0:0:45:kick2.wav
109,192,94081,1,0,0:0:0:35:hihat1.wav
256,192,94236,1,0,0:0:0:45:kick2.wav
182,192,94236,1,0,0:0:0:35:hihat2.wav
475,192,94390,1,0,0:0:0:65:drum1.wav
329,192,94390,1,0,0:0:0:35:hihat2.wav
182,192,94545,1,0,0:0:0:45:kick2.wav
402,192,94545,1,0,0:0:0:35:hihat2.wav
109,192,94700,1,0,0:0:0:45:kick2.wav
36,192,94700,1,0,0:0:0:65:drum5.wav
402,192,94854,1,0,0:0:0:35:hihat2.wav
329,192,94932,1,0,0:0:0:45:kick2.wav
256,192,94932,1,0,0:0:0:35:hihat1.wav
182,192,95086,1,0,0:0:0:35:hihat2.wav
109,192,95164,1,0,0:0:0:45:kick2.wav
36,192,95164,1,0,0:0:0:35:hihat1.wav
475,192,95318,1,0,0:0:0:65:drum1.wav
402,192,95318,1,0,0:0:0:35:hihat2.wav
36,192,95473,1,0,0:0:0:45:kick2.wav
109,192,95473,1,0,0:0:0:35:hihat2.wav
329,192,95550,1,0,0:0:0:35:hihat2.wav
182,192,95627,128,0,95937:0:0:0:50:hihat1.wav
329,192,95782,128,0,95937:0:0:0:45:kick2.wav
256,192,95782,1,0,0:0:0:65:drum1.wav
36,192,95937,1,0,0:0:0:45:kick2.wav
402,192,95937,1,0,0:0:0:35:hihat1.wav
475,192,95937,1,0,0:0:0:0:
109,192,95937,1,0,0:0:0:60:crash.wav
256,192,96091,1,0,0:0:0:35:hihat2.wav
475,192,96246,1,0,0:0:0:65:drum1.wav
329,192,96246,1,0,0:0:0:35:hihat2.wav
36,192,96401,1,0,0:0:0:45:kick2.wav
109,192,96401,1,0,0:0:0:35:hihat2.wav
109,192,96555,1,0,0:0:0:35:hihat2.wav
256,192,96710,1,0,0:0:0:65:drum1.wav
402,192,96710,1,0,0:0:0:35:hihat2.wav
182,192,96865,1,0,0:0:0:35:hihat2.wav
402,192,97019,1,0,0:0:0:65:drum5.wav
475,192,97019,1,0,0:0:0:35:hihat2.wav
36,192,97174,1,0,0:0:0:45:kick2.wav
182,192,97174,1,0,0:0:0:35:hihat1.wav
256,192,97329,1,0,0:0:0:35:hihat2.wav
402,192,97483,1,0,0:0:0:65:drum1.wav
475,192,97483,1,0,0:0:0:35:hihat2.wav
36,192,97638,1,0,0:0:0:45:kick2.wav
109,192,97638,1,0,0:0:0:35:hihat2.wav
329,192,97792,1,0,0:0:0:65:drum1.wav
475,192,97792,1,0,0:0:0:35:hihat2.wav
36,192,97870,1,0,0:0:0:65:drum5.wav
182,192,97947,1,0,0:0:0:45:kick2.wav
402,192,98024,1,0,0:0:0:35:hihat1.wav
109,192,98102,1,0,0:0:0:35:hihat2.wav
256,192,98179,1,0,0:0:0:35:hihat1.wav
475,192,98256,1,0,0:0:0:65:drum1.wav
329,192,98256,1,0,0:0:0:35:hihat2.wav
36,192,98411,1,0,0:0:0:45:kick2.wav
109,192,98411,1,0,0:0:0:35:hihat1.wav
256,192,98566,1,0,0:0:0:35:hihat2.wav
182,192,98643,1,0,0:0:0:45:kick2.wav
329,192,98720,1,0,0:0:0:65:drum1.wav
475,192,98720,1,0,0:0:0:35:hihat2.wav
36,192,98875,1,0,0:0:0:45:kick2.wav
109,192,98875,1,0,0:0:0:35:hihat2.wav
402,192,99030,1,0,0:0:0:35:hihat2.wav
182,192,99107,1,0,0:0:0:45:kick2.wav
475,192,99184,1,0,0:0:0:65:drum1.wav
329,192,99184,1,0,0:0:0:35:hihat2.wav
109,192,99339,1,0,0:0:0:45:kick2.wav
402,192,99416,1,0,0:0:0:45:kick2.wav
109,192,99493,1,0,0:0:0:45:kick2.wav
402,192,99571,1,0,0:0:0:45:kick2.wav
182,192,99648,1,0,0:0:0:45:kick2.wav
36,192,99648,1,0,0:0:0:35:hihat1.wav
475,192,99803,1,0,0:0:0:65:drum1.wav
329,192,99803,1,0,0:0:0:35:hihat2.wav
182,192,99957,1,0,0:0:0:35:hihat2.wav
256,192,100112,1,0,0:0:0:45:kick2.wav
402,192,100112,1,0,0:0:0:65:drum1.wav
329,192,100267,1,0,0:0:0:65:drum1.wav
475,192,100267,1,0,0:0:0:35:hihat2.wav
109,192,100344,1,0,0:0:0:65:drum5.wav
256,192,100421,1,0,0:0:0:45:kick2.wav
475,192,100499,1,0,0:0:0:65:drum1.wav
402,192,100499,1,0,0:0:0:35:hihat1.wav
36,192,100576,1,0,0:0:0:35:hihat2.wav
182,192,100653,1,0,0:0:0:35:hihat1.wav
329,192,100731,1,0,0:0:0:45:kick2.wav
475,192,100731,1,0,0:0:0:65:drum1.wav
256,192,100808,1,0,0:0:0:65:drum5.wav
36,192,100885,1,0,0:0:0:45:kick2.wav
109,192,100885,1,0,0:0:0:35:hihat1.wav
329,192,101040,1,0,0:0:0:45:kick2.wav
182,192,101117,1,0,0:0:0:45:kick2.wav
475,192,101194,1,0,0:0:0:65:drum1.wav
402,192,101194,1,0,0:0:0:35:hihat2.wav
109,192,101349,1,0,0:0:0:45:kick2.wav
36,192,101349,1,0,0:0:0:35:hihat2.wav
329,192,101426,1,0,0:0:0:45:kick2.wav
256,192,101504,1,0,0:0:0:35:hihat2.wav
182,192,101581,1,0,0:0:0:45:kick2.wav
402,192,101658,1,0,0:0:0:65:drum1.wav
475,192,101658,1,0,0:0:0:35:hihat2.wav
256,192,101813,1,0,0:0:0:45:kick2.wav
256,192,101968,1,0,0:0:0:45:kick2.wav
182,192,102122,1,0,0:0:0:45:kick2.wav
36,192,102122,1,0,0:0:0:65:drum5.wav
109,192,102277,1,0,0:0:0:35:hihat1.wav
475,192,102432,1,0,0:0:0:65:drum1.wav
329,192,102432,1,0,0:0:0:35:hihat2.wav
109,192,102586,1,0,0:0:0:45:kick2.wav
36,192,102586,1,0,0:0:0:65:drum5.wav
475,192,102741,1,0,0:0:0:65:drum1.wav
402,192,102741,1,0,0:0:0:35:hihat2.wav
182,192,102896,1,0,0:0:0:45:kick2.wav
329,192,102973,1,0,0:0:0:45:kick2.wav
182,192,103050,1,0,0:0:0:45:kick2.wav
329,192,103127,1,0,0:0:0:45:kick2.wav
256,192,103205,1,0,0:0:0:45:kick2.wav
36,192,103205,1,0,0:0:0:65:drum5.wav
475,192,103359,1,0,0:0:0:45:kick2.wav
402,192,103359,1,0,0:0:0:65:drum1.wav
182,192,103514,1,0,0:0:0:45:kick2.wav
36,192,103514,1,0,0:0:0:35:hihat1.wav
256,192,103669,1,0,0:0:0:65:drum5.wav
402,192,103823,1,0,0:0:0:45:kick2.wav
475,192,103823,1,0,0:0:0:65:drum1.wav
182,192,103978,1,0,0:0:0:45:kick2.wav
36,192,103978,1,0,0:0:0:35:hihat1.wav
256,192,104133,1,0,0:0:0:45:kick2.wav
329,192,104133,1,0,0:0:0:35:hihat2.wav
475,192,104287,1,0,0:0:0:65:drum1.wav
402,192,104287,1,0,0:0:0:35:hihat2.wav
329,192,104442,1,0,0:0:0:45:kick2.wav
182,192,104442,1,0,0:0:0:35:hihat2.wav
109,192,104597,1,0,0:0:0:45:kick2.wav
36,192,104597,1,0,0:0:0:65:drum5.wav
256,192,104751,1,0,0:0:0:35:hihat2.wav
329,192,104829,1,0,0:0:0:45:kick2.wav
402,192,104829,1,0,0:0:0:35:hihat1.wav
182,192,104983,1,0,0:0:0:35:hihat2.wav
109,192,105060,1,0,0:0:0:45:kick2.wav
36,192,105060,1,0,0:0:0:35:hihat1.wav
329,192,105215,1,0,0:0:0:65:drum1.wav
475,192,105215,1,0,0:0:0:35:hihat2.wav
182,192,105370,1,0,0:0:0:45:kick2.wav
36,192,105370,1,0,0:0:0:35:hihat2.wav
256,192,105447,1,0,0:0:0:35:hihat2.wav
329,192,105524,128,0,105834:0:0:0:50:hihat1.wav
256,192,105679,1,0,0:0:0:45:kick2.wav
182,192,105679,128,0,105834:0:0:0:65:drum1.wav
36,192,105834,1,0,0:0:0:45:kick2.wav
109,192,105834,1,0,0:0:0:35:hihat1.wav
402,192,105911,1,0,0:0:0:65:drum5.wav
329,192,106143,1,0,0:0:0:65:drum1.wav
475,192,106143,1,0,0:0:0:35:hihat2.wav
109,192,106298,1,0,0:0:0:45:kick2.wav
36,192,106298,1,0,0:0:0:65:drum5.wav
109,192,106452,1,0,0:0:0:35:hihat2.wav
402,192,106607,1,0,0:0:0:65:drum1.wav
475,192,106607,1,0,0:0:0:35:hihat2.wav
182,192,106762,1,0,0:0:0:35:hihat2.wav
402,192,106916,1,0,0:0:0:65:drum5.wav
475,192,106916,1,0,0:0:0:35:hihat2.wav
36,192,107071,1,0,0:0:0:45:kick2.wav
109,192,107071,1,0,0:0:0:35:hihat1.wav
256,192,107225,1,0,0:0:0:35:hihat2.wav
475,192,107380,1,0,0:0:0:65:drum1.wav
329,192,107380,1,0,0:0:0:35:hihat2.wav
109,192,107535,1,0,0:0:0:45:kick2.wav
36,192,107535,1,0,0:0:0:35:hihat2.wav
402,192,107689,1,0,0:0:0:65:drum1.wav
475,192,107689,1,0,0:0:0:35:hihat2.wav
109,192,107767,1,0,0:0:0:65:drum5.wav
256,192,107844,1,0,0:0:0:45:kick2.wav
329,192,107921,1,0,0:0:0:35:hihat1.wav
36,192,107999,1,0,0:0:0:35:hihat2.wav
182,192,108076,1,0,0:0:0:35:hihat1.wav
475,192,108153,1,0,0:0:0:65:drum1.wav
402,192,108153,1,0,0:0:0:35:hihat2.wav
182,192,108308,1,0,0:0:0:45:kick2.wav
36,192,108308,1,0,0:0:0:35:hihat1.wav
256,192,108463,1,0,0:0:0:65:drum5.wav
329,192,108463,1,0,0:0:0:35:hihat2.wav
109,192,108540,1,0,0:0:0:45:kick2.wav
475,192,108617,1,0,0:0:0:65:drum1.wav
402,192,108617,1,0,0:0:0:35:hihat2.wav
36,192,108772,1,0,0:0:0:45:kick2.wav
182,192,108772,1,0,0:0:0:35:hihat2.wav
329,192,108926,1,0,0:0:0:35:hihat2.wav
182,192,109004,1,0,0:0:0:45:kick2.wav
402,192,109081,1,0,0:0:0:65:drum1.wav
475,192,109081,1,0,0:0:0:35:hihat2.wav
109,192,109236,1,0,0:0:0:45:kick2.wav
402,192,109313,1,0,0:0:0:45:kick2.wav
109,192,109390,1,0,0:0:0:45:kick2.wav
402,192,109468,1,0,0:0:0:45:kick2.wav
36,192,109545,1,0,0:0:0:45:kick2.wav
182,192,109545,1,0,0:0:0:35:hihat1.wav
475,192,109700,1,0,0:0:0:65:drum1.wav
402,192,109700,1,0,0:0:0:35:hihat2.wav
182,192,109854,1,0,0:0:0:35:hihat2.wav
402,192,110009,1,0,0:0:0:45:kick2.wav
256,192,110009,1,0,0:0:0:65:drum1.wav
475,192,110164,1,0,0:0:0:65:drum1.wav
329,192,110164,1,0,0:0:0:35:hihat2.wav
256,192,110241,1,0,0:0:0:65:drum5.wav
109,192,110318,1,0,0:0:0:45:kick2.wav
475,192,110396,1,0,0:0:0:65:drum1.wav
402,192,110396,1,0,0:0:0:35:hihat1.wav
36,192,110473,1,0,0:0:0:35:hihat2.wav
182,192,110550,1,0,0:0:0:35:hihat1.wav
329,192,110627,1,0,0:0:0:45:kick2.wav
475,192,110627,1,0,0:0:0:65:drum1.wav
256,192,110705,1,0,0:0:0:65:drum5.wav
36,192,110782,1,0,0:0:0:45:kick2.wav
182,192,110782,1,0,0:0:0:35:hihat1.wav
329,192,110937,1,0,0:0:0:45:kick2.wav
109,192,111014,1,0,0:0:0:45:kick2.wav
402,192,111091,1,0,0:0:0:65:drum1.wav
475,192,111091,1,0,0:0:0:35:hihat2.wav
182,192,111246,1,0,0:0:0:45:kick2.wav
36,192,111246,1,0,0:0:0:35:hihat2.wav
329,192,111323,1,0,0:0:0:45:kick2.wav
256,192,111401,1,0,0:0:0:35:hihat2.wav
109,192,111478,1,0,0:0:0:45:kick2.wav
475,192,111555,1,0,0:0:0:65:drum1.wav
402,192,111555,1,0,0:0:0:35:hihat2.wav
256,192,111710,1,0,0:0:0:45:kick2.wav
256,192,111865,1,0,0:0:0:45:kick2.wav
109,192,112019,1,0,0:0:0:45:kick2.wav
36,192,112019,1,0,0:0:0:65:drum5.wav
182,192,112174,1,0,0:0:0:45:kick2.wav
475,192,112329,1,0,0:0:0:65:drum1.wav
402,192,112329,1,0,0:0:0:35:hihat2.wav
36,192,112483,1,0,0:0:0:45:kick2.wav
182,192,112483,1,0,0:0:0:65:drum5.wav
329,192,112638,1,0,0:0:0:65:drum1.wav
475,192,112638,1,0,0:0:0:35:hihat2.wav
182,192,112792,1,0,0:0:0:45:kick2.wav
329,192,112870,1,0,0:0:0:45:kick2.wav
182,192,112947,1,0,0:0:0:45:kick2.wav
329,192,113024,1,0,0:0:0:45:kick2.wav
109,192,113102,1,0,0:0:0:45:kick2.wav
256,192,113102,1,0,0:0:0:65:drum5.wav
329,192,113256,1,0,0:0:0:45:kick2.wav
475,192,113256,1,0,0:0:0:65:drum1.wav
36,192,113411,1,0,0:0:0:45:kick2.wav
109,192,113411,1,0,0:0:0:35:hihat1.wav
256,192,113566,1,0,0:0:0:65:drum5.wav
402,192,113720,1,0,0:0:0:45:kick2.wav
475,192,113720,1,0,0:0:0:65:drum1.wav
182,192,113875,1,0,0:0:0:45:kick2.wav
36,192,113875,1,0,0:0:0:35:hihat1.wav
109,192,114030,1,0,0:0:0:45:kick2.wav
256,192,114107,1,0,0:0:0:45:kick2.wav
329,192,114184,1,0,0:0:0:65:drum1.wav
475,192,114184,1,0,0:0:0:35:hihat2.wav
402,192,114339,1,0,0:0:0:45:kick2.wav
256,192,114416,1,0,0:0:0:45:kick2.wav
182,192,114493,1,0,0:0:0:45:kick2.wav
36,192,114493,1,0,0:0:0:65:drum5.wav
109,192,114648,1,0,0:0:0:35:hihat2.wav
256,192,114725,1,0,0:0:0:45:kick2.wav
402,192,114725,1,0,0:0:0:35:hihat1.wav
329,192,114880,1,0,0:0:0:35:hihat2.wav
36,192,114957,1,0,0:0:0:45:kick2.wav
182,192,114957,1,0,0:0:0:35:hihat1.wav
475,192,115112,1,0,0:0:0:65:drum1.wav
402,192,115112,1,0,0:0:0:35:hihat2.wav
36,192,115267,1,0,0:0:0:45:kick2.wav
109,192,115267,1,0,0:0:0:35:hihat2.wav
329,192,115344,1,0,0:0:0:35:hihat2.wav
182,192,115421,128,0,115731:0:0:0:50:hihat1.wav
256,192,115576,1,0,0:0:0:45:kick2.wav
329,192,115576,128,0,115731:0:0:0:65:drum1.wav
109,192,115731,1,0,0:0:0:45:kick2.wav
475,192,115731,1,0,0:0:0:35:hihat1.wav
36,192,115731,1,0,0:0:0:0:
402,192,115731,1,0,0:0:0:60:crash.wav
256,192,115885,1,0,0:0:0:35:hihat2.wav
329,192,116040,1,0,0:0:0:65:drum1.wav
475,192,116040,1,0,0:0:0:35:hihat2.wav
36,192,116194,1,0,0:0:0:45:kick2.wav
182,192,116194,1,0,0:0:0:35:hihat2.wav
182,192,116349,1,0,0:0:0:35:hihat2.wav
402,192,116504,1,0,0:0:0:65:drum1.wav
256,192,116504,1,0,0:0:0:35:hihat2.wav
109,192,116658,1,0,0:0:0:35:hihat2.wav
256,192,116736,1,0,0:0:0:35:hihat1.wav
475,192,116813,1,0,0:0:0:65:drum5.wav
402,192,116813,1,0,0:0:0:35:hihat2.wav
182,192,116890,1,0,0:0:0:35:hihat1.wav
36,192,116968,1,0,0:0:0:45:kick2.wav
329,192,116968,1,0,0:0:0:35:hihat1.wav
109,192,116968,1,0,0:0:0:0:
256,192,117122,1,0,0:0:0:35:hihat2.wav
402,192,117277,1,0,0:0:0:65:drum1.wav
475,192,117277,1,0,0:0:0:35:hihat2.wav
36,192,117432,1,0,0:0:0:45:kick2.wav
109,192,117432,1,0,0:0:0:35:hihat2.wav
329,192,117586,1,0,0:0:0:65:drum1.wav
475,192,117586,1,0,0:0:0:35:hihat2.wav
36,192,117664,1,0,0:0:0:65:drum5.wav
182,192,117741,1,0,0:0:0:45:kick2.wav
402,192,117818,1,0,0:0:0:35:hihat1.wav
256,192,117896,1,0,0:0:0:35:hihat2.wav
109,192,117973,1,0,0:0:0:35:hihat1.wav
475,192,118050,1,0,0:0:0:65:drum1.wav
329,192,118050,1,0,0:0:0:35:hihat2.wav
36,192,118205,1,0,0:0:0:45:kick2.wav
109,192,118205,1,0,0:0:0:35:hihat1.wav
402,192,118205,1,0,0:0:0:0:
256,192,118359,1,0,0:0:0:35:hihat2.wav
182,192,118437,1,0,0:0:0:45:kick2.wav
475,192,118514,1,0,0:0:0:65:drum1.wav
329,192,118514,1,0,0:0:0:35:hihat2.wav
36,192,118669,1,0,0:0:0:45:kick2.wav
109,192,118669,1,0,0:0:0:35:hihat2.wav
256,192,118746,1,0,0:0:0:35:hihat1.wav
402,192,118823,1,0,0:0:0:35:hihat2.wav
182,192,118901,1,0,0:0:0:45:kick2.wav
329,192,118978,1,0,0:0:0:65:drum1.wav
475,192,118978,1,0,0:0:0:35:hihat2.wav
109,192,119133,1,0,0:0:0:45:kick2.wav
402,192,119210,1,0,0:0:0:45:kick2.wav
109,192,119287,1,0,0:0:0:45:kick2.wav
402,192,119365,1,0,0:0:0:45:kick2.wav
36,192,119442,1,0,0:0:0:45:kick2.wav
182,192,119442,1,0,0:0:0:35:hihat1.wav
256,192,119442,1,2,2:0:0:65:
329,192,119597,1,0,0:0:0:65:drum1.wav
475,192,119597,1,0,0:0:0:35:hihat2.wav
182,192,119751,1,0,0:0:0:35:hihat2.wav
36,192,119829,1,0,0:0:0:35:hihat1.wav
402,192,119906,1,0,0:0:0:45:kick2.wav
256,192,119906,1,0,0:0:0:65:drum1.wav
475,192,120060,1,0,0:0:0:65:drum1.wav
329,192,120060,1,2,2:0:0:65:
109,192,120138,1,0,0:0:0:65:drum5.wav
256,192,120215,1,0,0:0:0:45:kick2.wav
402,192,120292,1,0,0:0:0:65:drum1.wav
475,192,120292,1,0,0:0:0:35:hihat1.wav
36,192,120370,1,0,0:0:0:35:hihat2.wav
182,192,120447,1,0,0:0:0:35:hihat1.wav
475,192,120524,1,0,0:0:0:45:kick2.wav
329,192,120524,1,0,0:0:0:65:drum1.wav
256,192,120602,1,0,0:0:0:65:drum5.wav
36,192,120679,1,0,0:0:0:45:kick2.wav
109,192,120679,1,0,0:0:0:35:hihat1.wav
402,192,120679,1,2,2:0:0:65:
329,192,120834,1,0,0:0:0:45:kick2.wav
182,192,120911,1,0,0:0:0:45:kick2.wav
402,192,120988,1,0,0:0:0:65:drum1.wav
475,192,120988,1,0,0:0:0:35:hihat2.wav
36,192,121143,1,0,0:0:0:45:kick2.wav
109,192,121143,1,0,0:0:0:35:hihat2.wav
256,192,121220,1,0,0:0:0:45:kick2.wav
329,192,121298,1,0,0:0:0:35:hihat2.wav
182,192,121375,1,0,0:0:0:45:kick2.wav
402,192,121452,1,0,0:0:0:65:drum1.wav
475,192,121452,1,0,0:0:0:35:hihat2.wav
256,192,121607,1,0,0:0:0:45:kick2.wav
109,192,121684,1,0,0:0:0:35:hihat1.wav
256,192,121762,1,0,0:0:0:45:kick2.wav
402,192,121839,1,0,0:0:0:35:hihat1.wav
109,192,121916,1,0,0:0:0:45:kick2.wav
36,192,121916,1,0,0:0:0:65:drum5.wav
475,192,121916,1,0,0:0:0:35:hihat1.wav
256,192,122071,1,0,0:0:0:45:kick2.wav
402,192,122225,1,0,0:0:0:65:drum1.wav
475,192,122225,1,0,0:0:0:35:hihat2.wav
109,192,122380,1,0,0:0:0:45:kick2.wav
36,192,122380,1,0,0:0:0:65:drum5.wav
329,192,122535,1,0,0:0:0:65:drum1.wav
475,192,122535,1,0,0:0:0:35:hihat2.wav
182,192,122689,1,0,0:0:0:45:kick2.wav
329,192,122767,1,0,0:0:0:45:kick2.wav
182,192,122844,1,0,0:0:0:45:kick2.wav
329,192,122921,1,0,0:0:0:45:kick2.wav
36,192,122999,1,0,0:0:0:45:kick2.wav
256,192,122999,1,0,0:0:0:65:drum5.wav
475,192,123153,1,0,0:0:0:45:kick2.wav
402,192,123153,1,0,0:0:0:65:drum1.wav
109,192,123153,1,0,0:0:0:35:hihat2.wav
182,192,123308,1,0,0:0:0:45:kick2.wav
36,192,123308,1,0,0:0:0:35:hihat1.wav
329,192,123463,1,0,0:0:0:65:drum5.wav
475,192,123617,1,0,0:0:0:45:kick2.wav
402,192,123617,1,0,0:0:0:65:drum1.wav
182,192,123772,1,0,0:0:0:45:kick2.wav
36,192,123772,1,0,0:0:0:35:hihat1.wav
256,192,123926,1,0,0:0:0:45:kick2.wav
329,192,123926,1,0,0:0:0:35:hihat2.wav
475,192,124081,1,0,0:0:0:65:drum1.wav
402,192,124081,1,0,0:0:0:35:hihat2.wav
329,192,124236,1,0,0:0:0:45:kick2.wav
182,192,124236,1,0,0:0:0:35:hihat2.wav
109,192,124390,1,0,0:0:0:45:kick2.wav
36,192,124390,1,0,0:0:0:65:drum5.wav
475,192,124390,1,2,2:0:0:65:
329,192,124545,1,0,0:0:0:35:hihat2.wav
182,192,124622,1,0,0:0:0:45:kick2.wav
256,192,124622,1,0,0:0:0:35:hihat1.wav
402,192,124777,1,0,0:0:0:35:hihat2.wav
109,192,124854,1,0,0:0:0:45:kick2.wav
36,192,124854,1,0,0:0:0:35:hihat1.wav
475,192,125009,1,0,0:0:0:65:drum1.wav
329,192,125009,1,2,2:0:0:65:
256,192,125086,1,0,0:0:0:35:hihat2.wav
36,192,125164,1,0,0:0:0:45:kick2.wav
182,192,125164,1,0,0:0:0:35:hihat2.wav
329,192,125241,1,0,0:0:0:35:hihat2.wav
402,192,125318,128,0,125627:0:0:0:50:hihat1.wav
109,192,125473,128,0,125627:0:0:0:45:kick2.wav
256,192,125473,1,0,0:0:0:65:drum1.wav
182,192,125627,1,0,0:0:0:45:kick2.wav
36,192,125627,1,0,0:0:0:35:hihat1.wav
475,192,125627,1,2,2:0:0:65:
329,192,125705,1,0,0:0:0:65:drum5.wav
402,192,125937,1,0,0:0:0:65:drum1.wav
475,192,125937,1,0,0:0:0:35:hihat2.wav
182,192,126091,1,0,0:0:0:45:kick2.wav
36,192,126091,1,0,0:0:0:65:drum5.wav
182,192,126246,1,0,0:0:0:35:hihat2.wav
402,192,126401,1,0,0:0:0:65:drum1.wav
475,192,126401,1,0,0:0:0:35:hihat2.wav
109,192,126555,1,0,0:0:0:35:hihat2.wav
256,192,126633,1,0,0:0:0:35:hihat1.wav
475,192,126710,1,0,0:0:0:65:drum5.wav
402,192,126710,1,0,0:0:0:35:hihat2.wav
182,192,126787,1,0,0:0:0:35:hihat1.wav
329,192,126865,1,0,0:0:0:45:kick2.wav
36,192,126865,1,0,0:0:0:35:hihat1.wav
109,192,126865,1,0,0:0:0:0:
256,192,127019,1,0,0:0:0:35:hihat2.wav
475,192,127174,1,0,0:0:0:65:drum1.wav
402,192,127174,1,0,0:0:0:35:hihat2.wav
109,192,127329,1,0,0:0:0:45:kick2.wav
36,192,127329,1,0,0:0:0:35:hihat2.wav
475,192,127483,1,0,0:0:0:65:drum1.wav
329,192,127483,1,0,0:0:0:35:hihat2.wav
182,192,127560,1,0,0:0:0:65:drum5.wav
36,192,127638,1,0,0:0:0:45:kick2.wav
402,192,127715,1,0,0:0:0:35:hihat1.wav
109,192,127792,1,0,0:0:0:35:hihat2.wav
256,192,127870,1,0,0:0:0:35:hihat1.wav
402,192,127947,1,0,0:0:0:65:drum1.wav
475,192,127947,1,0,0:0:0:35:hihat2.wav
36,192,128102,1,0,0:0:0:45:kick2.wav
109,192,128102,1,0,0:0:0:35:hihat1.wav
329,192,128102,1,0,0:0:0:0:
402,192,128256,1,0,0:0:0:65:drum5.wav
256,192,128256,1,0,0:0:0:35:hihat2.wav
182,192,128334,1,0,0:0:0:45:kick2.wav
475,192,128411,1,0,0:0:0:65:drum1.wav
329,192,128411,1,0,0:0:0:35:hihat2.wav
36,192,128566,1,0,0:0:0:45:kick2.wav
109,192,128566,1,0,0:0:0:35:hihat2.wav
256,192,128643,1,0,0:0:0:35:hihat1.wav
402,192,128720,1,0,0:0:0:35:hihat2.wav
182,192,128798,1,0,0:0:0:45:kick2.wav
329,192,128875,1,0,0:0:0:65:drum1.wav
475,192,128875,1,0,0:0:0:35:hihat2.wav
109,192,129030,1,0,0:0:0:45:kick2.wav
329,192,129107,1,0,0:0:0:45:kick2.wav
109,192,129184,1,0,0:0:0:45:kick2.wav
329,192,129262,1,0,0:0:0:45:kick2.wav
36,192,129339,1,0,0:0:0:45:kick2.wav
182,192,129339,1,0,0:0:0:35:hihat1.wav
475,192,129339,1,2,2:0:0:65:
256,192,129493,1,0,0:0:0:65:drum1.wav
402,192,129493,1,0,0:0:0:35:hihat2.wav
109,192,129648,1,0,0:0:0:35:hihat2.wav
182,192,129725,1,0,0:0:0:35:hihat1.wav
329,192,129803,1,0,0:0:0:45:kick2.wav
256,192,129803,1,0,0:0:0:65:drum1.wav
402,192,129957,1,0,0:0:0:65:drum1.wav
475,192,129957,1,2,2:0:0:65:
256,192,130035,1,0,0:0:0:65:drum5.wav
109,192,130112,1,0,0:0:0:45:kick2.wav
475,192,130189,1,0,0:0:0:65:drum1.wav
329,192,130189,1,0,0:0:0:35:hihat1.wav
36,192,130267,1,0,0:0:0:35:hihat2.wav
182,192,130344,1,0,0:0:0:35:hihat1.wav
402,192,130421,1,0,0:0:0:45:kick2.wav
475,192,130421,1,0,0:0:0:65:drum1.wav
256,192,130499,1,0,0:0:0:65:drum5.wav
109,192,130576,1,0,0:0:0:45:kick2.wav
36,192,130576,1,0,0:0:0:35:hihat1.wav
329,192,130576,1,2,2:0:0:65:
256,192,130731,1,0,0:0:0:45:kick2.wav
182,192,130808,1,0,0:0:0:45:kick2.wav
329,192,130885,1,0,0:0:0:65:drum1.wav
475,192,130885,1,0,0:0:0:35:hihat2.wav
109,192,131040,1,0,0:0:0:45:kick2.wav
36,192,131040,1,0,0:0:0:35:hihat2.wav
256,192,131117,1,0,0:0:0:45:kick2.wav
402,192,131194,1,0,0:0:0:35:hihat2.wav
182,192,131272,1,0,0:0:0:45:kick2.wav
329,192,131349,1,0,0:0:0:65:drum1.wav
475,192,131349,1,0,0:0:0:35:hihat2.wav
256,192,131504,1,0,0:0:0:45:kick2.wav
402,192,131581,1,0,0:0:0:35:hihat1.wav
256,192,131658,1,0,0:0:0:45:kick2.wav
109,192,131736,1,0,0:0:0:35:hihat1.wav
36,192,131813,1,0,0:0:0:45:kick2.wav
329,192,131813,1,0,0:0:0:65:drum5.wav
475,192,131813,1,0,0:0:0:35:hihat1.wav
182,192,131968,1,0,0:0:0:45:kick2.wav
402,192,132122,1,0,0:0:0:65:drum1.wav
475,192,132122,1,0,0:0:0:35:hihat2.wav
109,192,132277,1,0,0:0:0:45:kick2.wav
36,192,132277,1,0,0:0:0:65:drum5.wav
329,192,132432,1,0,0:0:0:65:drum1.wav
475,192,132432,1,0,0:0:0:35:hihat2.wav
182,192,132586,1,0,0:0:0:45:kick2.wav
402,192,132664,1,0,0:0:0:45:kick2.wav
182,192,132741,1,0,0:0:0:45:kick2.wav
402,192,132818,1,0,0:0:0:45:kick2.wav
36,192,132896,1,0,0:0:0:45:kick2.wav
256,192,132896,1,0,0:0:0:65:drum5.wav
329,192,133050,1,0,0:0:0:45:kick2.wav
475,192,133050,1,0,0:0:0:65:drum1.wav
109,192,133050,1,0,0:0:0:35:hihat2.wav
36,192,133205,1,0,0:0:0:45:kick2.wav
182,192,133205,1,0,0:0:0:35:hihat1.wav
256,192,133359,1,0,0:0:0:65:drum5.wav
475,192,133514,1,0,0:0:0:45:kick2.wav
402,192,133514,1,0,0:0:0:65:drum1.wav
109,192,133669,1,0,0:0:0:45:kick2.wav
36,192,133669,1,0,0:0:0:35:hihat1.wav
182,192,133823,1,0,0:0:0:45:kick2.wav
256,192,133823,1,0,0:0:0:35:hihat2.wav
475,192,133978,1,0,0:0:0:65:drum1.wav
329,192,133978,1,0,0:0:0:35:hihat2.wav
256,192,134133,1,0,0:0:0:45:kick2.wav
402,192,134133,1,0,0:0:0:35:hihat2.wav
36,192,134287,1,0,0:0:0:45:kick2.wav
182,192,134287,1,0,0:0:0:65:drum5.wav
475,192,134287,1,0,0:0:0:35:hihat2.wav
109,192,134442,1,0,0:0:0:35:hihat2.wav
256,192,134519,1,0,0:0:0:45:kick2.wav
402,192,134519,1,0,0:0:0:35:hihat1.wav
475,192,134674,1,0,0:0:0:35:hihat2.wav
36,192,134751,1,0,0:0:0:45:kick2.wav
182,192,134751,1,0,0:0:0:35:hihat1.wav
402,192,134906,1,0,0:0:0:65:drum1.wav
475,192,134906,1,0,0:0:0:35:hihat2.wav
256,192,134983,1,0,0:0:0:35:hihat2.wav
109,192,135060,1,0,0:0:0:45:kick2.wav
36,192,135060,1,0,0:0:0:35:hihat2.wav
329,192,135138,1,0,0:0:0:35:hihat2.wav
182,192,135215,128,0,135524:0:0:0:50:hihat1.wav
256,192,135370,1,0,0:0:0:45:kick2.wav
329,192,135370,128,0,135524:0:0:0:65:drum1.wav
36,192,135524,1,0,0:0:0:45:kick2.wav
475,192,135524,1,0,0:0:0:0:
402,192,135524,1,0,0:0:0:35:hihat1.wav
109,192,135524,1,0,0:0:0:60:crash.wav
256,192,135679,1,0,0:0:0:35:hihat2.wav
475,192,135834,1,0,0:0:0:65:drum1.wav
329,192,135834,1,0,0:0:0:35:hihat2.wav
36,192,135988,1,0,0:0:0:45:kick2.wav
109,192,135988,1,0,0:0:0:35:hihat2.wav
109,192,136143,1,0,0:0:0:35:hihat2.wav
256,192,136298,1,0,0:0:0:65:drum1.wav
402,192,136298,1,0,0:0:0:35:hihat2.wav
109,192,136452,1,0,0:0:0:35:hihat2.wav
182,192,136530,1,0,0:0:0:35:hihat1.wav
475,192,136607,1,0,0:0:0:65:drum5.wav
329,192,136607,1,0,0:0:0:35:hihat2.wav
256,192,136684,1,0,0:0:0:35:hihat1.wav
36,192,136762,1,0,0:0:0:45:kick2.wav
109,192,136762,1,0,0:0:0:35:hihat1.wav
402,192,136762,1,0,0:0:0:0:
182,192,136916,1,0,0:0:0:35:hihat2.wav
329,192,137071,1,0,0:0:0:65:drum1.wav
475,192,137071,1,0,0:0:0:35:hihat2.wav
109,192,137225,1,0,0:0:0:45:kick2.wav
36,192,137225,1,0,0:0:0:35:hihat2.wav
475,192,137380,1,0,0:0:0:65:drum1.wav
329,192,137380,1,0,0:0:0:35:hihat2.wav
36,192,137457,1,0,0:0:0:65:drum5.wav
182,192,137535,1,0,0:0:0:45:kick2.wav
402,192,137612,1,0,0:0:0:35:hihat1.wav
109,192,137689,1,0,0:0:0:35:hihat2.wav
256,192,137767,1,0,0:0:0:35:hihat1.wav
329,192,137844,1,0,0:0:0:65:drum1.wav
475,192,137844,1,0,0:0:0:35:hihat2.wav
36,192,137999,1,0,0:0:0:45:kick2.wav
402,192,137999,1,0,0:0:0:35:hihat1.wav
182,192,137999,1,0,0:0:0:0:
256,192,138153,1,0,0:0:0:35:hihat2.wav
109,192,138231,1,0,0:0:0:45:kick2.wav
402,192,138308,1,0,0:0:0:65:drum1.wav
475,192,138308,1,0,0:0:0:35:hihat2.wav
36,192,138463,1,0,0:0:0:45:kick2.wav
182,192,138463,1,0,0:0:0:35:hihat2.wav
329,192,138540,1,0,0:0:0:35:hihat1.wav
402,192,138617,1,0,0:0:0:35:hihat2.wav
109,192,138694,1,0,0:0:0:45:kick2.wav
475,192,138772,1,0,0:0:0:65:drum1.wav
256,192,138772,1,0,0:0:0:35:hihat2.wav
109,192,138926,1,0,0:0:0:45:kick2.wav
402,192,139004,1,0,0:0:0:45:kick2.wav
109,192,139081,1,0,0:0:0:45:kick2.wav
402,192,139158,1,0,0:0:0:45:kick2.wav
182,192,139236,1,0,0:0:0:45:kick2.wav
36,192,139236,1,0,0:0:0:35:hihat1.wav
256,192,139236,1,2,2:0:0:65:
475,192,139390,1,0,0:0:0:65:drum1.wav
329,192,139390,1,0,0:0:0:35:hihat2.wav
182,192,139545,1,0,0:0:0:35:hihat2.wav
109,192,139622,1,0,0:0:0:35:hihat1.wav
256,192,139700,1,0,0:0:0:45:kick2.wav
402,192,139700,1,0,0:0:0:65:drum1.wav
329,192,139854,1,0,0:0:0:65:drum1.wav
475,192,139854,1,0,0:0:0:35:hihat2.wav
36,192,139854,1,2,2:0:0:65:
109,192,139932,1,0,0:0:0:65:drum5.wav
256,192,140009,1,0,0:0:0:45:kick2.wav
475,192,140086,1,0,0:0:0:65:drum1.wav
402,192,140086,1,0,0:0:0:35:hihat1.wav
36,192,140164,1,0,0:0:0:35:hihat2.wav
182,192,140241,1,0,0:0:0:35:hihat1.wav
329,192,140318,1,0,0:0:0:45:kick2.wav
475,192,140318,1,0,0:0:0:65:drum1.wav
256,192,140396,1,0,0:0:0:65:drum5.wav
182,192,140473,1,0,0:0:0:45:kick2.wav
36,192,140473,1,0,0:0:0:35:hihat1.wav
402,192,140473,1,2,2:0:0:65:
256,192,140627,1,0,0:0:0:45:kick2.wav
109,192,140705,1,0,0:0:0:45:kick2.wav
475,192,140782,1,0,0:0:0:65:drum1.wav
329,192,140782,1,0,0:0:0:35:hihat2.wav
36,192,140937,1,0,0:0:0:45:kick2.wav
182,192,140937,1,0,0:0:0:35:hihat2.wav
402,192,141014,1,0,0:0:0:45:kick2.wav
256,192,141091,1,0,0:0:0:35:hihat2.wav
109,192,141169,1,0,0:0:0:45:kick2.wav
329,192,141246,1,0,0:0:0:65:drum1.wav
475,192,141246,1,0,0:0:0:35:hihat2.wav
256,192,141401,1,0,0:0:0:45:kick2.wav
109,192,141478,1,0,0:0:0:35:hihat1.wav
256,192,141555,1,0,0:0:0:45:kick2.wav
402,192,141633,1,0,0:0:0:35:hihat1.wav
182,192,141710,1,0,0:0:0:45:kick2.wav
36,192,141710,1,0,0:0:0:65:drum5.wav
475,192,141710,1,0,0:0:0:35:hihat1.wav
256,192,141865,1,0,0:0:0:45:kick2.wav
329,192,142019,1,0,0:0:0:65:drum1.wav
475,192,142019,1,0,0:0:0:35:hihat2.wav
36,192,142174,1,0,0:0:0:45:kick2.wav
182,192,142174,1,0,0:0:0:65:drum5.wav
402,192,142329,1,0,0:0:0:65:drum1.wav
475,192,142329,1,0,0:0:0:35:hihat2.wav
182,192,142483,1,0,0:0:0:45:kick2.wav
329,192,142560,1,0,0:0:0:45:kick2.wav
182,192,142638,1,0,0:0:0:45:kick2.wav
329,192,142715,1,0,0:0:0:45:kick2.wav
256,192,142792,1,0,0:0:0:45:kick2.wav
109,192,142792,1,0,0:0:0:65:drum5.wav
475,192,142947,1,0,0:0:0:45:kick2.wav
329,192,142947,1,0,0:0:0:65:drum1.wav
182,192,142947,1,0,0:0:0:35:hihat2.wav
109,192,143102,1,0,0:0:0:45:kick2.wav
36,192,143102,1,0,0:0:0:35:hihat1.wav
256,192,143256,1,0,0:0:0:65:drum5.wav
475,192,143411,1,0,0:0:0:45:kick2.wav
402,192,143411,1,0,0:0:0:65:drum1.wav
36,192,143566,1,0,0:0:0:45:kick2.wav
109,192,143566,1,0,0:0:0:35:hihat1.wav
182,192,143720,1,0,0:0:0:45:kick2.wav
256,192,143720,1,0,0:0:0:35:hihat2.wav
329,192,143875,1,0,0:0:0:65:drum1.wav
475,192,143875,1,0,0:0:0:35:hihat2.wav
256,192,144030,1,0,0:0:0:45:kick2.wav
402,192,144030,1,0,0:0:0:35:hihat2.wav
182,192,144184,1,0,0:0:0:45:kick2.wav
36,192,144184,1,0,0:0:0:65:drum5.wav
475,192,144184,1,2,2:0:0:65:
109,192,144339,1,0,0:0:0:35:hihat2.wav
256,192,144416,1,0,0:0:0:45:kick2.wav
402,192,144416,1,0,0:0:0:35:hihat1.wav
475,192,144571,1,0,0:0:0:35:hihat2.wav
36,192,144648,1,0,0:0:0:45:kick2.wav
109,192,144648,1,0,0:0:0:35:hihat1.wav
402,192,144803,1,0,0:0:0:65:drum1.wav
475,192,144803,1,0,0:0:0:35:hihat2.wav
182,192,144803,1,2,2:0:0:65:
256,192,144880,1,0,0:0:0:35:hihat2.wav
36,192,144957,1,0,0:0:0:45:kick2.wav
329,192,144957,1,0,0:0:0:35:hihat2.wav
182,192,145035,1,0,0:0:0:35:hihat2.wav
402,192,145112,128,0,145421:0:0:0:50:hihat1.wav
256,192,145267,1,0,0:0:0:45:kick2.wav
109,192,145267,128,0,145421:0:0:0:65:drum1.wav
36,192,145421,1,0,0:0:0:45:kick2.wav
475,192,145421,1,0,0:0:0:35:hihat1.wav
182,192,145421,1,2,2:0:0:65:
329,192,145499,1,0,0:0:0:65:drum5.wav
475,192,145731,1,0,0:0:0:65:drum1.wav
329,192,145731,1,0,0:0:0:35:hihat2.wav
36,192,145885,1,0,0:0:0:45:kick2.wav
182,192,145885,1,0,0:0:0:65:drum5.wav
182,192,146040,1,0,0:0:0:35:hihat2.wav
475,192,146194,1,0,0:0:0:65:drum1.wav
402,192,146194,1,0,0:0:0:35:hihat2.wav
109,192,146349,1,0,0:0:0:35:hihat2.wav
256,192,146426,1,0,0:0:0:35:hihat1.wav
475,192,146504,1,0,0:0:0:65:drum5.wav
402,192,146504,1,0,0:0:0:35:hihat2.wav
182,192,146581,1,0,0:0:0:35:hihat1.wav
36,192,146658,1,0,0:0:0:45:kick2.wav
329,192,146658,1,0,0:0:0:35:hihat1.wav
109,192,146658,1,0,0:0:0:0:
256,192,146813,1,0,0:0:0:35:hihat2.wav
475,192,146968,1,0,0:0:0:65:drum1.wav
402,192,146968,1,0,0:0:0:35:hihat2.wav
36,192,147122,1,0,0:0:0:45:kick2.wav
182,192,147122,1,0,0:0:0:35:hihat2.wav
329,192,147277,1,0,0:0:0:65:drum1.wav
475,192,147277,1,0,0:0:0:35:hihat2.wav
109,192,147354,1,0,0:0:0:65:drum5.wav
256,192,147432,1,0,0:0:0:45:kick2.wav
402,192,147509,1,0,0:0:0:35:hihat1.wav
182,192,147586,1,0,0:0:0:35:hihat2.wav
36,192,147664,1,0,0:0:0:35:hihat1.wav
329,192,147741,1,0,0:0:0:65:drum1.wav
475,192,147741,1,0,0:0:0:35:hihat2.wav
36,192,147896,1,0,0:0:0:45:kick2.wav
109,192,147896,1,0,0:0:0:35:hihat1.wav
329,192,147896,1,0,0:0:0:0:
256,192,148050,1,0,0:0:0:65:drum5.wav
402,192,148050,1,0,0:0:0:35:hihat2.wav
182,192,148127,1,0,0:0:0:45:kick2.wav
475,192,148205,1,0,0:0:0:65:drum1.wav
329,192,148205,1,0,0:0:0:35:hihat2.wav
36,192,148359,1,0,0:0:0:45:kick2.wav
109,192,148359,1,0,0:0:0:35:hihat2.wav
256,192,148437,1,0,0:0:0:35:hihat1.wav
329,192,148514,1,0,0:0:0:35:hihat2.wav
182,192,148591,1,0,0:0:0:45:kick2.wav
475,192,148669,1,0,0:0:0:65:drum1.wav
402,192,148669,1,0,0:0:0:35:hihat2.wav
109,192,148823,1,0,0:0:0:45:kick2.wav
329,192,148901,1,0,0:0:0:45:kick2.wav
109,192,148978,1,0,0:0:0:45:kick2.wav
329,192,149055,1,0,0:0:0:45:kick2.wav
36,192,149133,1,0,0:0:0:45:kick2.wav
182,192,149133,1,0,0:0:0:35:hihat1.wav
475,192,149133,1,2,2:0:0:65:
402,192,149287,1,0,0:0:0:65:drum1.wav
329,192,149287,1,0,0:0:0:35:hihat2.wav
36,192,149442,1,0,0:0:0:35:hihat2.wav
182,192,149519,1,0,0:0:0:35:hihat1.wav
256,192,149597,1,0,0:0:0:45:kick2.wav
329,192,149597,1,0,0:0:0:65:drum1.wav
402,192,149751,1,0,0:0:0:65:drum1.wav
475,192,149751,1,0,0:0:0:35:hihat2.wav
36,192,149751,1,2,2:0:0:65:
256,192,149829,1,0,0:0:0:65:drum5.wav
109,192,149906,1,0,0:0:0:45:kick2.wav
475,192,149983,1,0,0:0:0:65:drum1.wav
329,192,149983,1,0,0:0:0:35:hihat1.wav
36,192,150060,1,0,0:0:0:35:hihat2.wav
182,192,150138,1,0,0:0:0:35:hihat1.wav
402,192,150215,1,0,0:0:0:45:kick2.wav
475,192,150215,1,0,0:0:0:65:drum1.wav
256,192,150292,1,0,0:0:0:65:drum5.wav
36,192,150370,1,0,0:0:0:45:kick2.wav
109,192,150370,1,0,0:0:0:35:hihat1.wav
329,192,150370,1,2,2:0:0:65:
402,192,150524,1,0,0:0:0:45:kick2.wav
182,192,150602,1,0,0:0:0:45:kick2.wav
475,192,150679,1,0,0:0:0:65:drum1.wav
329,192,150679,1,0,0:0:0:35:hihat2.wav
36,192,150834,1,0,0:0:0:45:kick2.wav
109,192,150834,1,0,0:0:0:35:hihat2.wav
256,192,150911,1,0,0:0:0:45:kick2.wav
402,192,150988,1,0,0:0:0:35:hihat2.wav
182,192,151066,1,0,0:0:0:45:kick2.wav
329,192,151143,1,0,0:0:0:65:drum1.wav
475,192,151143,1,0,0:0:0:35:hihat2.wav
256,192,151298,1,0,0:0:0:45:kick2.wav
402,192,151375,1,0,0:0:0:35:hihat1.wav
256,192,151452,1,0,0:0:0:45:kick2.wav
109,192,151530,1,0,0:0:0:35:hihat1.wav
329,192,151607,1,0,0:0:0:45:kick2.wav
36,192,151607,1,0,0:0:0:65:drum5.wav
475,192,151607,1,0,0:0:0:35:hihat1.wav
182,192,151762,1,0,0:0:0:45:kick2.wav
475,192,151916,1,0,0:0:0:65:drum1.wav
402,192,151916,1,0,0:0:0:35:hihat2.wav
36,192,152071,1,0,0:0:0:45:kick2.wav
109,192,152071,1,0,0:0:0:65:drum5.wav
329,192,152225,1,0,0:0:0:65:drum1.wav
475,192,152225,1,0,0:0:0:35:hihat2.wav
182,192,152380,1,0,0:0:0:45:kick2.wav
402,192,152457,1,0,0:0:0:45:kick2.wav
182,192,152535,1,0,0:0:0:45:kick2.wav
402,192,152612,1,0,0:0:0:45:kick2.wav
109,192,152689,1,0,0:0:0:45:kick2.wav
36,192,152689,1,0,0:0:0:65:drum5.wav
475,192,152844,1,0,0:0:0:45:kick2.wav
402,192,152844,1,0,0:0:0:65:drum1.wav
256,192,152844,1,0,0:0:0:35:hihat2.wav
182,192,152999,1,0,0:0:0:45:kick2.wav
36,192,152999,1,0,0:0:0:35:hihat1.wav
256,192,153153,1,0,0:0:0:65:drum5.wav
329,192,153308,1,0,0:0:0:45:kick2.wav
475,192,153308,1,0,0:0:0:65:drum1.wav
109,192,153463,1,0,0:0:0:45:kick2.wav
36,192,153463,1,0,0:0:0:35:hihat1.wav
182,192,153617,1,0,0:0:0:45:kick2.wav
256,192,153694,1,0,0:0:0:45:kick2.wav
475,192,153772,1,0,0:0:0:65:drum1.wav
402,192,153772,1,0,0:0:0:35:hihat2.wav
329,192,153926,1,0,0:0:0:45:kick2.wav
256,192,154004,1,0,0:0:0:45:kick2.wav
36,192,154081,1,0,0:0:0:45:kick2.wav
109,192,154081,1,0,0:0:0:65:drum5.wav
475,192,154081,1,0,0:0:0:35:hihat2.wav
402,192,154236,1,0,0:0:0:35:hihat2.wav
256,192,154313,1,0,0:0:0:45:kick2.wav
182,192,154313,1,0,0:0:0:35:hihat1.wav
109,192,154468,1,0,0:0:0:35:hihat2.wav
256,192,154545,1,0,0:0:0:45:kick2.wav
329,192,154545,1,0,0:0:0:35:hihat1.wav
475,192,154700,1,0,0:0:0:65:drum1.wav
402,192,154700,1,0,0:0:0:35:hihat2.wav
182,192,154700,1,0,0:0:0:0:
256,192,154777,1,0,0:0:0:35:hihat2.wav
36,192,154854,1,0,0:0:0:45:kick2.wav
329,192,154854,1,0,0:0:0:35:hihat2.wav
109,192,154932,1,0,0:0:0:35:hihat2.wav
182,192,155009,128,0,155318:0:0:0:50:hihat1.wav
256,192,155164,1,0,0:0:0:45:kick2.wav
329,192,155164,128,0,155318:0:0:0:65:drum1.wav
402,192,155318,1,0,0:0:0:60:crash.wav
36,192,155318,1,0,0:0:0:60:kick2.wav
109,192,155318,1,0,0:0:0:40:hihat1.wav
475,192,155318,1,0,0:0:0:0:
329,192,155627,1,0,0:0:0:60:drum1.wav
475,192,155627,1,0,0:0:0:40:hihat2.wav
182,192,155782,1,0,0:0:0:40:hihat2.wav
182,192,155937,1,0,0:0:0:40:hihat2.wav
329,192,156091,1,0,0:0:0:60:drum1.wav
475,192,156091,1,0,0:0:0:40:hihat2.wav
109,192,156246,1,0,0:0:0:40:hihat2.wav
109,192,156401,1,0,0:0:0:40:hihat2.wav
36,192,156555,1,0,0:0:0:60:kick2.wav
256,192,156555,1,0,0:0:0:40:hihat1.wav
402,192,156865,1,0,0:0:0:60:drum1.wav
475,192,156865,1,0,0:0:0:40:hihat2.wav
109,192,157019,1,0,0:0:0:40:hihat2.wav
402,192,157174,1,0,0:0:0:60:drum1.wav
475,192,157174,1,0,0:0:0:40:hihat2.wav
182,192,157329,1,0,0:0:0:40:hihat2.wav
182,192,157483,1,0,0:0:0:40:hihat2.wav
402,192,157638,1,0,0:0:0:60:drum1.wav
475,192,157638,1,0,0:0:0:40:hihat2.wav
36,192,157792,1,0,0:0:0:60:kick2.wav
109,192,157792,1,0,0:0:0:40:hihat1.wav
182,192,158024,1,0,0:0:0:60:kick2.wav
109,192,158024,1,0,0:0:0:40:hihat1.wav
329,192,158102,1,0,0:0:0:60:drum1.wav
475,192,158102,1,0,0:0:0:40:hihat2.wav
36,192,158256,1,0,0:0:0:60:kick2.wav
109,192,158256,1,0,0:0:0:40:hihat2.wav
256,192,158411,1,0,0:0:0:40:hihat2.wav
182,192,158488,1,0,0:0:0:60:kick2.wav
109,192,158488,1,0,0:0:0:40:hihat1.wav
329,192,158566,1,0,0:0:0:60:drum1.wav
475,192,158566,1,0,0:0:0:40:hihat2.wav
182,192,158720,1,0,0:0:0:60:kick2.wav
329,192,158798,1,0,0:0:0:60:kick2.wav
182,192,158875,1,0,0:0:0:60:kick2.wav
329,192,158952,1,0,0:0:0:60:kick2.wav
256,192,159030,1,0,0:0:0:60:kick2.wav
36,192,159030,1,2,2:0:0:65:
475,192,159184,1,0,0:0:0:60:drum1.wav
329,192,159184,1,0,0:0:0:40:hihat2.wav
109,192,159339,1,0,0:0:0:40:hihat2.wav
475,192,159493,1,0,0:0:0:60:drum1.wav
329,192,159493,1,0,0:0:0:40:hihat2.wav
475,192,159648,1,0,0:0:0:60:drum1.wav
402,192,159648,1,2,2:0:0:65:
182,192,159803,1,2,2:0:0:65:
402,192,159880,1,0,0:0:0:60:drum1.wav
475,192,159880,1,0,0:0:0:40:hihat1.wav
182,192,160035,1,0,0:0:0:40:hihat1.wav
475,192,160112,1,0,0:0:0:60:drum1.wav
402,192,160112,1,0,0:0:0:40:hihat2.wav
36,192,160267,1,0,0:0:0:60:kick2.wav
256,192,160267,1,2,2:0:0:65:
36,192,160421,1,0,0:0:0:60:kick2.wav
182,192,160499,1,0,0:0:0:60:kick2.wav
475,192,160576,1,0,0:0:0:60:drum1.wav
329,192,160576,1,0,0:0:0:40:hihat2.wav
36,192,160731,1,0,0:0:0:60:kick2.wav
182,192,160808,1,0,0:0:0:60:kick2.wav
329,192,160885,1,0,0:0:0:40:hihat2.wav
36,192,160963,1,0,0:0:0:60:kick2.wav
475,192,161040,1,0,0:0:0:60:drum1.wav
329,192,161040,1,0,0:0:0:40:hihat2.wav
402,192,161194,1,0,0:0:0:60:kick2.wav
109,192,161194,1,0,0:0:0:40:hihat2.wav
109,192,161349,1,0,0:0:0:60:kick2.wav
402,192,161349,1,0,0:0:0:40:hihat2.wav
36,192,161504,1,0,0:0:0:60:kick2.wav
182,192,161504,1,0,0:0:0:40:hihat1.wav
36,192,161658,1,0,0:0:0:60:kick2.wav
182,192,161658,1,0,0:0:0:40:hihat1.wav
329,192,161813,1,0,0:0:0:60:drum1.wav
402,192,161813,1,0,0:0:0:40:hihat2.wav
182,192,161968,1,0,0:0:0:40:hihat2.wav
402,192,162122,1,0,0:0:0:60:drum1.wav
475,192,162122,1,0,0:0:0:40:hihat2.wav
182,192,162277,1,0,0:0:0:60:kick2.wav
329,192,162354,1,0,0:0:0:60:kick2.wav
182,192,162432,1,0,0:0:0:60:kick2.wav
329,192,162509,1,0,0:0:0:60:kick2.wav
109,192,162586,1,0,0:0:0:60:kick2.wav
329,192,162741,1,0,0:0:0:60:drum1.wav
475,192,162741,1,0,0:0:0:40:hihat2.wav
36,192,162896,1,0,0:0:0:60:kick2.wav
109,192,162896,1,0,0:0:0:40:hihat1.wav
182,192,163050,1,0,0:0:0:40:hihat2.wav
329,192,163205,1,0,0:0:0:60:drum1.wav
475,192,163205,1,0,0:0:0:40:hihat2.wav
36,192,163359,1,0,0:0:0:60:kick2.wav
109,192,163359,1,0,0:0:0:40:hihat1.wav
36,192,163514,1,0,0:0:0:60:kick2.wav
109,192,163514,1,0,0:0:0:40:hihat2.wav
329,192,163669,1,0,0:0:0:60:drum1.wav
475,192,163669,1,0,0:0:0:40:hihat2.wav
36,192,163823,1,0,0:0:0:60:kick2.wav
109,192,163823,1,0,0:0:0:40:hihat2.wav
36,192,163978,1,0,0:0:0:60:kick2.wav
109,192,163978,1,0,0:0:0:40:hihat2.wav
475,192,163978,128,2,164287:2:0:0:65:
182,192,164210,1,0,0:0:0:60:kick2.wav
329,192,164442,1,0,0:0:0:60:kick2.wav
475,192,164597,1,0,0:0:0:40:hihat2.wav
402,192,164597,1,0,0:0:0:60:drum1.wav
36,192,164597,128,2,164906:2:0:0:65:
182,192,164751,1,0,0:0:0:40:hihat2.wav
256,192,164829,1,0,0:0:0:40:hihat2.wav
329,192,164906,128,0,165215:0:0:0:50:hihat1.wav
36,192,165215,1,0,0:0:0:60:kick2.wav
182,192,165215,1,0,0:0:0:50:hihat1.wav
475,192,165215,1,2,2:0:0:65:
475,192,165524,1,0,0:0:0:60:drum1.wav
402,192,165524,1,0,0:0:0:40:hihat2.wav
109,192,165679,1,0,0:0:0:40:hihat2.wav
109,192,165834,1,0,0:0:0:40:hihat2.wav
402,192,165988,1,0,0:0:0:60:drum1.wav
475,192,165988,1,0,0:0:0:40:hihat2.wav
182,192,166143,1,0,0:0:0:40:hihat2.wav
182,192,166298,1,0,0:0:0:40:hihat2.wav
256,192,166452,1,0,0:0:0:60:kick2.wav
36,192,166452,1,0,0:0:0:40:hihat1.wav
475,192,166762,1,0,0:0:0:60:drum1.wav
329,192,166762,1,0,0:0:0:40:hihat2.wav
182,192,166916,1,0,0:0:0:40:hihat2.wav
475,192,167071,1,0,0:0:0:60:drum1.wav
329,192,167071,1,0,0:0:0:40:hihat2.wav
109,192,167225,1,0,0:0:0:40:hihat2.wav
109,192,167380,1,0,0:0:0:40:hihat2.wav
402,192,167535,1,0,0:0:0:60:drum1.wav
475,192,167535,1,0,0:0:0:40:hihat2.wav
109,192,167689,1,0,0:0:0:60:kick2.wav
182,192,167689,1,0,0:0:0:40:hihat1.wav
36,192,167921,1,0,0:0:0:60:kick2.wav
109,192,167921,1,0,0:0:0:40:hihat1.wav
329,192,167999,1,0,0:0:0:60:drum1.wav
475,192,167999,1,0,0:0:0:40:hihat2.wav
109,192,168153,1,0,0:0:0:60:kick2.wav
182,192,168153,1,0,0:0:0:40:hihat2.wav
36,192,168308,128,0,168617:0:0:0:40:hihat2.wav
182,192,168385,1,0,0:0:0:60:kick2.wav
256,192,168385,1,0,0:0:0:40:hihat1.wav
475,192,168463,1,0,0:0:0:60:drum1.wav
402,192,168463,1,0,0:0:0:40:hihat2.wav
182,192,168617,1,0,0:0:0:60:kick2.wav
329,192,168694,1,0,0:0:0:60:kick2.wav
182,192,168772,1,0,0:0:0:60:kick2.wav
329,192,168849,1,0,0:0:0:60:kick2.wav
36,192,168926,1,0,0:0:0:60:kick2.wav
109,192,168926,1,2,2:0:0:65:
475,192,169081,1,0,0:0:0:60:drum1.wav
402,192,169081,1,0,0:0:0:40:hihat2.wav
182,192,169236,1,0,0:0:0:40:hihat2.wav
402,192,169390,1,0,0:0:0:60:drum1.wav
475,192,169390,1,0,0:0:0:40:hihat2.wav
475,192,169545,1,0,0:0:0:60:drum1.wav
329,192,169545,1,2,2:0:0:65:
109,192,169700,1,0,0:0:0:40:hihat2.wav
329,192,169777,1,0,0:0:0:60:drum1.wav
475,192,169777,1,0,0:0:0:40:hihat1.wav
109,192,169932,1,0,0:0:0:40:hihat1.wav
475,192,170009,1,0,0:0:0:60:drum1.wav
329,192,170009,1,0,0:0:0:40:hihat2.wav
36,192,170164,1,0,0:0:0:60:kick2.wav
182,192,170164,1,2,2:0:0:65:
329,192,170241,1,2,2:0:0:55:
109,192,170318,1,0,0:0:0:60:kick2.wav
182,192,170318,1,2,2:0:0:45:
402,192,170396,1,0,0:0:0:60:kick2.wav
329,192,170396,1,2,2:0:0:35:
36,192,170473,1,0,0:0:0:60:drum1.wav
475,192,170473,1,0,0:0:0:40:hihat2.wav
329,192,170627,1,0,0:0:0:60:kick2.wav
109,192,170705,1,0,0:0:0:60:kick2.wav
402,192,170782,1,0,0:0:0:40:hihat2.wav
182,192,170859,1,0,0:0:0:60:kick2.wav
36,192,170937,1,0,0:0:0:60:drum1.wav
475,192,170937,1,0,0:0:0:40:hihat2.wav
329,192,171091,1,0,0:0:0:60:kick2.wav
182,192,171091,1,0,0:0:0:40:hihat2.wav
329,192,171246,1,0,0:0:0:60:kick2.wav
182,192,171246,1,0,0:0:0:40:hihat2.wav
36,192,171401,1,0,0:0:0:60:kick2.wav
109,192,171401,1,0,0:0:0:40:hihat1.wav
109,192,171555,1,0,0:0:0:60:kick2.wav
36,192,171555,1,0,0:0:0:40:hihat1.wav
402,192,171710,1,0,0:0:0:60:drum1.wav
256,192,171710,1,0,0:0:0:40:hihat2.wav
109,192,171865,1,0,0:0:0:40:hihat2.wav
475,192,172019,1,0,0:0:0:60:drum1.wav
329,192,172019,1,0,0:0:0:40:hihat2.wav
109,192,172174,1,0,0:0:0:60:kick2.wav
402,192,172251,1,0,0:0:0:60:kick2.wav
109,192,172329,1,0,0:0:0:60:kick2.wav
402,192,172406,1,0,0:0:0:60:kick2.wav
256,192,172483,1,0,0:0:0:60:kick2.wav
402,192,172638,1,0,0:0:0:60:drum1.wav
475,192,172638,1,0,0:0:0:40:hihat2.wav
36,192,172792,1,0,0:0:0:60:kick2.wav
109,192,172792,1,0,0:0:0:40:hihat1.wav
256,192,172947,1,0,0:0:0:40:hihat2.wav
475,192,173102,1,0,0:0:0:60:drum1.wav
402,192,173102,1,0,0:0:0:40:hihat2.wav
36,192,173256,1,0,0:0:0:60:kick2.wav
109,192,173256,1,0,0:0:0:40:hihat1.wav
36,192,173411,1,0,0:0:0:60:kick2.wav
109,192,173411,1,0,0:0:0:40:hihat2.wav
475,192,173566,1,0,0:0:0:60:drum1.wav
402,192,173566,1,0,0:0:0:40:hihat2.wav
36,192,173720,1,0,0:0:0:60:kick2.wav
109,192,173720,1,0,0:0:0:40:hihat2.wav
182,192,173875,1,0,0:0:0:60:kick2.wav
329,192,173875,1,0,0:0:0:40:hihat2.wav
182,192,174107,1,0,0:0:0:60:kick2.wav
329,192,174107,1,0,0:0:0:40:hihat1.wav
182,192,174339,1,0,0:0:0:60:kick2.wav
329,192,174339,1,0,0:0:0:40:hihat1.wav
109,192,174493,1,0,0:0:0:60:drum1.wav
402,192,174493,1,0,0:0:0:40:hihat2.wav
256,192,174493,1,0,0:0:0:0:
475,192,174648,1,0,0:0:0:60:drum1.wav
402,192,174648,1,0,0:0:0:0:
329,192,174725,1,0,0:0:0:60:drum1.wav
182,192,174725,1,0,0:0:0:0:
36,192,174803,1,0,0:0:0:0:
109,192,174803,1,0,0:0:0:60:drum1.wav
475,192,174841,1,0,0:0:0:60:drum1.wav
402,192,174880,1,0,0:0:0:60:drum1.wav
329,192,174919,1,0,0:0:0:60:drum1.wav
256,192,174957,1,0,0:0:0:60:drum1.wav
182,192,174996,1,0,0:0:0:60:drum1.wav
109,192,175035,1,0,0:0:0:60:drum1.wav
36,192,175073,1,0,0:0:0:60:drum1.wav
256,192,175112,1,0,0:0:0:75:crash.wav
329,192,175112,1,0,0:0:0:70:kick2.wav
475,192,175112,1,0,0:0:0:35:hihat1.wav
182,192,175112,1,0,0:0:0:70:kick3.wav
109,192,175267,1,0,0:0:0:35:hihat2.wav
475,192,175421,1,0,0:0:0:70:drum1.wav
402,192,175421,1,0,0:0:0:35:hihat2.wav
36,192,175576,1,0,0:0:0:70:kick3.wav
109,192,175576,1,0,0:0:0:70:kick2.wav
256,192,175576,1,0,0:0:0:35:hihat2.wav
182,192,175731,1,0,0:0:0:35:hihat2.wav
329,192,175731,1,0,0:0:0:0:
475,192,175885,1,0,0:0:0:70:drum1.wav
402,192,175885,1,0,0:0:0:35:hihat2.wav
182,192,176040,1,0,0:0:0:35:hihat2.wav
329,192,176117,1,0,0:0:0:70:drum1.wav
475,192,176117,1,0,0:0:0:35:hihat1.wav
109,192,176194,1,0,0:0:0:35:hihat2.wav
329,192,176272,1,0,0:0:0:70:drum1.wav
475,192,176272,1,0,0:0:0:35:hihat1.wav
256,192,176349,1,0,0:0:0:70:kick3.wav
182,192,176349,1,0,0:0:0:70:kick2.wav
36,192,176349,1,0,0:0:0:35:hihat1.wav
329,192,176504,1,0,0:0:0:35:hihat2.wav
475,192,176658,1,0,0:0:0:70:drum1.wav
402,192,176658,1,0,0:0:0:35:hihat2.wav
36,192,176813,1,0,0:0:0:70:kick3.wav
256,192,176813,1,0,0:0:0:70:kick2.wav
109,192,176813,1,0,0:0:0:35:hihat2.wav
182,192,176968,1,0,0:0:0:35:hihat2.wav
329,192,176968,1,0,0:0:0:0:
402,192,177122,1,0,0:0:0:70:drum1.wav
475,192,177122,1,0,0:0:0:70:kick3.wav
256,192,177122,1,0,0:0:0:70:kick2.wav
36,192,177277,1,0,0:0:0:35:hihat2.wav
182,192,177354,1,0,0:0:0:70:drum1.wav
329,192,177354,1,0,0:0:0:35:hihat1.wav
402,192,177432,1,0,0:0:0:70:kick3.wav
475,192,177432,1,0,0:0:0:70:drum1.wav
109,192,177509,1,0,0:0:0:70:kick3.wav
36,192,177509,1,0,0:0:0:70:kick2.wav
329,192,177586,1,0,0:0:0:70:kick3.wav
475,192,177586,1,0,0:0:0:70:kick2.wav
256,192,177586,1,0,0:0:0:35:hihat1.wav
109,192,177741,1,0,0:0:0:35:hihat2.wav
36,192,177896,1,0,0:0:0:70:kick2.wav
182,192,177896,1,0,0:0:0:70:drum1.wav
256,192,177896,1,0,0:0:0:35:hihat2.wav
329,192,178050,1,0,0:0:0:70:kick3.wav
475,192,178050,1,0,0:0:0:70:kick2.wav
256,192,178050,1,0,0:0:0:35:hihat2.wav
402,192,178205,1,0,0:0:0:35:hihat2.wav
109,192,178205,1,0,0:0:0:0:
182,192,178359,1,0,0:0:0:70:drum1.wav
36,192,178359,1,0,0:0:0:35:hihat2.wav
329,192,178514,1,0,0:0:0:70:kick3.wav
182,192,178591,1,0,0:0:0:70:kick3.wav
36,192,178591,1,0,0:0:0:70:drum1.wav
329,192,178669,1,0,0:0:0:70:kick3.wav
182,192,178746,1,0,0:0:0:70:kick3.wav
36,192,178746,1,0,0:0:0:70:drum1.wav
402,192,178823,1,0,0:0:0:70:kick3.wav
475,192,178823,1,0,0:0:0:70:kick2.wav
256,192,178823,1,2,2:0:0:75:
256,192,178978,1,0,0:0:0:70:kick3.wav
402,192,178978,1,0,0:0:0:70:kick2.wav
475,192,178978,1,0,0:0:0:35:hihat2.wav
182,192,179133,1,0,0:0:0:70:drum1.wav
329,192,179133,1,0,0:0:0:35:hihat2.wav
36,192,179287,1,0,0:0:0:70:kick3.wav
256,192,179287,1,0,0:0:0:70:kick2.wav
109,192,179287,1,0,0:0:0:35:hihat2.wav
36,192,179442,1,0,0:0:0:70:kick3.wav
256,192,179442,1,0,0:0:0:70:kick2.wav
109,192,179442,1,2,2:0:0:75:
182,192,179597,1,0,0:0:0:70:drum1.wav
329,192,179597,1,0,0:0:0:35:hihat2.wav
109,192,179674,1,0,0:0:0:70:drum1.wav
475,192,179751,1,0,0:0:0:70:kick3.wav
402,192,179751,1,0,0:0:0:70:kick2.wav
256,192,179751,1,0,0:0:0:35:hihat2.wav
182,192,179906,128,0,180060:0:0:0:70:drum1.wav
329,192,179906,128,0,180060:0:0:0:70:kick3.wav
36,192,180060,1,0,0:0:0:70:kick3.wav
402,192,180060,1,0,0:0:0:70:kick2.wav
109,192,180060,1,2,2:0:0:75:
256,192,180215,1,0,0:0:0:70:kick3.wav
475,192,180370,1,0,0:0:0:70:drum1.wav
329,192,180370,1,0,0:0:0:35:hihat2.wav
36,192,180524,1,0,0:0:0:70:kick3.wav
402,192,180524,1,0,0:0:0:70:kick2.wav
182,192,180524,1,0,0:0:0:35:hihat2.wav
256,192,180679,1,0,0:0:0:35:hihat2.wav
109,192,180679,1,0,0:0:0:0:
329,192,180834,1,0,0:0:0:70:drum1.wav
475,192,180834,1,0,0:0:0:35:hihat2.wav
109,192,180988,1,0,0:0:0:70:kick3.wav
329,192,181066,1,0,0:0:0:70:drum1.wav
475,192,181066,1,0,0:0:0:35:hihat1.wav
182,192,181143,1,0,0:0:0:70:kick3.wav
329,192,181220,1,0,0:0:0:70:drum1.wav
475,192,181220,1,0,0:0:0:35:hihat1.wav
36,192,181298,1,0,0:0:0:70:kick3.wav
256,192,181298,1,0,0:0:0:70:kick2.wav
109,192,181298,1,0,0:0:0:35:hihat1.wav
36,192,181452,1,0,0:0:0:70:kick3.wav
109,192,181452,1,0,0:0:0:70:kick2.wav
256,192,181452,1,0,0:0:0:35:hihat2.wav
402,192,181607,1,0,0:0:0:70:drum1.wav
475,192,181607,1,0,0:0:0:35:hihat2.wav
36,192,181762,1,0,0:0:0:70:kick3.wav
182,192,181762,1,0,0:0:0:70:kick2.wav
256,192,181762,1,0,0:0:0:35:hihat2.wav
402,192,181916,1,0,0:0:0:35:hihat2.wav
329,192,181916,1,0,0:0:0:0:
109,192,182071,1,0,0:0:0:70:kick3.wav
36,192,182071,1,0,0:0:0:70:kick2.wav
475,192,182071,1,0,0:0:0:70:drum1.wav
182,192,182148,1,0,0:0:0:70:kick3.wav
329,192,182225,1,0,0:0:0:70:kick3.wav
36,192,182303,1,0,0:0:0:70:kick3.wav
109,192,182303,1,0,0:0:0:70:kick2.wav
256,192,182303,1,0,0:0:0:70:drum1.wav
475,192,182380,1,0,0:0:0:70:kick3.wav
402,192,182380,1,0,0:0:0:35:hihat2.wav
182,192,182457,1,0,0:0:0:70:kick3.wav
36,192,182457,1,0,0:0:0:35:hihat1.wav
329,192,182535,1,0,0:0:0:70:kick3.wav
256,192,182535,1,0,0:0:0:70:kick2.wav
475,192,182535,1,0,0:0:0:70:drum1.wav
402,192,182689,1,0,0:0:0:70:kick3.wav
256,192,182844,1,0,0:0:0:70:kick2.wav
329,192,182844,1,0,0:0:0:70:drum1.wav
36,192,182844,1,0,0:0:0:35:hihat2.wav
182,192,182999,1,0,0:0:0:70:kick3.wav
256,192,182999,1,0,0:0:0:70:kick2.wav
475,192,182999,1,0,0:0:0:70:drum1.wav
402,192,183153,1,0,0:0:0:70:kick3.wav
36,192,183153,1,0,0:0:0:35:hihat2.wav
109,192,183308,1,0,0:0:0:70:kick3.wav
256,192,183308,1,0,0:0:0:70:drum1.wav
329,192,183463,1,0,0:0:0:70:drum1.wav
475,192,183463,1,0,0:0:0:35:hihat2.wav
182,192,183540,1,0,0:0:0:70:drum1.wav
36,192,183540,1,0,0:0:0:35:hihat1.wav
402,192,183617,1,0,0:0:0:70:kick3.wav
182,192,183694,1,0,0:0:0:70:drum1.wav
36,192,183694,1,0,0:0:0:35:hihat1.wav
256,192,183772,1,0,0:0:0:70:kick3.wav
475,192,183772,1,0,0:0:0:70:kick2.wav
329,192,183772,1,2,2:0:0:75:
256,192,183926,1,0,0:0:0:70:kick3.wav
475,192,183926,1,0,0:0:0:70:kick2.wav
329,192,183926,1,0,0:0:0:35:hihat2.wav
402,192,184081,1,0,0:0:0:70:drum1.wav
109,192,184081,1,0,0:0:0:35:hihat2.wav
36,192,184236,1,0,0:0:0:70:kick3.wav
182,192,184236,1,0,0:0:0:70:kick2.wav
256,192,184236,1,0,0:0:0:35:hihat1.wav
256,192,184390,1,0,0:0:0:70:kick3.wav
182,192,184390,1,0,0:0:0:70:kick2.wav
36,192,184390,1,2,2:0:0:75:
329,192,184545,1,0,0:0:0:70:drum1.wav
475,192,184545,1,0,0:0:0:35:hihat2.wav
36,192,184700,1,0,0:0:0:70:kick3.wav
109,192,184700,1,0,0:0:0:70:kick2.wav
256,192,184700,1,0,0:0:0:70:drum1.wav
402,192,184777,1,0,0:0:0:70:drum1.wav
475,192,184777,1,0,0:0:0:35:hihat1.wav
36,192,184854,1,0,0:0:0:70:drum1.wav
109,192,184854,1,0,0:0:0:35:hihat1.wav
402,192,184932,1,0,0:0:0:70:drum1.wav
475,192,184932,1,0,0:0:0:35:hihat1.wav
329,192,185009,1,0,0:0:0:70:kick3.wav
182,192,185009,1,0,0:0:0:70:kick2.wav
36,192,185009,1,2,2:0:0:75:
402,192,185164,1,0,0:0:0:35:hihat2.wav
109,192,185241,1,0,0:0:0:35:hihat1.wav
475,192,185318,1,0,0:0:0:70:drum1.wav
256,192,185318,1,0,0:0:0:35:hihat2.wav
329,192,185473,1,0,0:0:0:70:kick2.wav
182,192,185473,1,0,0:0:0:70:kick3.wav
36,192,185473,1,0,0:0:0:35:hihat2.wav
402,192,185627,1,0,0:0:0:35:hihat2.wav
256,192,185627,1,0,0:0:0:0:
475,192,185782,1,0,0:0:0:70:drum1.wav
109,192,185782,1,0,0:0:0:35:hihat2.wav
182,192,185937,1,0,0:0:0:35:hihat2.wav
329,192,186014,1,0,0:0:0:70:drum1.wav
402,192,186014,1,0,0:0:0:35:hihat1.wav
109,192,186091,1,0,0:0:0:35:hihat2.wav
329,192,186169,1,0,0:0:0:70:drum1.wav
402,192,186169,1,0,0:0:0:35:hihat1.wav
36,192,186246,1,0,0:0:0:70:kick3.wav
256,192,186246,1,0,0:0:0:70:kick2.wav
182,192,186246,1,0,0:0:0:35:hihat1.wav
329,192,186401,1,0,0:0:0:35:hihat2.wav
256,192,186555,1,0,0:0:0:70:drum1.wav
109,192,186555,1,0,0:0:0:35:hihat2.wav
36,192,186710,1,0,0:0:0:70:kick3.wav
475,192,186710,1,0,0:0:0:70:kick2.wav
402,192,186710,1,0,0:0:0:35:hihat2.wav
329,192,186865,1,0,0:0:0:35:hihat2.wav
182,192,186865,1,0,0:0:0:0:
256,192,187019,1,0,0:0:0:70:drum1.wav
109,192,187019,1,0,0:0:0:70:kick3.wav
36,192,187019,1,0,0:0:0:70:kick2.wav
475,192,187174,1,0,0:0:0:35:hihat2.wav
182,192,187251,1,0,0:0:0:70:drum1.wav
329,192,187251,1,0,0:0:0:35:hihat1.wav
109,192,187329,1,0,0:0:0:70:kick3.wav
36,192,187329,1,0,0:0:0:70:drum1.wav
402,192,187406,1,0,0:0:0:70:kick2.wav
475,192,187406,1,0,0:0:0:70:kick3.wav
182,192,187483,1,0,0:0:0:70:kick2.wav
256,192,187483,1,0,0:0:0:70:kick3.wav
36,192,187483,1,0,0:0:0:35:hihat1.wav
329,192,187638,1,0,0:0:0:35:hihat2.wav
475,192,187792,1,0,0:0:0:70:kick2.wav
256,192,187792,1,0,0:0:0:70:drum1.wav
109,192,187792,1,0,0:0:0:35:hihat2.wav
36,192,187947,1,0,0:0:0:70:kick2.wav
256,192,187947,1,0,0:0:0:70:kick3.wav
402,192,187947,1,0,0:0:0:35:hihat2.wav
182,192,188102,1,0,0:0:0:35:hihat2.wav
329,192,188102,1,0,0:0:0:0:
475,192,188256,1,0,0:0:0:70:drum1.wav
36,192,188256,1,0,0:0:0:35:hihat2.wav
329,192,188411,1,0,0:0:0:70:kick3.wav
182,192,188488,1,0,0:0:0:70:kick3.wav
109,192,188488,1,0,0:0:0:70:drum1.wav
329,192,188566,1,0,0:0:0:70:kick3.wav
182,192,188643,1,0,0:0:0:70:kick3.wav
109,192,188643,1,0,0:0:0:70:drum1.wav
256,192,188720,1,0,0:0:0:70:kick3.wav
402,192,188720,1,0,0:0:0:70:kick2.wav
475,192,188720,1,2,2:0:0:75:
256,192,188875,1,0,0:0:0:70:kick3.wav
402,192,188875,1,0,0:0:0:70:kick2.wav
475,192,188875,1,0,0:0:0:35:hihat2.wav
329,192,189030,1,0,0:0:0:70:drum1.wav
109,192,189030,1,0,0:0:0:35:hihat2.wav
36,192,189184,1,0,0:0:0:70:kick3.wav
182,192,189184,1,0,0:0:0:70:kick2.wav
256,192,189184,1,0,0:0:0:35:hihat2.wav
36,192,189339,1,0,0:0:0:70:kick3.wav
182,192,189339,1,0,0:0:0:70:kick2.wav
256,192,189339,1,2,2:0:0:75:
109,192,189493,1,0,0:0:0:70:drum1.wav
329,192,189493,1,0,0:0:0:35:hihat2.wav
182,192,189571,1,0,0:0:0:70:drum1.wav
256,192,189648,1,0,0:0:0:70:kick2.wav
402,192,189648,1,0,0:0:0:70:kick3.wav
475,192,189648,1,0,0:0:0:35:hihat2.wav
109,192,189803,128,0,189957:0:0:0:70:drum1.wav
329,192,189803,128,0,189957:0:0:0:70:kick3.wav
36,192,189957,1,0,0:0:0:70:kick2.wav
256,192,189957,1,0,0:0:0:70:kick3.wav
475,192,189957,1,2,2:0:0:75:
182,192,190112,1,0,0:0:0:70:kick3.wav
402,192,190267,1,0,0:0:0:70:drum1.wav
109,192,190267,1,0,0:0:0:35:hihat2.wav
36,192,190421,1,0,0:0:0:70:kick2.wav
475,192,190421,1,0,0:0:0:70:kick3.wav
256,192,190421,1,0,0:0:0:35:hihat2.wav
402,192,190576,1,0,0:0:0:35:hihat2.wav
182,192,190576,1,0,0:0:0:0:
256,192,190731,1,0,0:0:0:70:drum1.wav
109,192,190731,1,0,0:0:0:35:hihat2.wav
329,192,190885,1,0,0:0:0:70:kick3.wav
182,192,190963,1,0,0:0:0:70:drum1.wav
109,192,190963,1,0,0:0:0:35:hihat1.wav
402,192,191040,1,0,0:0:0:70:kick3.wav
182,192,191117,1,0,0:0:0:70:drum1.wav
109,192,191117,1,0,0:0:0:35:hihat1.wav
256,192,191194,1,0,0:0:0:70:kick3.wav
329,192,191194,1,0,0:0:0:70:kick2.wav
475,192,191194,1,0,0:0:0:35:hihat1.wav
256,192,191349,1,0,0:0:0:70:kick3.wav
329,192,191349,1,0,0:0:0:70:kick2.wav
475,192,191349,1,0,0:0:0:35:hihat2.wav
182,192,191504,1,0,0:0:0:70:drum1.wav
402,192,191504,1,0,0:0:0:35:hihat2.wav
109,192,191658,1,0,0:0:0:70:kick3.wav
36,192,191658,1,0,0:0:0:70:kick2.wav
256,192,191658,1,0,0:0:0:35:hihat2.wav
329,192,191813,1,0,0:0:0:35:hihat2.wav
182,192,191813,1,0,0:0:0:0:
475,192,191968,1,0,0:0:0:70:drum1.wav
36,192,191968,1,0,0:0:0:70:kick3.wav
402,192,191968,1,0,0:0:0:70:kick2.wav
182,192,192045,1,0,0:0:0:70:kick3.wav
329,192,192122,1,0,0:0:0:70:kick3.wav
36,192,192200,1,0,0:0:0:70:kick3.wav
109,192,192200,1,0,0:0:0:70:kick2.wav
256,192,192200,1,0,0:0:0:70:drum1.wav
475,192,192277,1,0,0:0:0:70:kick3.wav
402,192,192277,1,0,0:0:0:35:hihat2.wav
182,192,192354,1,0,0:0:0:70:kick3.wav
36,192,192354,1,0,0:0:0:35:hihat1.wav
475,192,192432,1,0,0:0:0:70:kick2.wav
329,192,192432,1,0,0:0:0:70:kick3.wav
256,192,192432,1,0,0:0:0:70:drum1.wav
109,192,192586,1,0,0:0:0:70:kick3.wav
256,192,192741,1,0,0:0:0:70:kick2.wav
36,192,192741,1,0,0:0:0:70:drum1.wav
402,192,192741,1,0,0:0:0:35:hihat2.wav
256,192,192896,1,0,0:0:0:70:kick3.wav
109,192,192896,1,0,0:0:0:70:kick2.wav
475,192,192896,1,0,0:0:0:70:drum1.wav
329,192,193050,1,0,0:0:0:70:kick3.wav
182,192,193050,1,0,0:0:0:35:hihat2.wav
256,192,193205,1,0,0:0:0:70:kick3.wav
402,192,193205,1,0,0:0:0:70:drum1.wav
36,192,193359,1,0,0:0:0:70:drum1.wav
182,192,193359,1,0,0:0:0:35:hihat2.wav
329,192,193437,1,0,0:0:0:70:drum1.wav
402,192,193437,1,0,0:0:0:35:hihat1.wav
109,192,193514,1,0,0:0:0:70:kick3.wav
329,192,193591,1,0,0:0:0:70:drum1.wav
402,192,193591,1,0,0:0:0:35:hihat1.wav
256,192,193669,1,0,0:0:0:70:kick2.wav
182,192,193669,1,0,0:0:0:70:kick3.wav
36,192,193669,1,0,0:0:0:35:hihat1.wav
36,192,193823,1,0,0:0:0:70:kick2.wav
182,192,193823,1,0,0:0:0:70:kick3.wav
256,192,193823,1,0,0:0:0:35:hihat2.wav
475,192,193978,1,0,0:0:0:70:drum1.wav
329,192,193978,1,0,0:0:0:35:hihat2.wav
256,192,194133,1,0,0:0:0:70:kick3.wav
109,192,194133,1,0,0:0:0:70:kick2.wav
402,192,194133,1,0,0:0:0:35:hihat1.wav
402,192,194287,1,0,0:0:0:70:kick3.wav
109,192,194287,1,0,0:0:0:70:kick2.wav
256,192,194287,1,0,0:0:0:70:drum1.wav
36,192,194442,1,0,0:0:0:70:drum1.wav
109,192,194442,1,0,0:0:0:35:hihat2.wav
182,192,194519,1,0,0:0:0:70:drum1.wav
329,192,194519,1,0,0:0:0:35:hihat2.wav
402,192,194597,1,0,0:0:0:70:kick2.wav
475,192,194597,1,0,0:0:0:70:kick3.wav
256,192,194597,1,0,0:0:0:70:drum1.wav
36,192,194635,1,0,0:0:0:70:drum1.wav
109,192,194674,1,0,0:0:0:70:drum1.wav
182,192,194713,1,0,0:0:0:70:drum1.wav
256,192,194751,1,0,0:0:0:70:drum1.wav
329,192,194790,1,0,0:0:0:70:drum1.wav
402,192,194829,1,0,0:0:0:70:drum1.wav
475,192,194867,1,0,0:0:0:70:drum1.wav
329,192,194906,1,0,0:0:0:75:crash.wav
182,192,194906,1,0,0:0:0:70:kick2.wav
36,192,194906,1,0,0:0:0:70:kick3.wav
256,192,194906,1,0,0:0:0:40:hihat1.wav
109,192,195060,1,0,0:0:0:40:hihat2.wav
475,192,195215,1,0,0:0:0:70:drum1.wav
402,192,195215,1,0,0:0:0:40:hihat2.wav
256,192,195215,1,0,0:0:0:0:
36,192,195370,1,0,0:0:0:70:kick3.wav
109,192,195370,1,0,0:0:0:70:kick2.wav
329,192,195370,1,0,0:0:0:40:hihat2.wav
182,192,195524,1,0,0:0:0:40:hihat2.wav
475,192,195524,1,0,0:0:0:0:
256,192,195679,1,0,0:0:0:70:drum1.wav
402,192,195679,1,0,0:0:0:40:hihat2.wav
36,192,195679,1,0,0:0:0:0:
182,192,195834,1,0,0:0:0:40:hihat2.wav
402,192,195911,1,0,0:0:0:70:drum1.wav
475,192,195911,1,0,0:0:0:40:hihat1.wav
182,192,195988,1,0,0:0:0:40:hihat2.wav
402,192,196066,1,0,0:0:0:70:drum1.wav
475,192,196066,1,0,0:0:0:40:hihat1.wav
329,192,196143,1,0,0:0:0:70:kick3.wav
256,192,196143,1,0,0:0:0:70:kick2.wav
36,192,196143,1,0,0:0:0:40:hihat1.wav
402,192,196298,1,0,0:0:0:40:hihat2.wav
475,192,196452,1,0,0:0:0:70:drum1.wav
182,192,196452,1,0,0:0:0:40:hihat2.wav
109,192,196452,1,0,0:0:0:0:
36,192,196607,1,0,0:0:0:70:kick2.wav
256,192,196607,1,0,0:0:0:70:kick3.wav
329,192,196607,1,0,0:0:0:40:hihat2.wav
109,192,196762,1,0,0:0:0:40:hihat2.wav
402,192,196762,1,0,0:0:0:0:
182,192,196916,1,0,0:0:0:70:kick2.wav
475,192,196916,1,0,0:0:0:70:kick3.wav
329,192,196916,1,0,0:0:0:70:drum1.wav
256,192,197071,1,0,0:0:0:40:hihat2.wav
329,192,197148,1,0,0:0:0:70:drum1.wav
36,192,197148,1,0,0:0:0:40:hihat1.wav
475,192,197225,1,0,0:0:0:70:kick3.wav
182,192,197225,1,0,0:0:0:70:drum1.wav
109,192,197303,1,0,0:0:0:70:kick2.wav
402,192,197303,1,0,0:0:0:70:kick3.wav
36,192,197380,1,0,0:0:0:70:kick3.wav
329,192,197380,1,0,0:0:0:70:kick2.wav
256,192,197380,1,0,0:0:0:40:hihat1.wav
182,192,197535,1,0,0:0:0:40:hihat2.wav
109,192,197689,1,0,0:0:0:70:kick2.wav
475,192,197689,1,0,0:0:0:70:drum1.wav
256,192,197689,1,0,0:0:0:40:hihat2.wav
36,192,197844,1,0,0:0:0:70:kick2.wav
402,192,197844,1,0,0:0:0:70:kick3.wav
256,192,197844,1,0,0:0:0:40:hihat2.wav
329,192,197999,1,0,0:0:0:40:hihat2.wav
109,192,197999,1,0,0:0:0:0:
182,192,198153,1,0,0:0:0:70:drum1.wav
475,192,198153,1,0,0:0:0:40:hihat2.wav
256,192,198153,1,0,0:0:0:0:
329,192,198308,1,0,0:0:0:70:kick3.wav
402,192,198308,1,0,0:0:0:40:hihat2.wav
109,192,198385,1,0,0:0:0:70:kick3.wav
36,192,198385,1,0,0:0:0:70:drum1.wav
329,192,198463,1,0,0:0:0:70:kick3.wav
402,192,198463,1,0,0:0:0:40:hihat1.wav
109,192,198540,1,0,0:0:0:70:kick3.wav
36,192,198540,1,0,0:0:0:70:drum1.wav
182,192,198617,1,0,0:0:0:70:kick2.wav
475,192,198617,1,0,0:0:0:70:kick3.wav
256,192,198617,1,2,2:0:0:75:
256,192,198772,1,0,0:0:0:70:kick2.wav
182,192,198772,1,0,0:0:0:70:kick3.wav
475,192,198772,1,0,0:0:0:40:hihat2.wav
109,192,198926,1,0,0:0:0:70:drum1.wav
402,192,198926,1,0,0:0:0:40:hihat2.wav
36,192,199081,1,0,0:0:0:70:kick3.wav
256,192,199081,1,0,0:0:0:70:kick2.wav
329,192,199081,1,0,0:0:0:40:hihat2.wav
36,192,199236,1,0,0:0:0:70:kick3.wav
256,192,199236,1,0,0:0:0:70:kick2.wav
329,192,199236,1,2,2:0:0:75:
109,192,199390,1,0,0:0:0:70:drum1.wav
402,192,199390,1,0,0:0:0:40:hihat2.wav
329,192,199468,1,0,0:0:0:70:drum1.wav
475,192,199545,1,0,0:0:0:70:kick2.wav
256,192,199545,1,0,0:0:0:70:kick3.wav
182,192,199545,1,0,0:0:0:40:hihat2.wav
109,192,199700,128,0,199854:0:0:0:70:drum1.wav
402,192,199700,128,0,199854:0:0:0:70:kick3.wav
36,192,199854,1,0,0:0:0:70:kick2.wav
329,192,199854,1,0,0:0:0:70:kick3.wav
182,192,199854,1,2,2:0:0:75:
109,192,200009,1,0,0:0:0:70:kick3.wav
475,192,200164,1,0,0:0:0:70:drum1.wav
256,192,200164,1,0,0:0:0:40:hihat2.wav
402,192,200164,1,0,0:0:0:0:
36,192,200318,1,0,0:0:0:70:kick2.wav
109,192,200318,1,0,0:0:0:70:kick3.wav
329,192,200318,1,0,0:0:0:40:hihat2.wav
182,192,200473,1,0,0:0:0:40:hihat2.wav
475,192,200473,1,0,0:0:0:0:
109,192,200627,1,0,0:0:0:70:drum1.wav
329,192,200627,1,0,0:0:0:40:hihat2.wav
256,192,200627,1,0,0:0:0:0:
402,192,200782,1,0,0:0:0:70:kick3.wav
109,192,200859,1,0,0:0:0:70:drum1.wav
36,192,200859,1,0,0:0:0:40:hihat1.wav
402,192,200937,1,0,0:0:0:70:kick3.wav
109,192,201014,1,0,0:0:0:70:drum1.wav
36,192,201014,1,0,0:0:0:40:hihat1.wav
475,192,201091,1,0,0:0:0:70:kick3.wav
329,192,201091,1,0,0:0:0:70:kick2.wav
182,192,201091,1,0,0:0:0:40:hihat1.wav
182,192,201246,1,0,0:0:0:70:kick2.wav
329,192,201246,1,0,0:0:0:70:kick3.wav
475,192,201246,1,0,0:0:0:40:hihat2.wav
256,192,201401,1,0,0:0:0:70:drum1.wav
402,192,201401,1,0,0:0:0:40:hihat2.wav
109,192,201401,1,0,0:0:0:0:
36,192,201555,1,0,0:0:0:70:kick3.wav
109,192,201555,1,0,0:0:0:70:kick2.wav
329,192,201555,1,0,0:0:0:40:hihat2.wav
182,192,201710,1,0,0:0:0:40:hihat2.wav
256,192,201710,1,0,0:0:0:0:
475,192,201865,1,0,0:0:0:70:kick2.wav
36,192,201865,1,0,0:0:0:70:kick3.wav
402,192,201865,1,0,0:0:0:70:drum1.wav
182,192,201942,1,0,0:0:0:70:kick3.wav
329,192,202019,1,0,0:0:0:70:kick3.wav
109,192,202097,1,0,0:0:0:70:kick2.wav
36,192,202097,1,0,0:0:0:70:kick3.wav
475,192,202097,1,0,0:0:0:70:drum1.wav
256,192,202174,1,0,0:0:0:70:kick3.wav
402,192,202174,1,0,0:0:0:40:hihat2.wav
182,192,202251,1,0,0:0:0:70:kick3.wav
109,192,202251,1,0,0:0:0:40:hihat1.wav
36,192,202329,1,0,0:0:0:70:kick3.wav
329,192,202329,1,0,0:0:0:70:kick2.wav
475,192,202329,1,0,0:0:0:70:drum1.wav
182,192,202483,1,0,0:0:0:70:kick3.wav
402,192,202638,1,0,0:0:0:70:kick2.wav
256,192,202638,1,0,0:0:0:70:drum1.wav
109,192,202638,1,0,0:0:0:40:hihat2.wav
256,192,202792,1,0,0:0:0:70:kick2.wav
36,192,202792,1,0,0:0:0:70:kick3.wav
475,192,202792,1,0,0:0:0:70:drum1.wav
329,192,202947,1,0,0:0:0:70:kick3.wav
182,192,202947,1,0,0:0:0:40:hihat2.wav
402,192,203102,1,0,0:0:0:70:kick3.wav
109,192,203102,1,0,0:0:0:70:drum1.wav
256,192,203102,1,0,0:0:0:40:hihat2.wav
182,192,203256,1,0,0:0:0:70:drum1.wav
36,192,203256,1,0,0:0:0:40:hihat2.wav
475,192,203334,1,0,0:0:0:70:drum1.wav
402,192,203334,1,0,0:0:0:40:hihat1.wav
109,192,203411,1,0,0:0:0:70:kick3.wav
475,192,203488,1,0,0:0:0:70:drum1.wav
402,192,203488,1,0,0:0:0:40:hihat1.wav
36,192,203566,1,0,0:0:0:70:kick3.wav
329,192,203566,1,0,0:0:0:70:kick2.wav
256,192,203566,1,2,2:0:0:75:
256,192,203720,1,0,0:0:0:70:kick3.wav
329,192,203720,1,0,0:0:0:70:kick2.wav
36,192,203720,1,0,0:0:0:40:hihat2.wav
402,192,203875,1,0,0:0:0:70:drum1.wav
109,192,203875,1,0,0:0:0:40:hihat2.wav
182,192,203875,1,0,0:0:0:0:
182,192,204030,1,0,0:0:0:70:kick2.wav
475,192,204030,1,0,0:0:0:70:kick3.wav
256,192,204030,1,0,0:0:0:40:hihat1.wav
256,192,204184,1,0,0:0:0:70:kick2.wav
182,192,204184,1,0,0:0:0:70:kick3.wav
475,192,204184,1,2,2:0:0:75:
109,192,204339,1,0,0:0:0:70:drum1.wav
402,192,204339,1,0,0:0:0:40:hihat2.wav
329,192,204339,1,0,0:0:0:0:
36,192,204493,1,0,0:0:0:70:kick3.wav
182,192,204493,1,0,0:0:0:70:kick2.wav
256,192,204493,1,0,0:0:0:70:drum1.wav
329,192,204571,1,0,0:0:0:70:drum1.wav
475,192,204571,1,0,0:0:0:40:hihat1.wav
36,192,204648,1,0,0:0:0:70:drum1.wav
182,192,204648,1,0,0:0:0:40:hihat1.wav
329,192,204725,1,0,0:0:0:70:drum1.wav
475,192,204725,1,0,0:0:0:40:hihat1.wav
256,192,204803,1,0,0:0:0:70:kick2.wav
109,192,204803,1,0,0:0:0:70:kick3.wav
36,192,204803,1,2,2:0:0:75:
402,192,204880,1,0,0:0:0:40:hihat1.wav
329,192,204957,1,0,0:0:0:40:hihat2.wav
182,192,205035,1,0,0:0:0:40:hihat1.wav
475,192,205112,1,0,0:0:0:70:drum1.wav
402,192,205112,1,0,0:0:0:40:hihat2.wav
109,192,205112,1,0,0:0:0:0:
329,192,205267,1,0,0:0:0:70:kick3.wav
182,192,205267,1,0,0:0:0:70:kick2.wav
36,192,205267,1,0,0:0:0:40:hihat2.wav
475,192,205421,1,0,0:0:0:40:hihat2.wav
109,192,205421,1,0,0:0:0:0:
402,192,205576,1,0,0:0:0:70:drum1.wav
256,192,205576,1,0,0:0:0:40:hihat2.wav
182,192,205576,1,0,0:0:0:0:
109,192,205731,1,0,0:0:0:40:hihat2.wav
256,192,205808,1,0,0:0:0:70:drum1.wav
402,192,205808,1,0,0:0:0:40:hihat1.wav
109,192,205885,1,0,0:0:0:40:hihat2.wav
256,192,205963,1,0,0:0:0:70:drum1.wav
402,192,205963,1,0,0:0:0:40:hihat1.wav
36,192,206040,1,0,0:0:0:70:kick2.wav
475,192,206040,1,0,0:0:0:70:kick3.wav
182,192,206040,1,0,0:0:0:40:hihat1.wav
256,192,206194,1,0,0:0:0:40:hihat2.wav
402,192,206349,1,0,0:0:0:70:drum1.wav
109,192,206349,1,0,0:0:0:40:hihat2.wav
329,192,206349,1,0,0:0:0:0:
36,192,206504,1,0,0:0:0:70:kick3.wav
475,192,206504,1,0,0:0:0:70:kick2.wav
182,192,206504,1,0,0:0:0:40:hihat2.wav
256,192,206658,1,0,0:0:0:40:hihat2.wav
402,192,206658,1,0,0:0:0:0:
36,192,206736,1,0,0:0:0:40:hihat1.wav
329,192,206813,1,0,0:0:0:70:kick2.wav
475,192,206813,1,0,0:0:0:70:kick3.wav
182,192,206813,1,0,0:0:0:70:drum1.wav
256,192,206968,1,0,0:0:0:40:hihat2.wav
182,192,207045,1,0,0:0:0:70:drum1.wav
475,192,207045,1,0,0:0:0:40:hihat1.wav
36,192,207122,1,0,0:0:0:70:drum1.wav
329,192,207122,1,0,0:0:0:70:kick3.wav
402,192,207200,1,0,0:0:0:70:kick2.wav
109,192,207200,1,0,0:0:0:70:kick3.wav
475,192,207277,1,0,0:0:0:70:kick2.wav
182,192,207277,1,0,0:0:0:70:kick3.wav
256,192,207277,1,0,0:0:0:40:hihat1.wav
36,192,207432,1,0,0:0:0:40:hihat2.wav
256,192,207586,1,0,0:0:0:70:kick2.wav
475,192,207586,1,0,0:0:0:70:drum1.wav
402,192,207586,1,0,0:0:0:40:hihat2.wav
36,192,207741,1,0,0:0:0:70:kick2.wav
256,192,207741,1,0,0:0:0:70:kick3.wav
109,192,207741,1,0,0:0:0:40:hihat2.wav
475,192,207896,1,0,0:0:0:40:hihat2.wav
182,192,207896,1,0,0:0:0:0:
256,192,208050,1,0,0:0:0:70:drum1.wav
36,192,208050,1,0,0:0:0:40:hihat2.wav
329,192,208050,1,0,0:0:0:0:
402,192,208205,1,0,0:0:0:70:kick3.wav
475,192,208205,1,0,0:0:0:40:hihat2.wav
256,192,208282,1,0,0:0:0:70:kick3.wav
109,192,208282,1,0,0:0:0:70:drum1.wav
402,192,208359,1,0,0:0:0:70:kick3.wav
475,192,208359,1,0,0:0:0:40:hihat1.wav
256,192,208437,1,0,0:0:0:70:kick3.wav
109,192,208437,1,0,0:0:0:70:drum1.wav
36,192,208514,1,0,0:0:0:70:kick2.wav
329,192,208514,1,0,0:0:0:70:kick3.wav
182,192,208514,1,2,2:0:0:75:
36,192,208669,1,0,0:0:0:70:kick2.wav
329,192,208669,1,0,0:0:0:70:kick3.wav
182,192,208669,1,0,0:0:0:40:hihat2.wav
256,192,208823,1,0,0:0:0:70:drum1.wav
402,192,208823,1,0,0:0:0:40:hihat2.wav
329,192,208978,1,0,0:0:0:70:kick3.wav
182,192,208978,1,0,0:0:0:70:kick2.wav
475,192,208978,1,0,0:0:0:40:hihat2.wav
329,192,209133,1,0,0:0:0:70:kick3.wav
182,192,209133,1,0,0:0:0:70:kick2.wav
475,192,209133,1,2,2:0:0:75:
109,192,209287,1,0,0:0:0:70:drum1.wav
256,192,209287,1,0,0:0:0:40:hihat2.wav
329,192,209365,1,0,0:0:0:70:drum1.wav
182,192,209442,1,0,0:0:0:70:kick3.wav
475,192,209442,1,0,0:0:0:70:kick2.wav
36,192,209442,1,0,0:0:0:40:hihat2.wav
402,192,209597,128,0,209751:0:0:0:70:drum1.wav
256,192,209597,128,0,209751:0:0:0:70:kick3.wav
36,192,209751,1,0,0:0:0:70:kick2.wav
182,192,209751,1,0,0:0:0:70:kick3.wav
475,192,209751,1,2,2:0:0:75:
329,192,209906,1,0,0:0:0:70:kick3.wav
475,192,210060,1,0,0:0:0:70:drum1.wav
256,192,210060,1,0,0:0:0:40:hihat2.wav
109,192,210060,1,0,0:0:0:0:
36,192,210215,1,0,0:0:0:70:kick2.wav
182,192,210215,1,0,0:0:0:70:kick3.wav
402,192,210215,1,0,0:0:0:40:hihat2.wav
256,192,210370,1,0,0:0:0:40:hihat2.wav
329,192,210370,1,0,0:0:0:0:
475,192,210524,1,0,0:0:0:70:drum1.wav
109,192,210524,1,0,0:0:0:40:hihat2.wav
402,192,210524,1,0,0:0:0:0:
36,192,210679,1,0,0:0:0:70:kick3.wav
329,192,210756,1,0,0:0:0:70:drum1.wav
182,192,210756,1,0,0:0:0:40:hihat1.wav
475,192,210834,1,0,0:0:0:70:kick3.wav
329,192,210911,1,0,0:0:0:70:drum1.wav
182,192,210911,1,0,0:0:0:40:hihat1.wav
36,192,210988,1,0,0:0:0:70:kick2.wav
109,192,210988,1,0,0:0:0:70:kick3.wav
402,192,210988,1,0,0:0:0:40:hihat1.wav
36,192,211143,1,0,0:0:0:70:kick3.wav
109,192,211143,1,0,0:0:0:70:kick2.wav
402,192,211143,1,0,0:0:0:40:hihat2.wav
329,192,211298,1,0,0:0:0:70:drum1.wav
182,192,211298,1,0,0:0:0:40:hihat2.wav
475,192,211298,1,0,0:0:0:0:
36,192,211452,1,0,0:0:0:70:kick2.wav
256,192,211452,1,0,0:0:0:70:kick3.wav
402,192,211452,1,0,0:0:0:40:hihat2.wav
329,192,211607,1,0,0:0:0:40:hihat2.wav
182,192,211607,1,0,0:0:0:0:
109,192,211762,1,0,0:0:0:70:kick2.wav
36,192,211762,1,0,0:0:0:70:kick3.wav
475,192,211762,1,0,0:0:0:70:drum1.wav
329,192,211839,1,0,0:0:0:70:kick3.wav
182,192,211916,1,0,0:0:0:70:kick3.wav
36,192,211993,1,0,0:0:0:70:kick3.wav
475,192,211993,1,0,0:0:0:70:kick2.wav
402,192,211993,1,0,0:0:0:70:drum1.wav
256,192,212071,1,0,0:0:0:70:kick3.wav
109,192,212071,1,0,0:0:0:40:hihat2.wav
329,192,212148,1,0,0:0:0:70:kick3.wav
402,192,212148,1,0,0:0:0:40:hihat1.wav
475,192,212225,1,0,0:0:0:70:kick3.wav
182,192,212225,1,0,0:0:0:70:kick2.wav
36,192,212225,1,0,0:0:0:70:drum1.wav
329,192,212380,1,0,0:0:0:70:kick3.wav
256,192,212535,1,0,0:0:0:70:kick2.wav
109,192,212535,1,0,0:0:0:70:drum1.wav
402,192,212535,1,0,0:0:0:40:hihat2.wav
256,192,212689,1,0,0:0:0:70:kick3.wav
36,192,212689,1,0,0:0:0:70:kick2.wav
475,192,212689,1,0,0:0:0:70:drum1.wav
182,192,212844,1,0,0:0:0:70:kick3.wav
402,192,212844,1,0,0:0:0:40:hihat2.wav
109,192,212999,1,0,0:0:0:70:kick3.wav
329,192,212999,1,0,0:0:0:70:drum1.wav
256,192,212999,1,0,0:0:0:40:hihat2.wav
36,192,213153,1,0,0:0:0:70:drum1.wav
475,192,213153,1,0,0:0:0:40:hihat2.wav
182,192,213231,1,0,0:0:0:70:drum1.wav
329,192,213231,1,0,0:0:0:40:hihat1.wav
36,192,213308,1,0,0:0:0:70:kick3.wav
329,192,213385,1,0,0:0:0:70:drum1.wav
182,192,213385,1,0,0:0:0:40:hihat1.wav
475,192,213463,1,0,0:0:0:70:kick2.wav
402,192,213463,1,0,0:0:0:70:kick3.wav
256,192,213463,1,0,0:0:0:40:hihat1.wav
475,192,213617,1,0,0:0:0:70:kick3.wav
402,192,213617,1,0,0:0:0:70:kick2.wav
256,192,213617,1,0,0:0:0:40:hihat2.wav
182,192,213772,1,0,0:0:0:70:drum1.wav
36,192,213772,1,0,0:0:0:40:hihat2.wav
329,192,213772,1,0,0:0:0:0:
109,192,213926,1,0,0:0:0:70:kick2.wav
402,192,213926,1,0,0:0:0:70:kick3.wav
256,192,213926,1,0,0:0:0:40:hihat1.wav
109,192,214081,1,0,0:0:0:70:kick2.wav
402,192,214081,1,0,0:0:0:70:kick3.wav
256,192,214081,1,0,0:0:0:70:drum1.wav
109,192,214236,1,0,0:0:0:70:drum1.wav
36,192,214236,1,0,0:0:0:40:hihat2.wav
329,192,214313,1,0,0:0:0:70:drum1.wav
182,192,214313,1,0,0:0:0:40:hihat2.wav
402,192,214390,1,0,0:0:0:70:drum1.wav
36,192,214390,1,0,0:0:0:70:kick2.wav
475,192,214390,1,0,0:0:0:70:kick3.wav
109,192,214429,1,0,0:0:0:70:drum1.wav
182,192,214468,1,0,0:0:0:70:drum1.wav
256,192,214506,1,0,0:0:0:70:drum1.wav
475,192,214545,1,0,0:0:0:70:drum1.wav
402,192,214584,1,0,0:0:0:70:drum1.wav
329,192,214622,1,0,0:0:0:70:drum1.wav
256,192,214661,1,0,0:0:0:70:drum1.wav
402,192,214700,1,0,0:0:0:70:kick3.wav
475,192,214700,1,0,0:0:0:35:hihat1.wav
36,192,214700,1,0,0:0:0:70:kick2.wav
182,192,214700,1,0,0:0:0:75:crash.wav
475,192,215009,1,0,0:0:0:50:drum1.wav
329,192,215009,1,0,0:0:0:35:hihat2.wav
109,192,215164,1,0,0:0:0:35:hihat2.wav
109,192,215318,1,0,0:0:0:35:hihat2.wav
329,192,215473,1,0,0:0:0:50:drum1.wav
475,192,215473,1,0,0:0:0:35:hihat2.wav
182,192,215627,1,0,0:0:0:35:hihat2.wav
182,192,215782,1,0,0:0:0:35:hihat2.wav
109,192,215937,1,0,0:0:0:45:kick2.wav
36,192,215937,1,0,0:0:0:35:hihat1.wav
329,192,216246,1,0,0:0:0:50:drum1.wav
475,192,216246,1,0,0:0:0:35:hihat2.wav
109,192,216401,1,0,0:0:0:35:hihat2.wav
329,192,216555,1,0,0:0:0:50:drum1.wav
475,192,216555,1,0,0:0:0:35:hihat2.wav
182,192,216710,1,0,0:0:0:35:hihat2.wav
182,192,216865,1,0,0:0:0:35:hihat2.wav
329,192,217019,1,0,0:0:0:50:drum1.wav
475,192,217019,1,0,0:0:0:35:hihat2.wav
36,192,217174,1,0,0:0:0:45:kick2.wav
109,192,217174,1,0,0:0:0:35:hihat1.wav
109,192,217406,1,0,0:0:0:45:kick2.wav
182,192,217406,1,0,0:0:0:35:hihat1.wav
402,192,217483,1,0,0:0:0:50:drum1.wav
475,192,217483,1,0,0:0:0:35:hihat2.wav
109,192,217638,1,0,0:0:0:45:kick2.wav
36,192,217638,1,0,0:0:0:35:hihat2.wav
329,192,217792,1,0,0:0:0:35:hihat2.wav
182,192,217870,1,0,0:0:0:45:kick2.wav
109,192,217870,1,0,0:0:0:35:hihat1.wav
475,192,217947,1,0,0:0:0:50:drum1.wav
402,192,217947,1,0,0:0:0:35:hihat2.wav
182,192,218102,1,0,0:0:0:45:kick2.wav
329,192,218179,1,0,0:0:0:45:kick2.wav
182,192,218256,1,0,0:0:0:45:kick2.wav
329,192,218334,1,0,0:0:0:45:kick2.wav
36,192,218411,1,0,0:0:0:45:kick2.wav
109,192,218411,1,2,2:0:0:65:
329,192,218566,1,0,0:0:0:50:drum1.wav
475,192,218566,1,0,0:0:0:35:hihat2.wav
182,192,218720,1,0,0:0:0:35:hihat2.wav
329,192,218875,1,0,0:0:0:50:drum1.wav
475,192,218875,1,0,0:0:0:35:hihat2.wav
475,192,219030,1,0,0:0:0:50:drum1.wav
402,192,219030,1,2,2:0:0:65:
182,192,219184,1,0,0:0:0:35:hihat2.wav
402,192,219262,1,0,0:0:0:50:drum1.wav
475,192,219262,1,0,0:0:0:35:hihat1.wav
182,192,219416,1,0,0:0:0:35:hihat1.wav
402,192,219493,1,0,0:0:0:50:drum1.wav
475,192,219493,1,0,0:0:0:35:hihat2.wav
36,192,219648,1,0,0:0:0:45:kick2.wav
109,192,219648,1,2,2:0:0:65:
182,192,219803,1,0,0:0:0:45:kick2.wav
256,192,219880,1,0,0:0:0:45:kick2.wav
329,192,219957,1,0,0:0:0:50:drum1.wav
475,192,219957,128,0,220267:0:0:0:35:hihat2.wav
109,192,220112,1,0,0:0:0:45:kick2.wav
256,192,220189,1,0,0:0:0:45:kick2.wav
36,192,220267,1,0,0:0:0:35:hihat2.wav
182,192,220344,1,0,0:0:0:45:kick2.wav
475,192,220421,1,0,0:0:0:50:drum1.wav
329,192,220421,1,0,0:0:0:35:hihat2.wav
182,192,220576,1,0,0:0:0:45:kick2.wav
256,192,220576,1,0,0:0:0:35:hihat2.wav
182,192,220731,1,0,0:0:0:45:kick2.wav
256,192,220731,1,0,0:0:0:35:hihat2.wav
36,192,220885,1,0,0:0:0:45:kick2.wav
109,192,220885,1,0,0:0:0:35:hihat1.wav
109,192,221040,1,0,0:0:0:45:kick2.wav
36,192,221040,1,0,0:0:0:35:hihat1.wav
329,192,221194,1,0,0:0:0:50:drum1.wav
475,192,221194,1,0,0:0:0:35:hihat2.wav
109,192,221349,1,0,0:0:0:35:hihat2.wav
329,192,221504,1,0,0:0:0:50:drum1.wav
475,192,221504,1,0,0:0:0:35:hihat2.wav
36,192,221504,128,0,221813:0:0:0:0:
182,192,221658,1,0,0:0:0:45:kick2.wav
329,192,221736,1,0,0:0:0:45:kick2.wav
182,192,221813,1,0,0:0:0:45:kick2.wav
475,192,221813,128,0,222122:0:0:0:35:hihat1.wav
329,192,221890,1,0,0:0:0:45:kick2.wav
109,192,221968,1,0,0:0:0:45:kick2.wav
256,192,222122,1,0,0:0:0:50:drum1.wav
402,192,222122,1,0,0:0:0:35:hihat2.wav
109,192,222277,1,0,0:0:0:45:kick2.wav
36,192,222277,1,0,0:0:0:35:hihat1.wav
256,192,222432,1,0,0:0:0:35:hihat2.wav
329,192,222586,1,0,0:0:0:50:drum1.wav
475,192,222586,1,0,0:0:0:35:hihat2.wav
182,192,222741,1,0,0:0:0:45:kick2.wav
36,192,222741,1,0,0:0:0:35:hihat1.wav
36,192,222896,1,0,0:0:0:45:kick2.wav
182,192,222896,1,0,0:0:0:35:hihat1.wav
402,192,223050,1,0,0:0:0:50:drum1.wav
475,192,223050,1,0,0:0:0:35:hihat2.wav
109,192,223205,1,0,0:0:0:45:kick2.wav
36,192,223205,1,0,0:0:0:35:hihat1.wav
329,192,223359,1,0,0:0:0:45:kick2.wav
182,192,223359,1,2,2:0:0:65:
182,192,223591,1,0,0:0:0:45:kick2.wav
329,192,223591,1,0,0:0:0:35:hihat1.wav
329,192,223823,1,0,0:0:0:45:kick2.wav
182,192,223823,1,0,0:0:0:35:hihat1.wav
36,192,223978,1,0,0:0:0:50:drum1.wav
475,192,223978,1,2,2:0:0:65:
109,192,224133,1,0,0:0:0:35:hihat2.wav
402,192,224210,1,0,0:0:0:35:hihat2.wav
256,192,224287,128,0,224597:0:0:0:45:hihat1.wav
36,192,224597,1,0,0:0:0:45:kick2.wav
182,192,224597,1,0,0:0:0:35:hihat1.wav
329,192,224597,1,2,2:0:0:65:
402,192,224906,1,0,0:0:0:50:drum1.wav
475,192,224906,1,0,0:0:0:35:hihat2.wav
109,192,225060,1,0,0:0:0:35:hihat2.wav
109,192,225215,1,0,0:0:0:35:hihat2.wav
402,192,225370,1,0,0:0:0:50:drum1.wav
475,192,225370,1,0,0:0:0:35:hihat2.wav
329,192,225524,1,0,0:0:0:35:hihat2.wav
329,192,225679,1,0,0:0:0:35:hihat2.wav
182,192,225834,1,0,0:0:0:45:kick2.wav
36,192,225834,128,0,226143:0:0:0:35:hihat1.wav
475,192,226143,1,0,0:0:0:50:drum1.wav
402,192,226143,1,0,0:0:0:35:hihat2.wav
182,192,226298,1,0,0:0:0:35:hihat2.wav
329,192,226452,1,0,0:0:0:50:drum1.wav
475,192,226452,128,0,226762:0:0:0:35:hihat2.wav
109,192,226607,1,0,0:0:0:35:hihat2.wav
109,192,226762,1,0,0:0:0:35:hihat2.wav
402,192,226916,1,0,0:0:0:50:drum1.wav
475,192,226916,1,0,0:0:0:35:hihat2.wav
36,192,227071,1,0,0:0:0:45:kick2.wav
109,192,227071,1,0,0:0:0:35:hihat1.wav
109,192,227303,1,0,0:0:0:45:kick2.wav
182,192,227303,1,0,0:0:0:35:hihat1.wav
402,192,227380,1,0,0:0:0:50:drum1.wav
475,192,227380,1,0,0:0:0:35:hihat2.wav
109,192,227535,1,0,0:0:0:45:kick2.wav
36,192,227535,1,0,0:0:0:35:hihat2.wav
182,192,227689,1,0,0:0:0:35:hihat2.wav
36,192,227767,1,0,0:0:0:45:kick2.wav
329,192,227767,1,0,0:0:0:35:hihat1.wav
182,192,227844,1,0,0:0:0:50:drum1.wav
475,192,227844,1,0,0:0:0:35:hihat2.wav
329,192,227921,1,0,0:0:0:0:
109,192,227999,1,0,0:0:0:45:kick2.wav
256,192,227999,128,0,228308:0:0:0:35:hihat1.wav
402,192,228076,1,0,0:0:0:45:kick2.wav
109,192,228153,1,0,0:0:0:45:kick2.wav
402,192,228231,1,0,0:0:0:45:kick2.wav
36,192,228308,1,0,0:0:0:45:kick2.wav
182,192,228308,1,2,2:0:0:65:
475,192,228463,1,0,0:0:0:50:drum1.wav
402,192,228463,1,0,0:0:0:35:hihat2.wav
109,192,228617,1,0,0:0:0:35:hihat2.wav
402,192,228772,1,0,0:0:0:50:drum1.wav
475,192,228772,1,0,0:0:0:35:hihat2.wav
329,192,228926,1,0,0:0:0:50:drum1.wav
475,192,228926,1,2,2:0:0:65:
109,192,229081,1,0,0:0:0:35:hihat2.wav
329,192,229158,1,0,0:0:0:50:drum1.wav
475,192,229158,1,0,0:0:0:35:hihat1.wav
109,192,229313,1,0,0:0:0:35:hihat1.wav
475,192,229390,1,0,0:0:0:50:drum1.wav
329,192,229390,1,0,0:0:0:35:hihat2.wav
36,192,229545,1,0,0:0:0:45:kick2.wav
109,192,229545,1,2,2:0:0:65:
329,192,229700,1,0,0:0:0:45:kick2.wav
182,192,229777,1,0,0:0:0:45:kick2.wav
475,192,229854,1,0,0:0:0:50:drum1.wav
36,192,229854,1,0,0:0:0:35:hihat2.wav
256,192,229932,1,0,0:0:0:0:
109,192,230009,1,0,0:0:0:45:kick2.wav
329,192,230009,1,0,0:0:0:35:hihat2.wav
182,192,230086,1,0,0:0:0:45:kick2.wav
402,192,230086,1,0,0:0:0:35:hihat1.wav
36,192,230164,128,0,230318:0:0:0:35:hihat2.wav
329,192,230241,1,0,0:0:0:45:kick2.wav
182,192,230318,1,0,0:0:0:50:drum1.wav
475,192,230318,1,0,0:0:0:35:hihat2.wav
329,192,230473,1,0,0:0:0:45:kick2.wav
402,192,230473,1,0,0:0:0:35:hihat2.wav
329,192,230627,1,0,0:0:0:45:kick2.wav
402,192,230627,1,0,0:0:0:35:hihat2.wav
182,192,230782,1,0,0:0:0:45:kick2.wav
36,192,230782,1,0,0:0:0:35:hihat1.wav
182,192,230937,1,0,0:0:0:45:kick2.wav
36,192,230937,1,0,0:0:0:35:hihat1.wav
475,192,231091,1,0,0:0:0:50:drum1.wav
402,192,231091,1,0,0:0:0:35:hihat2.wav
256,192,231246,1,0,0:0:0:35:hihat2.wav
475,192,231401,1,0,0:0:0:50:drum1.wav
402,192,231401,1,0,0:0:0:35:hihat2.wav
109,192,231555,1,0,0:0:0:45:kick2.wav
402,192,231633,1,0,0:0:0:45:kick2.wav
109,192,231710,1,0,0:0:0:45:kick2.wav
402,192,231787,1,0,0:0:0:45:kick2.wav
256,192,231865,1,0,0:0:0:45:kick2.wav
475,192,232019,1,0,0:0:0:50:drum1.wav
329,192,232019,1,0,0:0:0:35:hihat2.wav
182,192,232174,1,0,0:0:0:45:kick2.wav
36,192,232174,1,0,0:0:0:35:hihat1.wav
475,192,232329,128,0,232483:0:0:0:35:hihat2.wav
402,192,232483,1,0,0:0:0:50:drum1.wav
256,192,232483,1,0,0:0:0:35:hihat2.wav
109,192,232638,1,0,0:0:0:45:kick2.wav
36,192,232638,1,0,0:0:0:35:hihat1.wav
36,192,232792,1,0,0:0:0:45:kick2.wav
109,192,232792,1,0,0:0:0:35:hihat1.wav
475,192,232947,1,0,0:0:0:50:drum1.wav
329,192,232947,1,0,0:0:0:35:hihat2.wav
182,192,233102,1,0,0:0:0:45:kick2.wav
36,192,233102,1,0,0:0:0:35:hihat1.wav
402,192,233256,1,0,0:0:0:45:kick2.wav
109,192,233256,1,0,0:0:0:35:hihat1.wav
402,192,233488,1,0,0:0:0:45:kick2.wav
109,192,233488,1,0,0:0:0:35:hihat1.wav
109,192,233720,1,0,0:0:0:45:kick2.wav
402,192,233720,1,0,0:0:0:35:hihat1.wav
475,192,233875,1,0,0:0:0:50:drum1.wav
36,192,233875,1,0,0:0:0:35:hihat2.wav
182,192,234030,1,0,0:0:0:35:hihat2.wav
329,192,234107,1,0,0:0:0:35:hihat2.wav
256,192,234184,128,0,234493:0:0:0:45:hihat1.wav
329,192,234493,1,0,0:0:0:60:crash.wav
182,192,234493,1,0,0:0:0:45:kick2.wav
475,192,234493,1,0,0:0:0:35:hihat1.wav
36,192,234493,1,0,0:0:0:0:
475,192,234803,1,0,0:0:0:35:hihat2.wav
402,192,234803,1,0,0:0:0:50:drum1.wav
109,192,234957,1,0,0:0:0:35:hihat2.wav
109,192,235112,1,0,0:0:0:35:hihat2.wav
402,192,235267,1,0,0:0:0:49:drum1.wav
475,192,235267,1,0,0:0:0:35:hihat2.wav
256,192,235421,1,0,0:0:0:35:hihat2.wav
256,192,235576,1,0,0:0:0:35:hihat2.wav
36,192,235731,1,0,0:0:0:43:kick2.wav
109,192,235731,1,0,0:0:0:35:hihat1.wav
475,192,236040,1,0,0:0:0:48:drum1.wav
329,192,236040,1,0,0:0:0:35:hihat2.wav
109,192,236194,1,0,0:0:0:35:hihat2.wav
475,192,236349,1,0,0:0:0:47:drum1.wav
329,192,236349,1,0,0:0:0:35:hihat2.wav
182,192,236504,1,0,0:0:0:35:hihat2.wav
182,192,236658,1,0,0:0:0:35:hihat2.wav
475,192,236813,1,0,0:0:0:47:drum1.wav
329,192,236813,1,0,0:0:0:35:hihat2.wav
36,192,236968,1,0,0:0:0:41:kick2.wav
182,192,236968,1,0,0:0:0:35:hihat1.wav
109,192,237200,1,0,0:0:0:41:kick2.wav
256,192,237200,1,0,0:0:0:35:hihat1.wav
475,192,237277,1,0,0:0:0:46:drum1.wav
402,192,237277,1,0,0:0:0:35:hihat2.wav
36,192,237432,1,0,0:0:0:41:kick2.wav
182,192,237432,1,0,0:0:0:35:hihat2.wav
329,192,237586,1,0,0:0:0:35:hihat2.wav
109,192,237664,1,0,0:0:0:40:kick2.wav
256,192,237664,1,0,0:0:0:35:hihat1.wav
475,192,237741,1,0,0:0:0:45:drum1.wav
402,192,237741,1,0,0:0:0:35:hihat2.wav
182,192,237896,1,0,0:0:0:40:kick2.wav
329,192,237973,1,0,0:0:0:40:kick2.wav
182,192,238050,1,0,0:0:0:40:kick2.wav
329,192,238127,1,0,0:0:0:40:kick2.wav
109,192,238205,1,0,0:0:0:39:kick2.wav
36,192,238205,1,2,2:0:0:65:
475,192,238359,1,0,0:0:0:44:drum1.wav
402,192,238359,1,0,0:0:0:35:hihat2.wav
182,192,238514,1,0,0:0:0:35:hihat2.wav
475,192,238669,1,0,0:0:0:44:drum1.wav
402,192,238669,1,2,2:0:0:65:
475,192,238823,1,0,0:0:0:43:drum1.wav
329,192,238823,1,2,2:0:0:65:
109,192,238978,1,0,0:0:0:35:hihat2.wav
475,192,239055,1,0,0:0:0:43:drum1.wav
329,192,239055,1,0,0:0:0:35:hihat1.wav
109,192,239210,1,0,0:0:0:35:hihat1.wav
475,192,239287,1,0,0:0:0:43:drum1.wav
329,192,239287,1,0,0:0:0:35:hihat2.wav
36,192,239442,1,0,0:0:0:37:kick2.wav
109,192,239442,1,2,2:0:0:65:
329,192,239597,1,0,0:0:0:37:kick2.wav
182,192,239674,1,0,0:0:0:37:kick2.wav
475,192,239751,1,0,0:0:0:41:drum1.wav
402,192,239751,1,0,0:0:0:35:hihat2.wav
182,192,239906,1,0,0:0:0:36:kick2.wav
329,192,239983,1,0,0:0:0:36:kick2.wav
36,192,240060,1,0,0:0:0:35:hihat2.wav
182,192,240138,1,0,0:0:0:35:kick2.wav
402,192,240215,1,0,0:0:0:40:drum1.wav
475,192,240215,1,0,0:0:0:35:hihat2.wav
329,192,240370,1,0,0:0:0:34:kick2.wav
182,192,240370,1,0,0:0:0:35:hihat2.wav
329,192,240524,1,0,0:0:0:34:kick2.wav
182,192,240524,1,0,0:0:0:35:hihat2.wav
109,192,240679,1,0,0:0:0:33:kick2.wav
36,192,240679,1,0,0:0:0:35:hihat1.wav
109,192,240834,1,0,0:0:0:33:kick2.wav
36,192,240834,1,0,0:0:0:35:hihat1.wav
402,192,240988,1,0,0:0:0:37:drum1.wav
475,192,240988,1,0,0:0:0:35:hihat2.wav
182,192,241143,1,0,0:0:0:35:hihat2.wav
475,192,241298,1,0,0:0:0:36:drum1.wav
329,192,241298,1,0,0:0:0:35:hihat2.wav
109,192,241452,1,0,0:0:0:31:kick2.wav
402,192,241530,1,0,0:0:0:31:kick2.wav
109,192,241607,1,0,0:0:0:30:kick2.wav
402,192,241684,1,0,0:0:0:30:kick2.wav
256,192,241762,1,0,0:0:0:30:kick2.wav
475,192,241916,1,0,0:0:0:34:drum1.wav
329,192,241916,1,0,0:0:0:35:hihat2.wav
109,192,242071,1,0,0:0:0:29:kick2.wav
36,192,242071,1,0,0:0:0:35:hihat1.wav
256,192,242225,1,0,0:0:0:35:hihat2.wav
402,192,242380,1,0,0:0:0:33:drum1.wav
475,192,242380,1,0,0:0:0:35:hihat2.wav
182,192,242535,1,0,0:0:0:27:kick2.wav
36,192,242535,1,0,0:0:0:35:hihat1.wav
36,192,242689,1,0,0:0:0:27:kick2.wav
182,192,242689,1,0,0:0:0:35:hihat1.wav
329,192,242844,1,0,0:0:0:31:drum1.wav
475,192,242844,128,0,243153:0:0:0:35:hihat2.wav
36,192,242999,1,0,0:0:0:26:kick2.wav
109,192,242999,1,0,0:0:0:35:hihat1.wav
182,192,243153,1,0,0:0:0:25:kick2.wav
329,192,243153,1,2,2:0:0:65:
182,192,243385,1,0,0:0:0:25:kick2.wav
329,192,243385,1,0,0:0:0:35:hihat1.wav
36,192,243463,128,0,243772:0:0:0:0:
329,192,243617,1,0,0:0:0:25:kick2.wav
182,192,243617,1,0,0:0:0:35:hihat1.wav
475,192,243772,1,0,0:0:0:28:drum1.wav
256,192,243772,1,2,2:0:0:65:
109,192,243926,1,0,0:0:0:35:hihat2.wav
402,192,244004,1,0,0:0:0:35:hihat2.wav
256,192,244081,128,0,244390:0:0:0:45:hihat1.wav
109,192,244390,1,0,0:0:0:20:kick2.wav
475,192,244390,1,2,2:0:0:65:
402,192,244700,1,0,0:0:0:60:hihat2.wav
256,192,244854,1,0,0:0:0:35:hihat2.wav
182,192,245009,128,0,245318:0:0:0:35:hihat2.wav
475,192,245164,1,0,0:0:0:60:hihat2.wav
329,192,245318,1,0,0:0:0:35:hihat2.wav
329,192,245473,1,0,0:0:0:35:hihat2.wav
36,192,245627,1,0,0:0:0:20:kick2.wav
402,192,245627,1,0,0:0:0:0:
329,192,245937,1,0,0:0:0:60:hihat2.wav
109,192,246091,1,0,0:0:0:35:hihat2.wav
329,192,246246,1,0,0:0:0:60:hihat2.wav
182,192,246401,1,0,0:0:0:35:hihat2.wav
182,192,246555,1,0,0:0:0:35:hihat2.wav
329,192,246710,1,0,0:0:0:60:hihat2.wav
109,192,246865,1,0,0:0:0:20:kick2.wav
475,192,246865,1,0,0:0:0:0:
256,192,247097,1,0,0:0:0:20:kick2.wav
402,192,247174,1,0,0:0:0:60:hihat2.wav
182,192,247329,1,0,0:0:0:20:kick2.wav
256,192,247560,1,0,0:0:0:20:kick2.wav
402,192,247638,1,0,0:0:0:60:hihat2.wav
109,192,247792,1,0,0:0:0:20:kick2.wav
109,192,247947,1,0,0:0:0:20:kick2.wav
36,192,248102,1,0,0:0:0:20:kick2.wav
402,192,248102,1,2,2:0:0:65:
182,192,248256,1,0,0:0:0:60:hihat2.wav
329,192,248411,1,0,0:0:0:35:hihat2.wav
182,192,248566,1,0,0:0:0:60:hihat2.wav
329,192,248720,1,2,2:0:0:65:
329,192,248952,1,0,0:0:0:60:hihat2.wav
329,192,249184,1,0,0:0:0:60:hihat2.wav
109,192,249339,1,0,0:0:0:20:kick2.wav
475,192,249339,128,0,249493:0:0:0:0:
256,192,249493,1,0,0:0:0:20:kick2.wav
402,192,249648,1,2,2:0:0:65:
182,192,249803,1,0,0:0:0:20:kick2.wav
182,192,249957,1,0,0:0:0:35:hihat2.wav
402,192,250112,1,0,0:0:0:60:hihat2.wav
256,192,250267,1,0,0:0:0:20:kick2.wav
256,192,250421,1,0,0:0:0:20:kick2.wav
36,192,250576,1,0,0:0:0:20:kick2.wav
402,192,250576,1,0,0:0:0:0:
36,192,250731,1,0,0:0:0:20:kick2.wav
329,192,250885,1,0,0:0:0:60:hihat2.wav
109,192,251040,1,0,0:0:0:35:hihat2.wav
329,192,251194,1,0,0:0:0:60:hihat2.wav
182,192,251349,1,0,0:0:0:20:kick2.wav
182,192,251504,1,0,0:0:0:20:kick2.wav
182,192,251658,1,0,0:0:0:20:kick2.wav
109,192,251813,1,0,0:0:0:60:hihat2.wav
475,192,251813,1,0,0:0:0:0:
329,192,251968,1,0,0:0:0:20:kick2.wav
256,192,252122,1,0,0:0:0:35:hihat2.wav
402,192,252277,1,0,0:0:0:60:hihat2.wav
182,192,252432,1,0,0:0:0:20:kick2.wav
182,192,252586,1,0,0:0:0:20:kick2.wav
402,192,252741,1,0,0:0:0:60:hihat2.wav
256,192,252896,1,0,0:0:0:20:kick2.wav
36,192,253050,1,0,0:0:0:20:kick2.wav
402,192,253050,1,0,0:0:0:0:
109,192,253282,1,0,0:0:0:20:kick2.wav
109,192,253514,1,0,0:0:0:20:kick2.wav
36,192,253669,1,0,0:0:0:60:hihat2.wav
402,192,253669,1,0,0:0:0:0:
182,192,253823,1,0,0:0:0:35:hihat2.wav
329,192,253901,1,0,0:0:0:35:hihat2.wav
256,192,253978,128,0,254287:0:0:0:45:hihat1.wav
