osu file format v14

[General]
AudioFilename: o'er the flood cut.mp3
AudioLeadIn: 0
PreviewTime: 155318
Countdown: 0
SampleSet: Normal
StackLeniency: 0.7
Mode: 3
LetterboxInBreaks: 0
SpecialStyle: 0
WidescreenStoryboard: 1

[Editor]
DistanceSpacing: 1
BeatDivisor: 2
GridSize: 4
TimelineZoom: 1.8

[Metadata]
Title:o'er the flood
TitleUnicode:o'er the flood
Artist:goreshit
ArtistUnicode:goreshit
Creator:Blocko
Version:easy
Source:
Tags:breakcore dnb over semantic compositions on death and its meaning max richter horizon variations electronic instrumental ancul hydria jinjin pope_gadget
BeatmapID:1182317
BeatmapSetID:454793

[Difficulty]
HPDrainRate:7
CircleSize:7
OverallDifficulty:7
ApproachRate:7
SliderMultiplier:1.4
SliderTickRate:1

[Events]
//Background and Video events
0,0,"bg.jpg",0,0
//Break Periods
//Storyboard Layer 0 (Background)
//Storyboard Layer 1 (Fail)
//Storyboard Layer 2 (Pass)
//Storyboard Layer 3 (Foreground)
//Storyboard Sound Samples

[TimingPoints]
16762,309.278350515464,4,1,0,20,1,0
175112,-100,4,1,0,20,0,1
194829,-100,4,1,0,20,0,0
194906,-100,4,1,0,20,0,1
214622,-100,4,1,0,20,0,0
214700,-100,4,1,0,20,0,1
214777,-100,4,1,0,20,0,0

[HitObjects]
402,192,16762,5,0,0:0:0:35:kick1.wav
109,192,16762,1,2,2:0:0:25:
109,192,17380,1,0,2:0:0:0:
109,192,17999,1,0,2:0:0:0:
109,192,18617,1,0,2:0:0:0:
329,192,19236,1,0,2:0:0:0:
329,192,19854,1,0,2:0:0:0:
475,192,20473,1,2,2:0:0:25:
182,192,21091,1,2,2:0:0:25:
36,192,21710,1,0,0:0:0:35:kick1.wav
402,192,21710,1,2,2:0:0:25:
402,192,22329,1,0,2:0:0:0:
402,192,22947,1,0,2:0:0:0:
402,192,23566,1,0,2:0:0:0:
182,192,24184,1,0,2:0:0:0:
182,192,24803,1,0,2:0:0:0:
329,192,25421,1,2,2:0:0:25:
36,192,26040,1,2,2:0:0:25:
329,192,26658,1,0,0:0:0:35:kick1.wav
182,192,26658,1,2,2:0:0:25:
329,192,27277,1,0,2:0:0:0:
329,192,27896,1,0,2:0:0:0:
329,192,28514,1,0,2:0:0:0:
475,192,29133,1,0,2:0:0:0:
475,192,29751,1,0,2:0:0:0:
402,192,30370,1,2,2:0:0:25:
256,192,30988,1,2,2:0:0:25:
182,192,31607,1,0,0:0:0:35:kick1.wav
329,192,31607,1,2,2:0:0:25:
182,192,32225,1,0,2:0:0:0:
182,192,32844,1,0,2:0:0:0:
182,192,33463,1,0,2:0:0:0:
36,192,34081,1,0,2:0:0:0:
36,192,34700,1,0,2:0:0:0:
36,192,35318,1,0,2:0:0:0:
256,192,35937,128,0,36555:2:0:0:0:
475,192,36555,1,0,0:0:0:50:kick1.wav
36,192,36555,1,2,2:0:0:50:
36,192,37174,1,0,0:0:0:30:hihat2.wav
182,192,37792,1,0,0:0:0:30:hihat2.wav
182,192,38411,1,0,0:0:0:30:hihat2.wav
329,192,39030,1,0,0:0:0:30:hihat2.wav
329,192,39648,1,0,0:0:0:30:hihat2.wav
109,192,40267,1,0,0:0:0:30:hihat2.wav
402,192,40267,1,2,2:0:0:50:
256,192,40885,1,2,2:0:0:50:
475,192,41504,1,0,0:0:0:50:kick1.wav
36,192,41504,1,2,2:0:0:50:
475,192,42122,1,0,0:0:0:30:hihat2.wav
329,192,42741,1,0,0:0:0:30:hihat2.wav
329,192,43359,1,0,0:0:0:30:hihat2.wav
182,192,43978,1,0,0:0:0:30:hihat2.wav
182,192,44597,1,0,0:0:0:30:hihat2.wav
475,192,45215,1,0,0:0:0:30:hihat2.wav
36,192,45215,1,2,2:0:0:50:
256,192,45834,1,2,2:0:0:50:
109,192,46452,1,0,0:0:0:50:kick1.wav
402,192,46452,1,2,2:0:0:50:
402,192,47071,1,0,0:0:0:30:hihat2.wav
256,192,47689,1,0,0:0:0:30:hihat2.wav
256,192,48308,1,0,0:0:0:30:hihat2.wav
109,192,48926,1,0,0:0:0:30:hihat2.wav
109,192,49545,1,0,0:0:0:30:hihat2.wav
475,192,50164,1,0,0:0:0:30:hihat2.wav
36,192,50164,1,2,2:0:0:50:
256,192,50782,1,2,2:0:0:50:
402,192,51401,1,0,0:0:0:50:kick1.wav
109,192,51401,1,2,2:0:0:50:
109,192,52019,1,0,0:0:0:30:hihat2.wav
256,192,52638,1,0,0:0:0:30:hihat2.wav
256,192,53256,1,0,0:0:0:30:hihat2.wav
402,192,53875,1,0,0:0:0:30:hihat2.wav
402,192,54493,1,0,0:0:0:30:hihat2.wav
36,192,55112,1,0,2:0:0:0:
475,192,55112,1,2,2:0:0:50:
256,192,55731,128,2,56349:2:0:0:25:
36,192,56349,128,2,58823:2:0:0:50:
475,192,56968,1,0,0:0:0:25:drum2.wav
475,192,57586,1,0,0:0:0:25:drum2.wav
475,192,58205,1,0,0:0:0:45:drum3.wav
329,192,58823,128,0,61298:0:0:0:25:drum2.wav
182,192,59442,1,0,0:0:0:25:drum2.wav
36,192,60060,1,2,2:0:0:50:
109,192,60679,1,2,2:0:0:50:
182,192,61298,128,2,63772:2:0:0:50:
402,192,61916,1,0,0:0:0:25:drum2.wav
402,192,62535,1,0,0:0:0:45:drum3.wav
402,192,63153,1,0,0:0:0:25:drum2.wav
475,192,63772,128,0,66246:0:0:0:25:drum2.wav
36,192,64390,1,0,0:0:0:25:drum2.wav
36,192,65009,1,0,0:0:0:45:drum3.wav
36,192,65627,1,0,0:0:0:45:drum3.wav
109,192,66246,128,2,68720:2:0:0:50:
329,192,66865,1,0,0:0:0:25:drum2.wav
329,192,67483,1,0,0:0:0:25:drum2.wav
329,192,68102,1,0,0:0:0:45:drum3.wav
402,192,68720,128,0,71194:0:0:0:25:drum2.wav
36,192,69339,1,0,0:0:0:25:drum2.wav
109,192,69957,1,2,2:0:0:50:
182,192,70576,1,2,2:0:0:50:
256,192,71194,128,2,76143:2:0:0:50:
109,192,71813,1,0,0:0:0:25:drum2.wav
109,192,72432,1,0,0:0:0:45:drum3.wav
329,192,73050,1,0,0:0:0:25:drum2.wav
329,192,73669,1,0,0:0:0:25:drum2.wav
182,192,74287,1,0,0:0:0:25:drum2.wav
182,192,74906,1,0,0:0:0:45:drum3.wav
402,192,75524,1,0,0:0:0:45:drum3.wav
36,192,76143,1,0,0:0:0:60:crash.wav
402,192,76143,1,0,0:0:0:45:kick2.wav
36,192,76762,1,0,0:0:0:50:hihat2.wav
182,192,77380,1,0,0:0:0:45:kick2.wav
329,192,77380,1,0,0:0:0:50:hihat2.wav
329,192,77999,1,0,0:0:0:50:hihat2.wav
182,192,78617,1,0,0:0:0:50:hihat2.wav
475,192,78617,1,0,0:0:0:45:kick2.wav
182,192,79236,1,0,0:0:0:50:hihat2.wav
256,192,79854,1,0,0:0:0:45:kick2.wav
402,192,79854,1,0,0:0:0:50:hihat2.wav
109,192,80473,1,0,0:0:0:50:hihat2.wav
475,192,81091,1,0,0:0:0:50:hihat2.wav
36,192,81091,1,0,0:0:0:45:kick2.wav
475,192,81710,1,0,0:0:0:50:hihat2.wav
329,192,82329,1,0,0:0:0:45:kick2.wav
182,192,82329,1,0,0:0:0:50:hihat2.wav
182,192,82947,1,0,0:0:0:50:hihat2.wav
329,192,83566,1,0,0:0:0:50:hihat2.wav
36,192,83566,1,0,0:0:0:45:kick2.wav
329,192,84184,1,0,0:0:0:50:hihat2.wav
109,192,84803,1,0,0:0:0:50:hihat2.wav
256,192,84803,1,0,0:0:0:45:kick2.wav
402,192,85421,1,0,0:0:0:50:hihat2.wav
256,192,85731,128,0,86040:0:0:0:50:hihat2.wav
36,192,86040,1,0,0:0:0:50:hihat2.wav
475,192,86040,1,0,0:0:0:45:kick2.wav
36,192,86658,1,0,0:0:0:50:hihat2.wav
475,192,87277,1,0,0:0:0:45:kick2.wav
182,192,87277,1,0,0:0:0:50:hihat2.wav
182,192,87896,1,0,0:0:0:50:hihat2.wav
36,192,88514,1,0,0:0:0:45:kick2.wav
329,192,88514,1,0,0:0:0:50:hihat2.wav
329,192,89133,1,0,0:0:0:50:hihat2.wav
109,192,89751,1,0,0:0:0:50:hihat2.wav
402,192,89751,1,0,0:0:0:45:kick2.wav
256,192,90370,1,0,0:0:0:50:hihat2.wav
475,192,90988,1,0,0:0:0:50:hihat2.wav
36,192,90988,1,0,0:0:0:45:kick2.wav
475,192,91607,1,0,0:0:0:50:hihat2.wav
36,192,92225,1,0,0:0:0:45:kick2.wav
329,192,92225,1,0,0:0:0:50:hihat2.wav
329,192,92844,1,0,0:0:0:50:hihat2.wav
182,192,93463,1,0,0:0:0:50:hihat2.wav
475,192,93463,1,0,0:0:0:45:kick2.wav
182,192,94081,1,0,0:0:0:50:hihat2.wav
402,192,94700,1,0,0:0:0:50:hihat2.wav
256,192,94700,1,0,0:0:0:45:kick2.wav
109,192,95318,1,0,0:0:0:50:hihat2.wav
256,192,95627,128,0,95937:0:0:0:50:hihat2.wav
36,192,95937,1,0,0:0:0:60:crash.wav
402,192,95937,1,0,0:0:0:45:kick2.wav
402,192,96555,1,0,0:0:0:50:hihat2.wav
475,192,97174,1,0,0:0:0:45:kick2.wav
256,192,97174,1,0,0:0:0:50:hihat2.wav
256,192,97792,1,0,0:0:0:50:hihat2.wav
329,192,98411,1,0,0:0:0:45:kick2.wav
109,192,98411,1,0,0:0:0:50:hihat2.wav
109,192,99030,1,0,0:0:0:50:hihat2.wav
475,192,99648,1,0,0:0:0:50:hihat2.wav
182,192,99648,1,0,0:0:0:45:kick2.wav
329,192,100267,1,0,0:0:0:50:hihat2.wav
256,192,100885,1,0,0:0:0:45:kick2.wav
36,192,100885,1,0,0:0:0:50:hihat2.wav
36,192,101504,1,0,0:0:0:50:hihat2.wav
402,192,102122,1,0,0:0:0:45:kick2.wav
182,192,102122,1,0,0:0:0:50:hihat2.wav
182,192,102741,1,0,0:0:0:50:hihat2.wav
329,192,103359,1,0,0:0:0:50:hihat2.wav
109,192,103359,1,0,0:0:0:45:kick2.wav
329,192,103978,1,0,0:0:0:50:hihat2.wav
256,192,104597,1,0,0:0:0:45:kick2.wav
36,192,104597,1,0,0:0:0:50:hihat2.wav
402,192,105215,1,0,0:0:0:50:hihat2.wav
256,192,105524,128,0,105834:0:0:0:50:hihat2.wav
475,192,105834,1,0,0:0:0:50:hihat2.wav
36,192,105834,1,0,0:0:0:45:kick2.wav
475,192,106452,1,0,0:0:0:50:hihat2.wav
109,192,107071,1,0,0:0:0:45:kick2.wav
329,192,107071,1,0,0:0:0:50:hihat2.wav
329,192,107689,1,0,0:0:0:50:hihat2.wav
182,192,108308,1,0,0:0:0:50:hihat2.wav
402,192,108308,1,0,0:0:0:45:kick2.wav
182,192,108926,1,0,0:0:0:50:hihat2.wav
36,192,109545,1,0,0:0:0:45:kick2.wav
475,192,109545,1,0,0:0:0:50:hihat2.wav
256,192,110164,1,0,0:0:0:50:hihat2.wav
109,192,110782,1,0,0:0:0:50:hihat2.wav
402,192,110782,1,0,0:0:0:45:kick2.wav
109,192,111401,1,0,0:0:0:50:hihat2.wav
475,192,112019,1,0,0:0:0:45:kick2.wav
256,192,112019,1,0,0:0:0:50:hihat2.wav
256,192,112638,1,0,0:0:0:50:hihat2.wav
402,192,113256,1,0,0:0:0:50:hihat2.wav
36,192,113256,1,0,0:0:0:45:kick2.wav
402,192,113875,1,0,0:0:0:50:hihat2.wav
329,192,114493,1,0,0:0:0:45:kick2.wav
109,192,114493,1,0,0:0:0:50:hihat2.wav
182,192,115112,1,0,0:0:0:50:hihat2.wav
475,192,115421,128,0,115731:0:0:0:50:hihat2.wav
329,192,115731,1,0,0:0:0:50:hihat2.wav
36,192,115731,128,0,118205:0:0:0:60:crash.wav
402,192,116349,1,0,0:0:0:50:hihat2.wav
329,192,116968,1,0,0:0:0:50:hihat2.wav
402,192,117586,1,0,0:0:0:50:hihat2.wav
182,192,118205,1,0,0:0:0:45:kick2.wav
329,192,118205,128,0,120679:0:0:0:50:hihat2.wav
109,192,118823,1,0,0:0:0:50:hihat2.wav
182,192,119442,1,2,2:0:0:65:
109,192,120060,1,2,2:0:0:65:
182,192,120679,128,2,123153:2:0:0:65:
402,192,120679,1,0,0:0:0:45:kick2.wav
329,192,121298,1,0,0:0:0:50:hihat2.wav
402,192,121916,1,0,0:0:0:50:hihat2.wav
329,192,122535,1,0,0:0:0:50:hihat2.wav
475,192,123153,128,0,125627:0:0:0:50:hihat2.wav
109,192,123153,1,0,0:0:0:45:kick2.wav
182,192,123772,1,0,0:0:0:50:hihat2.wav
109,192,124390,1,2,2:0:0:65:
182,192,125009,1,2,2:0:0:65:
256,192,125318,1,0,0:0:0:50:hihat2.wav
109,192,125627,128,2,128102:2:0:0:65:
329,192,125627,1,0,0:0:0:45:kick2.wav
475,192,126246,1,0,0:0:0:50:hihat2.wav
329,192,126865,1,0,0:0:0:50:hihat2.wav
475,192,127483,1,0,0:0:0:50:hihat2.wav
402,192,128102,128,0,130576:0:0:0:50:hihat2.wav
182,192,128102,1,0,0:0:0:45:kick2.wav
36,192,128720,1,0,0:0:0:50:hihat2.wav
182,192,129339,1,2,2:0:0:65:
36,192,129957,1,2,2:0:0:65:
109,192,130576,1,0,0:0:0:45:kick2.wav
256,192,130576,128,2,135524:2:0:0:65:
402,192,131194,1,0,0:0:0:50:hihat2.wav
109,192,131813,1,0,0:0:0:50:hihat2.wav
402,192,132432,1,0,0:0:0:50:hihat2.wav
182,192,133050,1,0,0:0:0:50:hihat2.wav
329,192,133669,1,0,0:0:0:50:hihat2.wav
182,192,134287,1,0,0:0:0:50:hihat2.wav
329,192,134906,1,0,0:0:0:50:hihat2.wav
402,192,135215,1,0,0:0:0:50:hihat2.wav
36,192,135524,1,0,0:0:0:60:crash.wav
475,192,135524,1,0,0:0:0:45:kick2.wav
329,192,136143,1,0,0:0:0:50:hihat2.wav
36,192,136762,1,0,0:0:0:45:kick2.wav
182,192,136762,1,0,0:0:0:50:hihat2.wav
329,192,137380,1,0,0:0:0:50:hihat2.wav
402,192,137689,1,0,0:0:0:50:hihat2.wav
256,192,137999,1,0,0:0:0:50:hihat2.wav
109,192,137999,1,0,0:0:0:45:kick2.wav
329,192,138617,1,0,0:0:0:50:hihat2.wav
475,192,139236,1,2,2:0:0:65:
182,192,139236,1,0,0:0:0:45:kick2.wav
402,192,139854,1,2,2:0:0:65:
109,192,139854,1,0,0:0:0:50:hihat2.wav
256,192,140164,1,0,0:0:0:50:hihat2.wav
36,192,140473,1,0,0:0:0:45:kick2.wav
329,192,140473,1,2,2:0:0:65:
182,192,141091,1,0,0:0:0:50:hihat2.wav
329,192,141710,1,0,0:0:0:45:kick2.wav
475,192,141710,1,0,0:0:0:50:hihat2.wav
109,192,142329,1,0,0:0:0:50:hihat2.wav
256,192,142329,1,0,0:0:0:0:
402,192,142638,1,0,0:0:0:50:hihat2.wav
182,192,142947,1,0,0:0:0:50:hihat2.wav
36,192,142947,1,0,0:0:0:45:kick2.wav
329,192,143566,1,0,0:0:0:50:hihat2.wav
256,192,144184,1,2,2:0:0:65:
109,192,144184,1,0,0:0:0:45:kick2.wav
475,192,144493,1,0,0:0:0:50:hihat2.wav
182,192,144803,1,2,2:0:0:65:
329,192,144803,1,0,0:0:0:50:hihat2.wav
36,192,145112,128,0,145421:0:0:0:50:hihat2.wav
402,192,145421,1,0,0:0:0:45:kick2.wav
256,192,145421,1,2,2:0:0:65:
109,192,146040,1,0,0:0:0:50:hihat2.wav
402,192,146658,1,0,0:0:0:45:kick2.wav
256,192,146658,1,0,0:0:0:50:hihat2.wav
109,192,147277,1,0,0:0:0:50:hihat2.wav
256,192,147586,1,0,0:0:0:50:hihat2.wav
329,192,147896,1,0,0:0:0:50:hihat2.wav
475,192,147896,1,0,0:0:0:45:kick2.wav
36,192,148514,1,0,0:0:0:50:hihat2.wav
475,192,149133,1,0,0:0:0:45:kick2.wav
182,192,149133,1,2,2:0:0:65:
109,192,149751,1,2,2:0:0:65:
402,192,149751,1,0,0:0:0:50:hihat2.wav
256,192,150060,1,0,0:0:0:50:hihat2.wav
36,192,150370,1,2,2:0:0:65:
329,192,150370,1,0,0:0:0:45:kick2.wav
402,192,150988,1,0,0:0:0:50:hihat2.wav
36,192,151607,1,0,0:0:0:45:kick2.wav
182,192,151607,1,0,0:0:0:50:hihat2.wav
256,192,152225,1,0,0:0:0:50:hihat2.wav
402,192,152225,1,0,0:0:0:0:
109,192,152535,1,0,0:0:0:50:hihat2.wav
36,192,152844,1,0,0:0:0:50:hihat2.wav
475,192,152844,1,0,0:0:0:45:kick2.wav
329,192,153463,1,0,0:0:0:50:hihat2.wav
182,192,154081,1,0,0:0:0:50:hihat2.wav
475,192,154081,1,0,0:0:0:45:kick2.wav
256,192,154390,1,0,0:0:0:50:hihat2.wav
109,192,154700,1,0,0:0:0:50:hihat2.wav
402,192,154700,1,0,0:0:0:0:
256,192,155009,128,0,155318:0:0:0:50:hihat2.wav
36,192,155318,1,0,0:0:0:60:crash.wav
475,192,155318,1,0,0:0:0:60:kick2.wav
329,192,155937,1,0,0:0:0:50:hihat2.wav
36,192,156555,1,0,0:0:0:50:hihat2.wav
475,192,156555,1,0,0:0:0:60:kick2.wav
182,192,157174,1,0,0:0:0:50:hihat2.wav
36,192,157792,1,0,0:0:0:50:hihat2.wav
402,192,157792,1,0,0:0:0:60:kick2.wav
329,192,158256,1,0,0:0:0:50:hihat2.wav
182,192,158411,1,0,0:0:0:50:hihat2.wav
109,192,159030,1,0,0:0:0:60:kick2.wav
475,192,159030,1,2,2:0:0:65:
182,192,159648,1,2,2:0:0:65:
329,192,159803,1,2,2:0:0:65:
36,192,160267,1,2,2:0:0:65:
475,192,160267,1,0,0:0:0:60:kick2.wav
256,192,160885,1,0,0:0:0:50:hihat2.wav
402,192,161504,128,0,161813:0:0:0:50:hihat2.wav
109,192,161504,1,0,0:0:0:60:kick2.wav
182,192,162122,1,0,0:0:0:50:hihat2.wav
475,192,162741,1,0,0:0:0:50:hihat2.wav
36,192,162741,1,0,0:0:0:60:kick2.wav
329,192,163359,1,0,0:0:0:50:hihat2.wav
36,192,163978,1,0,0:0:0:60:kick2.wav
475,192,163978,128,2,164287:2:0:0:65:
182,192,164597,128,2,164906:2:0:0:65:
329,192,164906,128,0,165215:0:0:0:50:hihat2.wav
36,192,165215,1,2,2:0:0:65:
475,192,165215,1,0,0:0:0:60:kick2.wav
256,192,165834,1,0,0:0:0:50:hihat2.wav
109,192,166452,1,0,0:0:0:50:hihat2.wav
402,192,166452,1,0,0:0:0:60:kick2.wav
256,192,167071,1,0,0:0:0:50:hihat2.wav
36,192,167689,1,0,0:0:0:50:hihat2.wav
329,192,167689,1,0,0:0:0:60:kick2.wav
182,192,168308,1,0,0:0:0:50:hihat2.wav
475,192,168926,1,2,2:0:0:65:
36,192,168926,1,0,0:0:0:60:kick2.wav
329,192,169545,1,2,2:0:0:65:
109,192,170164,128,2,170473:2:0:0:65:
402,192,170164,1,0,0:0:0:60:kick2.wav
256,192,170782,1,0,0:0:0:50:hihat2.wav
36,192,171401,1,0,0:0:0:50:hihat2.wav
475,192,171401,1,0,0:0:0:60:kick2.wav
182,192,172019,1,0,0:0:0:50:hihat2.wav
402,192,172638,1,0,0:0:0:50:hihat2.wav
36,192,172638,1,0,0:0:0:60:kick2.wav
329,192,173256,1,0,0:0:0:50:hihat2.wav
109,192,173875,1,0,0:0:0:60:kick2.wav
475,192,173875,1,0,0:0:0:50:hihat2.wav
329,192,174493,1,0,0:0:0:50:hihat2.wav
182,192,174803,128,0,175112:0:0:0:50:hihat2.wav
475,192,175112,1,0,0:0:0:75:crash.wav
36,192,175112,1,0,0:0:0:90:kick3.wav
256,192,175112,1,0,0:0:0:55:hihat2.wav
402,192,175421,1,0,0:0:0:55:hihat2.wav
329,192,175731,1,0,0:0:0:55:hihat2.wav
109,192,176349,1,0,0:0:0:55:hihat2.wav
402,192,176349,1,0,0:0:0:90:kick3.wav
182,192,176658,1,0,0:0:0:55:hihat2.wav
256,192,176968,1,0,0:0:0:55:hihat2.wav
329,192,177277,1,0,0:0:0:55:hihat2.wav
475,192,177586,1,0,0:0:0:90:kick3.wav
36,192,177586,1,0,0:0:0:55:hihat2.wav
109,192,177896,1,0,0:0:0:55:hihat2.wav
182,192,178205,1,0,0:0:0:55:hihat2.wav
475,192,178823,1,2,2:0:0:75:
36,192,178823,1,0,0:0:0:90:kick3.wav
256,192,179133,1,0,0:0:0:55:hihat2.wav
402,192,179442,1,2,2:0:0:75:
109,192,179442,1,0,0:0:0:90:kick3.wav
256,192,179751,1,0,0:0:0:55:hihat2.wav
182,192,180060,1,0,0:0:0:90:kick3.wav
329,192,180060,1,2,2:0:0:75:
402,192,180370,1,0,0:0:0:55:hihat2.wav
475,192,180679,1,0,0:0:0:55:hihat2.wav
402,192,181298,1,0,0:0:0:90:kick3.wav
36,192,181298,1,0,0:0:0:55:hihat2.wav
182,192,181607,1,0,0:0:0:55:hihat2.wav
256,192,181916,1,0,0:0:0:55:hihat2.wav
329,192,182225,1,0,0:0:0:55:hihat2.wav
109,192,182535,1,0,0:0:0:90:kick3.wav
475,192,182535,1,0,0:0:0:55:hihat2.wav
182,192,182844,1,0,0:0:0:55:hihat2.wav
256,192,183153,1,0,0:0:0:55:hihat2.wav
329,192,183772,1,0,0:0:0:90:kick3.wav
36,192,183772,1,2,2:0:0:75:
182,192,184081,1,0,0:0:0:55:hihat2.wav
109,192,184390,1,2,2:0:0:75:
402,192,184390,1,0,0:0:0:90:kick3.wav
329,192,184700,1,0,0:0:0:55:hihat2.wav
475,192,185009,1,0,0:0:0:90:kick3.wav
182,192,185009,1,2,2:0:0:75:
256,192,185318,1,0,0:0:0:55:hihat2.wav
329,192,185627,1,0,0:0:0:55:hihat2.wav
402,192,186246,1,0,0:0:0:90:kick3.wav
109,192,186246,1,0,0:0:0:55:hihat2.wav
329,192,186555,1,0,0:0:0:55:hihat2.wav
256,192,186865,1,0,0:0:0:55:hihat2.wav
182,192,187174,1,0,0:0:0:55:hihat2.wav
36,192,187483,1,0,0:0:0:55:hihat2.wav
329,192,187483,1,0,0:0:0:90:kick3.wav
109,192,187792,1,0,0:0:0:55:hihat2.wav
182,192,188102,1,0,0:0:0:55:hihat2.wav
402,192,188720,1,2,2:0:0:75:
182,192,188720,1,0,0:0:0:90:kick3.wav
36,192,189030,1,0,0:0:0:55:hihat2.wav
329,192,189339,1,0,0:0:0:90:kick3.wav
109,192,189339,1,2,2:0:0:75:
475,192,189648,1,0,0:0:0:55:hihat2.wav
36,192,189957,1,0,0:0:0:90:kick3.wav
256,192,189957,1,2,2:0:0:75:
329,192,190267,1,0,0:0:0:55:hihat2.wav
402,192,190576,1,0,0:0:0:55:hihat2.wav
475,192,191194,1,0,0:0:0:90:kick3.wav
182,192,191194,1,0,0:0:0:55:hihat2.wav
256,192,191504,1,0,0:0:0:55:hihat2.wav
329,192,191813,1,0,0:0:0:55:hihat2.wav
402,192,192122,1,0,0:0:0:55:hihat2.wav
36,192,192432,1,0,0:0:0:90:kick3.wav
256,192,192432,1,0,0:0:0:55:hihat2.wav
182,192,192741,1,0,0:0:0:55:hihat2.wav
109,192,193050,1,0,0:0:0:55:hihat2.wav
329,192,193669,1,0,0:0:0:55:hihat2.wav
182,192,193669,1,0,0:0:0:90:kick3.wav
256,192,193978,1,0,0:0:0:55:hihat2.wav
109,192,194287,1,0,0:0:0:90:kick3.wav
402,192,194287,1,0,0:0:0:55:hihat2.wav
182,192,194597,128,0,194906:0:0:0:90:kick3.wav
329,192,194597,128,0,194906:0:0:0:55:hihat2.wav
475,192,194906,1,0,0:0:0:75:crash.wav
36,192,194906,1,0,0:0:0:90:kick3.wav
256,192,194906,1,0,0:0:0:55:hihat2.wav
109,192,195215,1,0,0:0:0:55:hihat2.wav
182,192,195524,1,0,0:0:0:55:hihat2.wav
329,192,195834,1,0,0:0:0:55:hihat2.wav
109,192,196143,1,0,0:0:0:55:hihat2.wav
402,192,196143,1,0,0:0:0:90:kick3.wav
182,192,196452,1,0,0:0:0:55:hihat2.wav
256,192,196762,1,0,0:0:0:55:hihat2.wav
402,192,197071,1,0,0:0:0:55:hihat2.wav
36,192,197380,1,0,0:0:0:55:hihat2.wav
475,192,197380,1,0,0:0:0:90:kick3.wav
329,192,197689,1,0,0:0:0:55:hihat2.wav
256,192,197999,1,0,0:0:0:55:hihat2.wav
182,192,198308,1,0,0:0:0:55:hihat2.wav
36,192,198617,1,0,0:0:0:90:kick3.wav
329,192,198617,1,2,2:0:0:75:
109,192,198926,1,0,0:0:0:55:hihat2.wav
475,192,199236,1,0,0:0:0:90:kick3.wav
182,192,199236,1,2,2:0:0:75:
402,192,199545,1,0,0:0:0:55:hihat2.wav
36,192,199854,1,0,0:0:0:90:kick3.wav
329,192,199854,1,2,2:0:0:75:
182,192,200164,1,0,0:0:0:55:hihat2.wav
256,192,200473,1,0,0:0:0:55:hihat2.wav
329,192,200782,1,0,0:0:0:55:hihat2.wav
36,192,201091,1,0,0:0:0:55:hihat2.wav
475,192,201091,1,0,0:0:0:90:kick3.wav
402,192,201401,1,0,0:0:0:55:hihat2.wav
256,192,201710,1,0,0:0:0:55:hihat2.wav
109,192,202019,1,0,0:0:0:55:hihat2.wav
36,192,202329,1,0,0:0:0:55:hihat2.wav
475,192,202329,1,0,0:0:0:90:kick3.wav
182,192,202638,1,0,0:0:0:55:hihat2.wav
256,192,202947,1,0,0:0:0:55:hihat2.wav
402,192,203256,1,0,0:0:0:55:hihat2.wav
109,192,203566,1,0,0:0:0:90:kick3.wav
329,192,203566,1,2,2:0:0:75:
475,192,203875,1,0,0:0:0:55:hihat2.wav
402,192,204184,1,0,0:0:0:90:kick3.wav
182,192,204184,1,2,2:0:0:75:
36,192,204493,1,0,0:0:0:55:hihat2.wav
475,192,204803,1,2,2:0:0:75:
256,192,204803,1,0,0:0:0:90:kick3.wav
182,192,205112,1,0,0:0:0:55:hihat2.wav
329,192,205421,1,0,0:0:0:55:hihat2.wav
402,192,205731,1,0,0:0:0:55:hihat2.wav
36,192,206040,1,0,0:0:0:55:hihat2.wav
256,192,206040,1,0,0:0:0:90:kick3.wav
329,192,206349,1,0,0:0:0:55:hihat2.wav
182,192,206658,1,0,0:0:0:55:hihat2.wav
109,192,206968,1,0,0:0:0:55:hihat2.wav
475,192,207277,1,0,0:0:0:55:hihat2.wav
36,192,207277,1,0,0:0:0:90:kick3.wav
182,192,207586,1,0,0:0:0:55:hihat2.wav
402,192,207896,1,0,0:0:0:55:hihat2.wav
256,192,208205,1,0,0:0:0:55:hihat2.wav
475,192,208514,1,0,0:0:0:90:kick3.wav
182,192,208514,1,2,2:0:0:75:
329,192,208823,1,0,0:0:0:55:hihat2.wav
402,192,209133,1,0,0:0:0:90:kick3.wav
109,192,209133,1,2,2:0:0:75:
182,192,209442,1,0,0:0:0:55:hihat2.wav
329,192,209751,1,0,0:0:0:90:kick3.wav
36,192,209751,1,2,2:0:0:75:
475,192,210060,1,0,0:0:0:55:hihat2.wav
182,192,210370,1,0,0:0:0:55:hihat2.wav
329,192,210679,1,0,0:0:0:55:hihat2.wav
475,192,210988,1,0,0:0:0:55:hihat2.wav
182,192,210988,1,0,0:0:0:90:kick3.wav
36,192,211298,1,0,0:0:0:55:hihat2.wav
329,192,211607,1,0,0:0:0:55:hihat2.wav
182,192,211916,1,0,0:0:0:55:hihat2.wav
36,192,212225,1,0,0:0:0:90:kick3.wav
475,192,212225,1,0,0:0:0:55:hihat2.wav
402,192,212535,1,0,0:0:0:55:hihat2.wav
256,192,212844,1,0,0:0:0:55:hihat2.wav
109,192,213153,1,0,0:0:0:55:hihat2.wav
475,192,213463,1,0,0:0:0:90:kick3.wav
36,192,213463,1,0,0:0:0:55:hihat2.wav
256,192,213772,1,0,0:0:0:55:hihat2.wav
109,192,214081,1,0,0:0:0:55:hihat2.wav
402,192,214081,1,0,0:0:0:90:kick3.wav
182,192,214390,128,0,214700:0:0:0:55:hihat2.wav
329,192,214390,128,0,214700:0:0:0:90:kick3.wav
475,192,214700,1,0,0:0:0:75:crash.wav
36,192,214700,1,0,0:0:0:90:kick3.wav
256,192,214700,1,0,0:0:0:50:hihat2.wav
182,192,215318,1,0,0:0:0:50:hihat2.wav
36,192,215937,1,0,0:0:0:45:kick2.wav
329,192,215937,1,0,0:0:0:50:hihat2.wav
182,192,216555,1,0,0:0:0:50:hihat2.wav
402,192,217174,1,0,0:0:0:45:kick2.wav
109,192,217174,1,0,0:0:0:50:hihat2.wav
256,192,217792,1,0,0:0:0:50:hihat2.wav
475,192,218411,1,0,0:0:0:45:kick2.wav
182,192,218411,1,2,2:0:0:65:
109,192,219030,1,2,2:0:0:65:
402,192,219030,1,0,0:0:0:35:hihat2.wav
329,192,219648,1,0,0:0:0:45:kick2.wav
36,192,219648,1,2,2:0:0:65:
182,192,220267,1,0,0:0:0:50:hihat2.wav
329,192,220885,1,0,0:0:0:45:kick2.wav
36,192,220885,1,0,0:0:0:50:hihat2.wav
329,192,221504,128,0,221813:0:0:0:50:hihat2.wav
182,192,221813,128,0,222122:0:0:0:50:hihat2.wav
109,192,222122,1,0,0:0:0:35:hihat2.wav
402,192,222122,1,0,0:0:0:50:drum1.wav
329,192,222741,1,0,0:0:0:50:hihat2.wav
475,192,223359,1,0,0:0:0:45:kick2.wav
182,192,223359,1,2,2:0:0:65:
329,192,223978,1,0,0:0:0:50:hihat2.wav
36,192,223978,1,2,2:0:0:65:
256,192,224287,128,0,224597:0:0:0:50:hihat2.wav
109,192,224597,1,0,0:0:0:45:kick2.wav
402,192,224597,1,2,2:0:0:65:
256,192,225215,1,0,0:0:0:50:hihat2.wav
109,192,225834,1,0,0:0:0:45:kick2.wav
402,192,225834,128,0,226143:0:0:0:50:hihat2.wav
402,192,226452,128,0,226762:0:0:0:50:hihat2.wav
329,192,227071,1,0,0:0:0:45:kick2.wav
36,192,227071,1,0,0:0:0:50:hihat2.wav
182,192,227689,128,0,227999:0:0:0:50:hihat2.wav
329,192,227999,128,0,228308:0:0:0:50:hihat2.wav
475,192,228308,1,0,0:0:0:45:kick2.wav
36,192,228308,1,2,2:0:0:65:
109,192,228926,1,2,2:0:0:65:
402,192,228926,1,0,0:0:0:50:hihat2.wav
182,192,229545,1,0,0:0:0:45:kick2.wav
329,192,229545,1,2,2:0:0:65:
109,192,229854,128,0,230164:0:0:0:50:hihat2.wav
402,192,230164,1,0,0:0:0:50:hihat2.wav
256,192,230473,1,0,0:0:0:50:hihat2.wav
182,192,230782,1,0,0:0:0:45:kick2.wav
329,192,230782,1,0,0:0:0:50:hihat2.wav
256,192,231401,1,0,0:0:0:50:hihat2.wav
109,192,232019,1,0,0:0:0:50:drum1.wav
402,192,232019,128,0,232329:0:0:0:50:hihat2.wav
182,192,232329,1,0,0:0:0:50:hihat2.wav
329,192,232638,1,0,0:0:0:50:hihat2.wav
109,192,233256,1,0,0:0:0:45:kick2.wav
402,192,233256,1,0,0:0:0:50:hihat2.wav
329,192,233875,1,0,0:0:0:50:hihat2.wav
182,192,234184,128,0,234493:0:0:0:50:hihat2.wav
475,192,234493,1,0,0:0:0:60:crash.wav
36,192,234493,1,0,0:0:0:45:kick2.wav
329,192,235112,1,0,0:0:0:50:hihat2.wav
182,192,235731,1,0,0:0:0:43:kick2.wav
475,192,235731,1,0,0:0:0:50:hihat2.wav
256,192,236349,1,0,0:0:0:50:hihat2.wav
329,192,236968,1,0,0:0:0:41:kick2.wav
36,192,236968,1,0,0:0:0:50:hihat2.wav
182,192,237586,1,0,0:0:0:50:hihat2.wav
36,192,238205,1,0,0:0:0:39:kick2.wav
329,192,238205,1,2,2:0:0:65:
402,192,238823,1,2,2:0:0:65:
109,192,238823,1,0,0:0:0:50:hihat2.wav
182,192,239442,1,0,0:0:0:37:kick2.wav
475,192,239442,1,2,2:0:0:65:
329,192,240060,1,0,0:0:0:50:hihat2.wav
182,192,240679,1,0,0:0:0:33:kick2.wav
475,192,240679,1,0,0:0:0:50:hihat2.wav
256,192,241298,1,0,0:0:0:50:hihat2.wav
402,192,241916,1,0,0:0:0:34:drum1.wav
109,192,241916,1,0,0:0:0:50:hihat2.wav
329,192,242535,1,0,0:0:0:50:hihat2.wav
402,192,242844,128,0,243153:0:0:0:50:hihat2.wav
475,192,243153,1,0,0:0:0:25:kick2.wav
182,192,243153,1,2,2:0:0:65:
109,192,243463,128,0,243772:0:0:0:50:hihat2.wav
36,192,243772,1,2,2:0:0:65:
329,192,243772,1,0,0:0:0:50:hihat2.wav
256,192,244081,128,0,244390:0:0:0:50:hihat2.wav
182,192,244390,1,2,2:0:0:65:
402,192,245009,128,0,245318:0:0:0:50:hihat2.wav
109,192,245627,1,0,0:0:0:50:hihat2.wav
402,192,246246,1,0,0:0:0:50:hihat2.wav
182,192,246865,1,0,0:0:0:50:hihat2.wav
329,192,247483,1,0,0:0:0:50:hihat2.wav
475,192,248102,1,2,2:0:0:65:
256,192,248720,1,2,2:0:0:65:
36,192,249339,128,0,249648:0:0:0:20:kick2.wav
329,192,249648,1,2,2:0:0:65:
182,192,249957,1,0,0:0:0:50:hihat2.wav
329,192,250576,1,0,0:0:0:50:hihat2.wav
182,192,251194,1,0,0:0:0:50:hihat2.wav
402,192,251813,1,0,0:0:0:50:hihat2.wav
109,192,252432,1,0,0:0:0:50:hihat2.wav
402,192,253050,1,0,0:0:0:50:hihat2.wav
109,192,253669,1,0,0:0:0:50:hihat2.wav
256,192,253978,128,0,254287:0:0:0:50:hihat2.wav
