osu file format v14

[General]
AudioFilename: o'er the flood cut.mp3
AudioLeadIn: 0
PreviewTime: 155318
Countdown: 0
SampleSet: Normal
StackLeniency: 0.7
Mode: 3
LetterboxInBreaks: 0
SpecialStyle: 0
WidescreenStoryboard: 1

[Editor]
DistanceSpacing: 1
BeatDivisor: 1
GridSize: 4
TimelineZoom: 1.4

[Metadata]
Title:o'er the flood
TitleUnicode:o'er the flood
Artist:goreshit
ArtistUnicode:goreshit
Creator:Blocko
Version:beginner
Source:
Tags:breakcore dnb over semantic compositions on death and its meaning max richter horizon variations electronic instrumental ancul hydria jinjin pope_gadget
BeatmapID:1182316
BeatmapSetID:454793

[Difficulty]
HPDrainRate:6.5
CircleSize:7
OverallDifficulty:6.5
ApproachRate:6.5
SliderMultiplier:1.4
SliderTickRate:1

[Events]
//Background and Video events
0,0,"bg.jpg",0,0
//Break Periods
//Storyboard Layer 0 (Background)
//Storyboard Layer 1 (Fail)
//Storyboard Layer 2 (Pass)
//Storyboard Layer 3 (Foreground)
//Storyboard Sound Samples

[TimingPoints]
16762,309.278350515464,4,1,0,20,1,0
175112,-100,4,1,0,20,0,1
194829,-100,4,1,0,20,0,0
194906,-100,4,1,0,20,0,1
214622,-100,4,1,0,20,0,0
214700,-100,4,1,0,20,0,1
214777,-100,4,1,0,20,0,0

[HitObjects]
256,192,16762,5,2,2:0:0:25:
402,192,19236,1,0,2:0:0:0:
475,192,20473,1,2,2:0:0:25:
256,192,21710,1,2,2:0:0:25:
109,192,24184,1,0,2:0:0:0:
36,192,25421,1,2,2:0:0:25:
256,192,26658,1,2,2:0:0:25:
329,192,29133,1,0,2:0:0:0:
182,192,30370,1,2,2:0:0:25:
36,192,31607,1,2,2:0:0:25:
182,192,34081,1,0,2:0:0:0:
329,192,35318,1,0,2:0:0:0:
475,192,36555,1,2,2:0:0:50:
182,192,37792,1,0,0:0:0:30:hihat2.wav
329,192,39030,1,0,0:0:0:30:hihat2.wav
109,192,40267,1,2,2:0:0:50:
182,192,40885,1,2,2:0:0:50:
256,192,41504,1,2,2:0:0:50:
329,192,42741,1,0,0:0:0:30:hihat2.wav
182,192,43978,1,0,0:0:0:30:hihat2.wav
402,192,45215,1,2,2:0:0:50:
329,192,45834,1,2,2:0:0:50:
256,192,46452,1,2,2:0:0:50:
329,192,47689,1,0,0:0:0:30:hihat2.wav
36,192,48926,1,0,0:0:0:30:hihat2.wav
402,192,50164,1,2,2:0:0:50:
256,192,50782,1,2,2:0:0:50:
109,192,51401,1,2,2:0:0:50:
182,192,52638,1,0,0:0:0:30:hihat2.wav
475,192,53875,1,0,0:0:0:30:hihat2.wav
329,192,55112,1,2,2:0:0:50:
182,192,55731,1,2,2:0:0:25:
36,192,56349,128,2,58823:2:0:0:50:
475,192,57586,1,0,0:0:0:25:drum2.wav
329,192,58823,128,0,61298:0:0:0:25:drum2.wav
36,192,60060,1,2,2:0:0:50:
109,192,60679,1,2,2:0:0:50:
182,192,61298,128,2,63772:2:0:0:50:
402,192,62535,1,0,0:0:0:45:drum3.wav
475,192,63772,128,0,66246:0:0:0:25:drum2.wav
109,192,65009,1,0,0:0:0:45:drum3.wav
109,192,66246,128,2,68720:2:0:0:50:
329,192,67483,1,0,0:0:0:25:drum2.wav
402,192,68720,128,0,71194:0:0:0:25:drum2.wav
109,192,69957,1,2,2:0:0:50:
182,192,70576,1,2,2:0:0:50:
256,192,71194,128,2,76143:2:0:0:50:
329,192,72432,1,0,0:0:0:45:drum3.wav
182,192,73669,1,0,0:0:0:25:drum2.wav
329,192,74906,1,0,0:0:0:45:drum3.wav
329,192,76143,1,0,0:0:0:60:crash.wav
182,192,76143,1,0,0:0:0:50:hihat2.wav
182,192,77380,1,0,0:0:0:50:hihat2.wav
329,192,78617,1,0,0:0:0:50:hihat2.wav
329,192,79854,1,0,0:0:0:50:hihat2.wav
109,192,81091,1,0,0:0:0:50:hihat2.wav
109,192,82329,1,0,0:0:0:50:hihat2.wav
402,192,83566,1,0,0:0:0:50:hihat2.wav
402,192,84803,1,0,0:0:0:50:hihat2.wav
36,192,86040,1,0,0:0:0:50:hihat2.wav
36,192,87277,1,0,0:0:0:50:hihat2.wav
475,192,88514,1,0,0:0:0:50:hihat2.wav
475,192,89751,1,0,0:0:0:50:hihat2.wav
182,192,90988,1,0,0:0:0:50:hihat2.wav
182,192,92225,1,0,0:0:0:50:hihat2.wav
329,192,93463,1,0,0:0:0:50:hihat2.wav
329,192,94700,1,0,0:0:0:50:hihat2.wav
109,192,95937,1,0,0:0:0:50:hihat2.wav
256,192,95937,1,0,0:0:0:60:crash.wav
109,192,97174,1,0,0:0:0:50:hihat2.wav
402,192,98411,1,0,0:0:0:50:hihat2.wav
402,192,99648,1,0,0:0:0:50:hihat2.wav
182,192,100885,1,0,0:0:0:50:hihat2.wav
182,192,102122,1,0,0:0:0:50:hihat2.wav
475,192,103359,1,0,0:0:0:50:hihat2.wav
475,192,104597,1,0,0:0:0:50:hihat2.wav
36,192,105834,1,0,0:0:0:50:hihat2.wav
36,192,107071,1,0,0:0:0:50:hihat2.wav
329,192,108308,1,0,0:0:0:50:hihat2.wav
329,192,109545,1,0,0:0:0:50:hihat2.wav
109,192,110782,1,0,0:0:0:50:hihat2.wav
109,192,112019,1,0,0:0:0:50:hihat2.wav
402,192,113256,1,0,0:0:0:50:hihat2.wav
402,192,114493,1,0,0:0:0:50:hihat2.wav
36,192,115731,128,0,118205:0:0:0:50:hihat2.wav
475,192,115731,1,0,0:0:0:60:crash.wav
329,192,116968,1,0,0:0:0:50:hihat2.wav
182,192,118205,128,0,120679:0:0:0:50:hihat2.wav
475,192,119442,1,2,2:0:0:65:
402,192,120060,1,2,2:0:0:65:
329,192,120679,128,2,123153:2:0:0:65:
36,192,121916,1,0,0:0:0:50:hihat2.wav
475,192,123153,128,0,125627:0:0:0:50:hihat2.wav
182,192,124390,1,2,2:0:0:65:
109,192,125009,1,2,2:0:0:65:
36,192,125627,128,2,128102:2:0:0:65:
329,192,126865,1,0,0:0:0:50:hihat2.wav
475,192,128102,128,0,130576:0:0:0:50:hihat2.wav
256,192,129339,1,2,2:0:0:65:
182,192,129957,1,2,2:0:0:65:
109,192,130576,128,2,133050:2:0:0:65:
256,192,131813,1,0,0:0:0:50:hihat2.wav
402,192,133050,128,0,135524:0:0:0:50:hihat2.wav
256,192,134287,1,0,0:0:0:50:hihat2.wav
329,192,135524,1,0,0:0:0:60:crash.wav
182,192,135524,1,0,0:0:0:50:hihat2.wav
36,192,136762,1,0,0:0:0:50:hihat2.wav
329,192,137380,1,0,0:0:0:50:hihat2.wav
36,192,137999,1,0,0:0:0:50:hihat2.wav
475,192,139236,1,2,2:0:0:65:
182,192,139854,1,2,2:0:0:65:
475,192,140473,1,2,2:0:0:65:
109,192,141710,1,0,0:0:0:50:hihat2.wav
256,192,142329,1,0,0:0:0:50:hihat2.wav
109,192,142947,1,0,0:0:0:50:hihat2.wav
402,192,144184,1,2,2:0:0:65:
256,192,144803,1,2,2:0:0:65:
402,192,145421,1,2,2:0:0:65:
36,192,146658,1,0,0:0:0:50:hihat2.wav
182,192,147277,1,0,0:0:0:50:hihat2.wav
329,192,147896,1,0,0:0:0:50:hihat2.wav
402,192,149133,1,2,2:0:0:65:
256,192,149751,1,2,2:0:0:65:
109,192,150370,1,2,2:0:0:65:
182,192,151607,1,0,0:0:0:50:hihat2.wav
329,192,152225,1,0,0:0:0:50:hihat2.wav
475,192,152844,1,0,0:0:0:50:hihat2.wav
329,192,154081,1,0,0:0:0:50:hihat2.wav
256,192,154700,1,0,0:0:0:50:hihat2.wav
329,192,155318,1,0,0:0:0:60:crash.wav
182,192,155318,1,0,0:0:0:50:hihat2.wav
182,192,156555,1,0,0:0:0:50:hihat2.wav
329,192,157792,1,0,0:0:0:50:hihat2.wav
329,192,159030,1,2,2:0:0:65:
256,192,159648,1,2,2:0:0:65:
109,192,160267,1,2,2:0:0:65:
109,192,161504,1,0,0:0:0:50:hihat2.wav
402,192,162741,1,0,0:0:0:50:hihat2.wav
402,192,163978,1,2,2:0:0:65:
256,192,164597,1,2,2:0:0:65:
36,192,165215,1,2,2:0:0:65:
36,192,166452,1,0,0:0:0:50:hihat2.wav
475,192,167689,1,0,0:0:0:50:hihat2.wav
475,192,168926,1,2,2:0:0:65:
329,192,169545,1,2,2:0:0:65:
256,192,170164,1,2,2:0:0:65:
256,192,171401,1,0,0:0:0:50:hihat2.wav
256,192,172638,1,0,0:0:0:50:hihat2.wav
256,192,173875,1,0,0:0:0:50:hihat2.wav
256,192,174493,1,0,0:0:0:50:hihat2.wav
36,192,175112,1,0,0:0:0:75:crash.wav
475,192,175112,1,0,0:0:0:55:hihat2.wav
329,192,175731,1,0,0:0:0:55:hihat2.wav
36,192,176349,1,0,0:0:0:55:hihat2.wav
329,192,176968,1,0,0:0:0:55:hihat2.wav
109,192,177586,1,0,0:0:0:55:hihat2.wav
256,192,178205,1,0,0:0:0:55:hihat2.wav
402,192,178823,1,2,2:0:0:75:
256,192,179442,1,2,2:0:0:75:
475,192,180060,1,2,2:0:0:75:
182,192,180679,1,0,0:0:0:55:hihat2.wav
475,192,181298,1,0,0:0:0:55:hihat2.wav
182,192,181916,1,0,0:0:0:55:hihat2.wav
475,192,182535,1,0,0:0:0:55:hihat2.wav
256,192,183153,1,0,0:0:0:55:hihat2.wav
36,192,183772,1,2,2:0:0:75:
256,192,184390,1,2,2:0:0:75:
109,192,185009,1,2,2:0:0:75:
402,192,185627,1,0,0:0:0:55:hihat2.wav
109,192,186246,1,0,0:0:0:55:hihat2.wav
402,192,186865,1,0,0:0:0:55:hihat2.wav
182,192,187483,1,0,0:0:0:55:hihat2.wav
256,192,188102,1,0,0:0:0:55:hihat2.wav
329,192,188720,1,2,2:0:0:75:
256,192,189339,1,2,2:0:0:75:
402,192,189957,1,2,2:0:0:75:
182,192,190576,1,0,0:0:0:55:hihat2.wav
402,192,191194,1,0,0:0:0:55:hihat2.wav
182,192,191813,1,0,0:0:0:55:hihat2.wav
329,192,192432,1,0,0:0:0:55:hihat2.wav
109,192,193050,1,0,0:0:0:55:hihat2.wav
329,192,193669,1,0,0:0:0:55:hihat2.wav
109,192,194287,1,0,0:0:0:55:hihat2.wav
36,192,194906,1,0,0:0:0:55:hihat2.wav
475,192,194906,1,0,0:0:0:75:crash.wav
329,192,195524,1,0,0:0:0:55:hihat2.wav
109,192,196143,1,0,0:0:0:55:hihat2.wav
402,192,196762,1,0,0:0:0:55:hihat2.wav
182,192,197380,1,0,0:0:0:55:hihat2.wav
475,192,197999,1,0,0:0:0:55:hihat2.wav
329,192,198617,1,2,2:0:0:75:
256,192,199236,1,2,2:0:0:75:
182,192,199854,1,2,2:0:0:75:
329,192,200473,1,0,0:0:0:55:hihat2.wav
109,192,201091,1,0,0:0:0:55:hihat2.wav
402,192,201710,1,0,0:0:0:55:hihat2.wav
36,192,202329,1,0,0:0:0:55:hihat2.wav
475,192,202947,1,0,0:0:0:55:hihat2.wav
329,192,203566,1,2,2:0:0:75:
182,192,204184,1,2,2:0:0:75:
36,192,204803,1,2,2:0:0:75:
329,192,205421,1,0,0:0:0:55:hihat2.wav
182,192,206040,1,0,0:0:0:55:hihat2.wav
475,192,206658,1,0,0:0:0:55:hihat2.wav
109,192,207277,1,0,0:0:0:55:hihat2.wav
329,192,207896,1,0,0:0:0:55:hihat2.wav
402,192,208514,1,2,2:0:0:75:
182,192,209133,1,2,2:0:0:75:
256,192,209751,1,2,2:0:0:75:
36,192,210370,1,0,0:0:0:55:hihat2.wav
329,192,210988,1,0,0:0:0:55:hihat2.wav
109,192,211607,1,0,0:0:0:55:hihat2.wav
402,192,212225,1,0,0:0:0:55:hihat2.wav
182,192,212844,1,0,0:0:0:55:hihat2.wav
475,192,213463,1,0,0:0:0:55:hihat2.wav
256,192,214081,1,0,0:0:0:55:hihat2.wav
475,192,214700,1,0,0:0:0:75:crash.wav
36,192,214700,1,0,0:0:0:45:kick2.wav
36,192,215937,1,0,0:0:0:45:kick2.wav
329,192,217174,1,0,0:0:0:45:kick2.wav
329,192,218411,1,2,2:0:0:65:
256,192,219030,1,2,2:0:0:65:
182,192,219648,1,2,2:0:0:65:
182,192,220885,1,0,0:0:0:45:kick2.wav
475,192,222122,1,0,0:0:0:45:kick2.wav
475,192,223359,1,2,2:0:0:65:
256,192,223978,1,2,2:0:0:65:
109,192,224597,1,2,2:0:0:65:
109,192,225834,1,0,0:0:0:45:kick2.wav
402,192,227071,1,0,0:0:0:45:kick2.wav
402,192,228308,1,2,2:0:0:65:
256,192,228926,1,2,2:0:0:65:
182,192,229545,1,2,2:0:0:65:
182,192,230782,1,0,0:0:0:45:kick2.wav
329,192,232019,1,0,0:0:0:45:kick2.wav
329,192,233256,1,0,0:0:0:45:kick2.wav
109,192,234493,1,0,0:0:0:45:kick2.wav
256,192,234493,1,0,0:0:0:60:crash.wav
182,192,235731,1,0,0:0:0:43:kick2.wav
329,192,236968,1,0,0:0:0:41:kick2.wav
402,192,238205,1,2,2:0:0:65:
256,192,238823,1,2,2:0:0:65:
36,192,239442,1,2,2:0:0:65:
182,192,240679,1,0,0:0:0:33:kick2.wav
329,192,241916,1,0,0:0:0:29:kick2.wav
475,192,243153,1,2,2:0:0:65:
256,192,243772,1,2,2:0:0:65:
36,192,244390,1,2,2:0:0:65:
109,192,245627,1,0,0:0:0:20:kick2.wav
402,192,246865,1,0,0:0:0:20:kick2.wav
475,192,248102,1,2,2:0:0:65:
256,192,248720,1,2,2:0:0:65:
182,192,249339,1,0,0:0:0:20:kick2.wav
329,192,250576,1,0,0:0:0:20:kick2.wav
109,192,251813,128,0,253050:0:0:0:20:kick2.wav
402,192,253050,128,0,254287:0:0:0:20:kick2.wav
