osu file format v13

[General]
AudioFilename: loomingshadow.mp3
AudioLeadIn: 0
PreviewTime: -1
Countdown: 0
SampleSet: Soft
StackLeniency: 0.7
Mode: 0
LetterboxInBreaks: 1
WidescreenStoryboard: 1

[Editor]
Bookmarks: 77832,147021,164318,181615,198913,216210,233507,250804,268102
DistanceSpacing: 1.1
BeatDivisor: 4
GridSize: 4
TimelineZoom: 2

[Metadata]
Title:looming shadow of a tree long gone
TitleUnicode:looming shadow of a tree long gone
Artist:goreshit
ArtistUnicode:goreshit
Creator:grumd
Version:Insane
Source:
Tags:onosakihito loctav
BeatmapID:443616
BeatmapSetID:90803

[Difficulty]
HPDrainRate:6.5
CircleSize:4
OverallDifficulty:8.5
ApproachRate:9.3
SliderMultiplier:1.65
SliderTickRate:1

[Events]
//Background and Video events
0,0,"looming.jpg",0,0
//Break Periods
//Storyboard Layer 0 (Background)
//Storyboard Layer 1 (Fail)
//Storyboard Layer 2 (Pass)
//Storyboard Layer 3 (Foreground)
//Storyboard Sound Samples
//Background Colour Transformations
3,100,163,162,255

[TimingPoints]
77832,270.27027027027,4,2,0,100,1,0

[Colours]
Combo1 : 191,143,53
Combo2 : 190,44,22

[HitObjects]
468,91,77832,6,0,P|430:110|388:116,1,80
303,89,78102,1,0,0:0:0:0:
233,146,78237,1,0,0:0:0:0:
223,168,78304,1,0,0:0:0:0:
222,192,78372,1,0,0:0:0:0:
231,214,78440,1,0,0:0:0:0:
249,230,78507,1,0,0:0:0:0:
333,262,78642,2,0,L|379:252,2,41.25,0|0|0,0:0|0:0|0:0,0:0:0:0:
262,320,78913,1,0,0:0:0:0:
177,287,79048,1,0,0:0:0:0:
177,287,79115,1,0,0:0:0:0:
177,287,79183,2,0,L|90:262,1,80
75,255,79386,1,0,0:0:0:0:
51,246,79453,1,0,0:0:0:0:
24,159,79588,1,0,0:0:0:0:
103,115,79723,2,0,P|119:78|123:30,1,82.5
208,70,79994,5,0,0:0:0:0:
221,90,80061,1,0,0:0:0:0:
239,107,80129,1,0,0:0:0:0:
260,119,80196,1,0,0:0:0:0:
284,126,80264,2,0,P|323:129|365:113,1,80
396,29,80534,1,0,0:0:0:0:
452,100,80669,2,0,L|495:88,1,40
444,172,80804,2,0,L|433:261,1,80
431,277,81007,1,0,0:0:0:0:
429,301,81075,5,0,0:0:0:0:
352,349,81210,2,0,L|307:359,1,40,0|0,0:0|0:0,0:0:0:0:
262,305,81345,2,0,P|276:263|272:223,1,80
263,203,81548,1,0,0:0:0:0:
249,182,81615,1,0,0:0:0:0:
229,165,81683,1,0,0:0:0:0:
206,155,81750,2,0,L|80:175,1,120
71,196,82021,1,0,0:0:0:0:
82,283,82156,6,0,B|125:287|125:287|164:300,1,80
237,350,82426,2,0,P|277:343|316:321,1,80
328,306,82629,1,0,0:0:0:0:
338,282,82696,1,0,0:0:0:0:
340,257,82764,1,0,0:0:0:0:
336,232,82832,1,0,0:0:0:0:
396,164,82967,1,0,0:0:0:0:
356,82,83102,1,0,0:0:0:0:
332,88,83169,1,0,0:0:0:0:
307,94,83237,6,0,B|225:85|225:85|176:94,1,120
167,109,83507,2,0,P|159:150|135:189,1,80
120,200,83710,1,0,0:0:0:0:
97,210,83777,1,0,0:0:0:0:
72,214,83845,1,0,0:0:0:0:
47,211,83913,1,0,0:0:0:0:
6,292,84048,2,0,L|-1:332,1,40
78,322,84183,2,0,L|81:371,1,40
154,328,84318,6,0,B|170:289|170:289|174:247,1,80
248,195,84588,1,0,0:0:0:0:
332,227,84723,1,0,0:0:0:0:
353,239,84791,1,0,0:0:0:0:
377,243,84859,1,0,0:0:0:0:
401,240,84926,1,0,0:0:0:0:
424,232,84994,1,0,0:0:0:0:
477,159,85129,1,0,0:0:0:0:
471,135,85196,1,0,0:0:0:0:
464,111,85264,1,0,0:0:0:0:
396,50,85399,6,0,B|325:72|325:72|271:65,1,120
257,50,85669,1,0,0:0:0:0:
208,126,85804,1,0,0:0:0:0:
283,176,85940,2,0,B|293:217|293:217|291:263,1,80
206,293,86210,1,0,0:0:0:0:
133,238,86345,1,0,0:0:0:0:
133,238,86413,1,0,0:0:0:0:
133,238,86480,6,0,P|94:252|49:253,1,82.5
2,178,86750,1,0,0:0:0:0:
62,109,86886,2,0,L|54:65,1,41.25
136,86,87021,2,0,L|140:43,1,41.25
202,125,87156,2,0,P|212:169|235:200,1,82.5
253,213,87359,1,0,0:0:0:0:
275,223,87426,1,0,0:0:0:0:
299,229,87494,1,0,0:0:0:0:
323,231,87561,5,0,0:0:0:0:
399,182,87696,2,0,L|408:137,2,41.25,0|0|0,0:0|0:0|0:0,0:0:0:0:
463,246,87967,2,0,L|473:289,3,41.25,0|0|0|0,0:0|0:0|0:0|0:0,0:0:0:0:
460,307,88237,2,0,P|402:337|339:338,1,123.75
321,330,88507,2,0,P|280:311|252:279,1,82.5
270,194,88777,5,0,0:0:0:0:
294,187,88845,1,0,0:0:0:0:
318,180,88913,2,0,L|409:154,1,82.5
445,80,89183,1,0,0:0:0:0:
367,32,89318,1,0,0:0:0:0:
344,42,89386,1,0,0:0:0:0:
320,47,89453,2,0,P|275:52|198:32,1,123.75
178,46,89723,6,0,L|169:131,1,82.5
166,152,89926,1,0,0:0:0:0:
164,176,89994,1,0,0:0:0:0:
128,259,90129,1,0,0:0:0:0:
142,278,90196,1,0,0:0:0:0:
160,294,90264,1,0,0:0:0:0:
182,303,90332,1,0,0:0:0:0:
206,305,90399,2,0,B|246:292|246:292|327:305,1,123.75
345,321,90669,1,0,0:0:0:0:
395,245,90804,6,0,P|382:202|385:161,1,82.5
445,97,91075,1,0,0:0:0:0:
380,32,91210,1,0,0:0:0:0:
357,40,91277,1,0,0:0:0:0:
333,48,91345,1,0,0:0:0:0:
309,57,91413,1,0,0:0:0:0:
286,66,91480,1,0,0:0:0:0:
248,148,91615,1,0,0:0:0:0:
160,125,91750,2,0,L|116:133,1,41.25
84,198,91886,6,0,P|115:238|114:316,1,123.75
104,330,92156,2,0,B|191:350,1,82.5
260,299,92426,1,0,0:0:0:0:
343,334,92561,1,0,0:0:0:0:
343,334,92629,1,0,0:0:0:0:
343,334,92696,1,0,0:0:0:0:
408,270,92832,1,0,0:0:0:0:
413,245,92899,1,0,0:0:0:0:
418,220,92967,6,0,L|408:173,3,41.25,0|0|0|0,0:0|0:0|0:0|0:0,0:0:0:0:
388,165,93237,2,0,L|304:155,1,82.5
281,151,93440,1,0,0:0:0:0:
256,147,93507,1,0,0:0:0:0:
171,179,93642,2,0,B|127:192|127:192|45:183,1,123.75
29,168,93913,1,0,0:0:0:0:
60,82,94048,6,0,P|103:83|143:71,1,82.5
210,14,94318,1,0,0:0:0:0:
276,75,94453,1,0,0:0:0:0:
364,53,94588,2,0,P|388:89|395:129,1,82.5
324,185,94859,1,0,0:0:0:0:
309,204,94926,1,0,0:0:0:0:
300,227,94994,1,0,0:0:0:0:
298,251,95061,1,0,0:0:0:0:
304,275,95129,5,0,0:0:0:0:
