osu file format v13

[General]
AudioFilename: loomingshadow.mp3
AudioLeadIn: 0
PreviewTime: -1
Countdown: 0
SampleSet: None
StackLeniency: 0.7
Mode: 0
LetterboxInBreaks: 1
WidescreenStoryboard: 1

[Editor]
Bookmarks: 147021,164318,181615,198913,216210,233507,250804,268102
DistanceSpacing: 0.7
BeatDivisor: 4
GridSize: 4
TimelineZoom: 2

[Metadata]
Title:looming shadow of a tree long gone
TitleUnicode:looming shadow of a tree long gone
Artist:goreshit
ArtistUnicode:goreshit
Creator:grumd
Version:I hate hitsounding
Source:
Tags:onosakihito loctav
BeatmapID:443615
BeatmapSetID:90803

[Difficulty]
HPDrainRate:6.5
CircleSize:4.2
OverallDifficulty:8.5
ApproachRate:9.5
SliderMultiplier:1.9
SliderTickRate:1

[Events]
//Background and Video events
0,0,"looming.jpg",0,0
//Break Periods
2,147220,163523
//Storyboard Layer 0 (Background)
//Storyboard Layer 1 (Fail)
//Storyboard Layer 2 (Pass)
//Storyboard Layer 3 (Foreground)
//Storyboard Sound Samples
//Background Colour Transformations
3,100,163,162,255

[TimingPoints]
77832,270.27027027027,4,2,0,100,1,0
231345,-125,4,2,0,100,0,0
233507,-100,4,2,0,100,0,0

[Colours]
Combo1 : 191,143,53
Combo2 : 190,44,22

[HitObjects]
277,252,77832,70,0,P|237:277|184:285,1,95.2000011621094,4|0,0:0|0:0,0:0:0:0:
69,232,78102,1,2,0:0:0:0:
90,98,78237,1,0,0:0:0:0:
107,75,78304,1,0,0:0:0:0:
129,57,78372,1,0,0:0:0:0:
155,46,78440,1,0,0:0:0:0:
182,41,78507,2,0,P|235:40|287:66,1,94.9450022020935,2|0,0:0|0:0,0:0:0:0:
293,75,78710,1,0,0:0:0:0:
306,99,78777,1,0,0:0:0:0:
244,207,78913,70,0,P|231:228|215:244,1,47.5,2|0,0:0|0:0,0:0:0:0:
279,295,79048,2,0,P|286:316|300:336,1,47.5,2|0,0:0|0:0,0:0:0:0:
371,298,79183,2,0,P|417:286|458:251,1,95,2|0,0:0|0:0,0:0:0:0:
468,232,79386,1,0,0:0:0:0:
477,205,79453,1,0,0:0:0:0:
479,176,79521,1,0,0:0:0:0:
470,149,79588,1,2,0:0:0:0:
280,142,79723,2,0,P|258:162|238:173,2,47.5,2|0|0,0:0|0:0|0:0,0:0:0:0:
157,70,79994,22,0,P|132:63|112:51,1,47.4725011010468,2|0,0:0|0:0,0:0:0:0:
61,122,80129,2,0,P|64:146|74:169,1,47.4725011010468,2|0,0:0|0:0,0:0:0:0:
146,204,80264,2,0,P|139:251|113:294,1,95,0|0,1:0|0:0,0:0:0:0:
262,278,80534,1,2,0:0:0:0:
290,271,80602,1,0,0:0:0:0:
317,273,80669,1,2,0:0:0:0:
343,285,80737,1,0,0:0:0:0:
363,304,80804,1,2,0:0:0:0:
463,189,80940,1,0,0:0:0:0:
463,189,81007,1,0,0:0:0:0:
463,189,81075,70,0,P|470:164|471:139,1,47.5,2|0,0:0|0:0,0:0:0:0:
405,77,81210,2,0,P|381:90|357:94,1,47.5,2|0,0:0|0:0,0:0:0:0:
285,45,81345,2,0,P|242:61|209:95,1,95,2|0,0:0|0:0,0:0:0:0:
183,235,81615,1,2,0:0:0:0:
314,184,81750,2,0,B|391:230|391:230|427:271,1,142.5,0|0,1:0|0:0,0:0:0:0:
437,296,82021,1,2,0:0:0:0:
283,353,82156,22,0,B|235:344|235:344|195:321,1,95,0|0,1:0|0:0,0:0:0:0:
183,163,82426,1,2,0:0:0:0:
42,273,82561,2,0,P|42:301|50:328,1,47.5,2|0,0:0|0:0,0:0:0:0:
92,200,82696,2,0,P|74:185|53:173,1,47.5,2|0,0:0|0:0,0:0:0:0:
129,280,82832,2,0,P|178:282|222:267,1,95,2|0,0:0|0:0,0:0:0:0:
333,107,83102,1,0,0:0:0:0:
333,107,83169,1,0,0:0:0:0:
333,107,83237,70,0,B|283:100|283:100|243:77,1,95,0|0,1:0|0:0,0:0:0:0:
425,37,83507,2,0,P|462:65|487:107,1,95,0|2,0:0|0:0,0:0:0:0:
492,134,83710,1,0,0:0:0:0:
492,162,83777,1,2,0:0:0:0:
485,189,83845,1,0,0:0:0:0:
470,213,83913,1,2,0:0:0:0:
329,242,84048,2,0,P|302:231|275:226,1,47.5,2|0,0:0|0:0,0:0:0:0:
264,308,84183,2,0,P|242:329|219:341,1,47.5,2|0,0:0|0:0,0:0:0:0:
158,288,84318,22,0,P|152:264|140:244,3,47.5,2|0|0|0,0:0|0:0|0:0|0:0,0:0:0:0:
116,228,84588,2,0,P|74:208|41:170,1,95,0|2,0:0|0:0,0:0:0:0:
34,144,84791,1,0,0:0:0:0:
31,115,84859,1,2,0:0:0:0:
39,88,84926,1,0,0:0:0:0:
56,65,84994,1,0,0:0:0:0:
213,109,85129,2,0,P|237:119|265:121,1,47.4725011010468,2|0,0:0|0:0,0:0:0:0:
337,88,85264,2,0,P|354:68|371:55,1,47.5,2|0,0:0|0:0,0:0:0:0:
442,113,85399,70,0,B|431:159|431:159|446:251,1,142.5,0|0,1:0|0:0,0:0:0:0:
462,276,85669,2,0,B|414:281|414:281|371:302,1,94.9450022020935,0|0,0:0|1:0,0:0:0:0:
229,342,85940,1,2,0:0:0:0:
101,304,86075,1,0,0:0:0:0:
63,182,86210,1,2,0:0:0:0:
155,100,86345,1,0,1:0:0:0:
155,100,86413,1,0,1:0:0:0:
155,100,86480,22,0,P|196:118|249:119,1,95,0|2,1:0|0:0,0:0:0:0:
350,27,86750,1,0,0:0:0:0:
453,131,86886,2,0,P|480:147|505:154,1,47.4725011010468,2|0,0:0|0:0,0:0:0:0:
453,213,87021,2,0,P|473:236|502:255,1,47.4725011010468,2|0,0:0|0:0,0:0:0:0:
418,285,87156,2,0,P|390:324|343:347,1,95,2|2,0:0|0:0,0:0:0:0:
320,349,87359,1,0,0:0:0:0:
291,345,87426,1,2,0:0:0:0:
263,335,87494,1,0,0:0:0:0:
240,318,87561,70,0,P|256:277|254:222,1,95,2|0,0:0|0:0,0:0:0:0:
185,122,87832,2,0,P|136:116|92:94,1,95,0|2,0:0|0:0,0:0:0:0:
68,101,88034,1,0,0:0:0:0:
43,115,88102,1,2,0:0:0:0:
24,135,88169,1,0,0:0:0:0:
10,161,88237,1,2,0:0:0:0:
89,311,88372,2,0,P|102:337|105:365,2,47.5,2|0|0,0:0|0:0|0:0,0:0:0:0:
179,187,88642,22,0,P|204:170|225:163,1,47.5,2|0,0:0|0:0,0:0:0:0:
266,240,88777,2,0,P|257:270|256:295,1,47.5,2|0,0:0|0:0,0:0:0:0:
344,309,88913,2,0,P|387:267|436:253,1,94.9450022020935,0|0,1:0|0:0,0:0:0:0:
485,131,89183,1,2,0:0:0:0:
462,112,89250,1,0,0:0:0:0:
435,101,89318,1,2,0:0:0:0:
407,95,89386,1,0,0:0:0:0:
379,96,89453,2,0,P|330:109|279:103,1,94.9450022020935,2|0,0:0|0:0,0:0:0:0:
259,96,89656,1,0,0:0:0:0:
235,79,89723,69,2,0:0:0:0:
81,75,89859,1,2,0:0:0:0:
81,75,89926,1,0,0:0:0:0:
81,75,89994,2,0,P|114:115|128:161,1,95,0|2,0:0|0:0,0:0:0:0:
127,183,90196,1,0,0:0:0:0:
121,211,90264,1,2,0:0:0:0:
43,315,90399,2,0,B|118:357|118:357|176:345,1,142.5,0|0,1:0|0:0,0:0:0:0:
195,326,90669,1,0,0:0:0:0:
298,276,90804,22,0,B|345:284|345:284|388:308,1,95,0|0,1:0|0:0,0:0:0:0:
482,225,91075,2,0,P|480:177|462:132,1,95,2|2,0:0|0:0,0:0:0:0:
442,113,91277,1,0,0:0:0:0:
418,97,91345,1,2,0:0:0:0:
391,87,91413,1,0,0:0:0:0:
362,85,91480,1,2,0:0:0:0:
298,191,91615,2,0,P|254:214|205:218,1,95,2|2,0:0|0:0,0:0:0:0:
180,214,91818,1,0,0:0:0:0:
152,206,91886,69,0,1:0:0:0:
67,104,92021,1,2,0:0:0:0:
14,236,92156,1,0,0:0:0:0:
111,343,92291,1,2,0:0:0:0:
137,330,92359,1,0,0:0:0:0:
164,325,92426,1,2,0:0:0:0:
192,327,92494,1,0,0:0:0:0:
219,334,92561,1,2,0:0:0:0:
364,319,92696,2,0,P|388:328|411:331,1,47.4725011010468,2|0,0:0|0:0,0:0:0:0:
410,248,92832,2,0,P|437:247|463:241,1,47.4725011010468,2|0,0:0|0:0,0:0:0:0:
423,166,92967,22,0,P|448:157|468:145,1,47.4725011010468,2|0,0:0|0:0,0:0:0:0:
404,86,93102,2,0,P|425:68|442:48,1,47.4725011010468,2|0,0:0|0:0,0:0:0:0:
325,55,93237,2,0,P|290:87|242:102,1,95,0|2,0:0|0:0,0:0:0:0:
216,103,93440,1,0,0:0:0:0:
187,100,93507,1,2,0:0:0:0:
160,89,93575,1,0,0:0:0:0:
137,72,93642,1,2,0:0:0:0:
200,197,93777,1,2,0:0:0:0:
209,224,93845,1,0,0:0:0:0:
208,252,93913,1,2,0:0:0:0:
198,278,93980,1,0,0:0:0:0:
180,301,94048,70,0,B|88:316|88:316|28:344,1,142.5,0|0,1:0|0:0,0:0:0:0:
25,359,94318,1,0,0:0:0:0:
78,217,94453,1,0,1:0:0:0:
29,122,94588,2,0,P|11:84|8:31,1,95,2|0,0:0|0:0,0:0:0:0:
156,137,94859,1,2,0:0:0:0:
301,74,94994,1,0,1:0:0:0:
301,74,95061,1,0,1:0:0:0:
301,74,95129,22,0,P|349:55|396:51,1,95,0|2,1:0|0:0,0:0:0:0:
484,148,95399,1,0,0:0:0:0:
466,279,95534,1,2,0:0:0:0:
444,298,95602,1,0,0:0:0:0:
419,312,95669,2,0,P|375:329|326:330,1,95,2|0,0:0|0:0,0:0:0:0:
224,225,95940,1,2,0:0:0:0:
237,201,96007,1,0,0:0:0:0:
258,181,96075,1,2,0:0:0:0:
284,169,96142,1,0,0:0:0:0:
313,166,96210,70,0,P|335:166|359:172,1,47.5,2|0,0:0|0:0,0:0:0:0:
419,124,96345,2,0,P|436:140|449:162,1,47.4725011010468,2|0,0:0|0:0,0:0:0:0:
451,49,96480,2,0,P|413:68|362:75,1,95,2|2,0:0|0:0,0:0:0:0:
333,69,96683,1,0,0:0:0:0:
307,56,96750,1,2,0:0:0:0:
166,51,96886,2,0,P|86:79|22:142,1,142.5
26,139,97156,1,0,0:0:0:0:
104,240,97291,21,2,0:0:0:0:
127,256,97359,1,0,0:0:0:0:
144,278,97426,1,2,0:0:0:0:
154,304,97494,1,0,0:0:0:0:
157,332,97561,2,0,B|205:351|205:351|253:356,1,95,0|0,1:0|0:0,0:0:0:0:
345,255,97832,1,2,0:0:0:0:
258,133,97967,2,0,P|254:160|241:187,1,47.4725011010468,2|0,0:0|0:0,0:0:0:0:
235,61,98102,2,0,P|283:53|329:67,1,95,0|2,0:0|0:0,0:0:0:0:
350,81,98304,1,0,0:0:0:0:
368,103,98372,69,2,0:0:0:0:
376,130,98440,1,0,0:0:0:0:
378,158,98507,2,0,P|378:184|372:206,2,47.5,2|0|0,0:0|0:0|0:0,0:0:0:0:
203,246,98777,1,2,0:0:0:0:
74,138,98913,2,0,B|120:135|120:135|181:109,1,94.9450022020935,2|0,0:0|1:0,0:0:0:0:
475,288,99318,1,2,0:0:0:0:
362,319,99453,22,0,P|315:309|277:280,1,95,0|0,1:0|0:0,0:0:0:0:
257,165,99723,1,2,0:0:0:0:
188,72,99859,1,2,0:0:0:0:
188,72,99926,1,0,0:0:0:0:
188,72,99994,2,0,P|138:58|94:58,2,95,2|0|0,0:0|0:0|0:0,0:0:0:0:
347,112,100399,1,2,0:0:0:0:
375,106,100467,1,0,0:0:0:0:
401,95,100534,70,0,B|440:67|440:67|460:18,1,95,0|2,1:0|0:0,0:0:0:0:
455,187,100804,2,0,B|405:222|405:222|385:252,1,95,0|2,0:0|0:0,0:0:0:0:
365,270,101007,1,0,0:0:0:0:
339,283,101075,1,2,0:0:0:0:
311,291,101142,1,0,0:0:0:0:
282,294,101210,1,2,0:0:0:0:
148,226,101345,2,0,P|122:213|90:207,1,47.5,2|0,0:0|0:0,0:0:0:0:
93,304,101480,2,0,P|71:329|51:342,1,47.5,2|0,0:0|0:0,0:0:0:0:
184,312,101615,22,0,P|227:290|258:245,1,95,0|2,0:0|0:0,0:0:0:0:
261,225,101818,1,0,0:0:0:0:
259,196,101886,1,2,0:0:0:0:
211,78,102021,1,2,0:0:0:0:
188,94,102088,1,0,0:0:0:0:
161,104,102156,1,2,0:0:0:0:
133,108,102223,1,0,0:0:0:0:
104,106,102291,1,0,0:0:0:0:
44,209,102426,1,2,0:0:0:0:
49,237,102494,1,0,0:0:0:0:
61,262,102561,1,2,0:0:0:0:
80,283,102629,1,0,0:0:0:0:
104,297,102696,70,0,B|191:276|191:276|256:282,1,142.5,0|0,1:0|0:0,0:0:0:0:
262,303,102967,2,0,B|299:334|299:334|343:347,1,95,0|0,0:0|1:0,0:0:0:0:
475,216,103237,2,0,P|426:222|386:245,1,95,2|0,0:0|0:0,0:0:0:0:
468,344,103507,1,2,0:0:0:0:
398,136,103642,1,0,1:0:0:0:
398,136,103710,1,0,1:0:0:0:
398,136,103777,21,0,1:0:0:0:
285,74,103913,1,2,0:0:0:0:
215,180,104048,1,0,0:0:0:0:
87,141,104183,2,0,P|74:122|66:97,1,47.5,2|0,0:0|0:0,0:0:0:0:
144,64,104318,2,0,P|166:72|192:74,1,47.5,2|0,0:0|0:0,0:0:0:0:
262,126,104453,2,0,P|307:101|355:91,1,95,0|2,0:0|0:0,0:0:0:0:
377,90,104656,1,0,0:0:0:0:
404,95,104723,1,2,0:0:0:0:
430,106,104791,1,0,0:0:0:0:
453,122,104859,70,0,P|470:140|480:162,1,47.5,2|0,0:0|0:0,0:0:0:0:
419,215,104994,2,0,P|412:238|412:261,1,47.5,2|0,0:0|0:0,0:0:0:0:
473,323,105129,2,0,P|427:349|377:355,1,95,2|2,0:0|0:0,0:0:0:0:
357,352,105332,1,0,0:0:0:0:
329,343,105399,1,2,0:0:0:0:
305,325,105467,1,0,0:0:0:0:
288,301,105534,1,0,0:0:0:0:
190,214,105669,1,2,0:0:0:0:
161,220,105737,1,0,0:0:0:0:
135,231,105804,1,0,0:0:0:0:
72,337,105940,22,0,P|114:358|165:362,1,95,0|2,0:0|0:0,0:0:0:0:
307,217,106210,2,0,L|298:161,2,47.5,0|0|0,1:0|0:0|0:0,0:0:0:0:
426,184,106480,1,2,0:0:0:0:
439,158,106548,1,0,0:0:0:0:
443,130,106615,1,2,0:0:0:0:
439,101,106683,1,0,0:0:0:0:
426,75,106750,1,0,0:0:0:0:
304,50,106886,1,2,0:0:0:0:
304,50,106953,1,0,0:0:0:0:
304,50,107021,70,0,P|253:76|202:80,1,94.9450022020935
188,77,107223,1,0,0:0:0:0:
159,74,107291,2,0,P|114:81|65:109,1,95,0|2,0:0|0:0,0:0:0:0:
52,126,107494,1,0,0:0:0:0:
37,150,107561,1,2,0:0:0:0:
31,279,107696,2,0,B|109:304|109:304|156:344,1,142.41750330314,0|0,1:0|0:0,0:0:0:0:
169,368,107967,1,0,0:0:0:0:
302,301,108102,22,0,L|316:201,1,95,0|2,1:0|0:0,0:0:0:0:
384,102,108372,1,0,0:0:0:0:
252,49,108507,1,2,0:0:0:0:
235,72,108575,1,0,0:0:0:0:
212,89,108642,1,2,0:0:0:0:
185,100,108710,1,0,0:0:0:0:
157,105,108777,1,0,0:0:0:0:
49,180,108913,2,0,P|63:229|96:267,1,95,0|2,0:0|0:0,0:0:0:0:
115,276,109115,1,0,0:0:0:0:
143,281,109183,70,0,L|242:269,1,95,0|0,1:0|0:0,0:0:0:0:
460,220,109453,2,0,L|353:207,1,95,0|2,0:0|0:0,0:0:0:0:
339,196,109656,1,0,0:0:0:0:
317,177,109723,1,2,0:0:0:0:
301,152,109791,1,0,0:0:0:0:
293,124,109859,1,0,0:0:0:0:
161,87,109994,2,0,P|134:103|119:116,1,47.5,2|0,0:0|0:0,0:0:0:0:
117,196,110129,2,0,P|140:203|162:216,1,47.5,2|0,0:0|0:0,0:0:0:0:
212,292,110264,22,0,P|256:259|302:248,1,95,2|2,0:0|0:0,0:0:0:0:
322,249,110467,1,0,0:0:0:0:
349,254,110534,2,0,P|379:288|426:311,1,95
476,192,110804,1,2,0:0:0:0:
482,164,110872,1,0,0:0:0:0:
480,135,110940,1,2,0:0:0:0:
470,108,111007,1,0,0:0:0:0:
452,85,111075,1,0,0:0:0:0:
310,60,111210,1,2,0:0:0:0:
310,60,111277,1,0,0:0:0:0:
310,60,111345,70,0,B|274:90|274:90|229:109,1,95,0|2,1:0|0:0,0:0:0:0:
105,119,111615,1,0,0:0:0:0:
20,222,111750,1,0,0:0:0:0:
109,324,111886,2,0,P|154:345|206:348,1,95,2|0,0:0|0:0,0:0:0:0:
334,298,112156,1,2,0:0:0:0:
405,145,112291,1,0,1:0:0:0:
405,145,112359,1,0,1:0:0:0:
405,145,112426,22,0,P|391:100|361:60,2,95,4|0|0,1:0|0:0|0:0,0:0:0:0:
375,258,112832,1,0,1:0:0:0:
357,280,112899,1,0,0:0:0:0:
334,298,112967,2,0,P|290:316|238:320,1,95,0|0,0:0|1:0,0:0:0:0:
165,231,113237,1,2,0:0:0:0:
161,202,113304,1,0,0:0:0:0:
150,175,113372,1,2,0:0:0:0:
133,151,113440,1,0,0:0:0:0:
111,132,113507,70,0,P|78:112|23:101,1,95,0|0,1:0|0:0,0:0:0:0:
202,80,113777,2,0,P|252:77|301:59,1,95,0|2,1:0|0:0,0:0:0:0:
317,46,113980,1,0,0:0:0:0:
335,24,114048,1,2,0:0:0:0:
440,86,114183,2,0,P|478:161|480:226,1,142.5,0|0,1:0|0:0,0:0:0:0:
472,245,114453,1,2,0:0:0:0:
289,227,114588,22,0,P|327:198|377:185,1,95,0|0,1:0|0:0,0:0:0:0:
411,301,114859,1,0,1:0:0:0:
389,319,114926,1,0,1:0:0:0:
362,331,114994,2,0,P|316:344|265:340,1,95,0|2,1:0|0:0,0:0:0:0:
42,220,115264,2,0,P|124:235|180:273,1,142.5,0|0,1:0|0:0,0:0:0:0:
191,288,115534,1,0,0:0:0:0:
256,153,115669,70,0,P|297:126|342:117,1,95,0|0,1:0|1:0,0:0:0:0:
369,121,115872,1,0,0:0:0:0:
395,131,115940,1,2,0:0:0:0:
464,238,116075,1,2,0:0:0:0:
344,293,116210,1,0,1:0:0:0:
225,220,116345,2,0,B|206:126|206:126|220:69,1,142.5,0|0,1:0|0:0,0:0:0:0:
226,53,116615,1,0,1:0:0:0:
80,124,116750,22,0,B|90:169|90:169|84:217,1,95,0|2,1:0|0:0,0:0:0:0:
31,324,117021,1,2,0:0:0:0:
161,308,117156,1,0,1:0:0:0:
185,293,117223,1,0,0:0:0:0:
212,283,117291,2,0,P|257:277|308:286,1,95,0|0,0:0|1:0,0:0:0:0:
429,346,117561,1,0,0:0:0:0:
477,230,117696,1,2,0:0:0:0:
485,202,117764,1,0,0:0:0:0:
486,173,117832,69,0,1:0:0:0:
389,77,117967,1,0,1:0:0:0:
283,159,118102,2,0,P|200:206|123:200,1,142.5,0|0,1:0|0:0,0:0:0:0:
127,199,118372,1,2,0:0:0:0:
146,55,118507,2,0,P|190:56|239:78,1,95,0|2,1:0|0:0,0:0:0:0:
258,93,118710,1,0,0:0:0:0:
277,113,118777,1,2,0:0:0:0:
291,137,118845,1,0,0:0:0:0:
299,164,118913,22,0,P|263:220|257:276,1,95,0|0,1:0|0:0,0:0:0:0:
348,363,119183,1,0,1:0:0:0:
376,360,119250,1,0,1:0:0:0:
403,350,119318,1,0,1:0:0:0:
488,243,119453,1,0,0:0:0:0:
411,150,119588,2,0,P|430:133|456:56,1,95,0|2,1:0|0:0,0:0:0:0:
450,41,119791,1,0,0:0:0:0:
437,15,119859,1,0,1:0:0:0:
302,59,119994,69,0,1:0:0:0:
166,31,120129,2,0,B|127:60|127:60|99:102,1,95,0|0,1:0|0:0,0:0:0:0:
85,216,120399,1,0,1:0:0:0:
213,245,120534,2,0,P|233:289|270:325,1,95,0|0,1:0|0:0,0:0:0:0:
409,308,120804,1,2,0:0:0:0:
432,291,120872,1,0,0:0:0:0:
449,268,120940,1,0,1:0:0:0:
461,242,121007,1,0,1:0:0:0:
465,213,121075,22,0,P|457:165|427:122,1,95,0|2,1:0|0:0,0:0:0:0:
282,64,121345,1,0,0:0:0:0:
230,176,121480,1,0,1:0:0:0:
233,204,121548,1,0,0:0:0:0:
243,230,121615,1,2,0:0:0:0:
262,251,121683,1,0,0:0:0:0:
285,265,121750,1,0,1:0:0:0:
384,175,121886,2,0,P|393:151|407:129,1,47.5,2|0,0:0|0:0,0:0:0:0:
475,204,122021,2,0,P|485:226|493:254,1,47.5,2|0,0:0|0:0,0:0:0:0:
405,275,122156,70,0,P|368:301|338:349,1,95,0|0,1:0|1:0,0:0:0:0:
218,329,122426,2,0,P|141:288|105:208,1,142.5,0|0,1:0|0:0,0:0:0:0:
108,214,122696,1,2,0:0:0:0:
196,109,122832,2,0,P|174:72|125:35,1,95,0|0,1:0|0:0,0:0:0:0:
27,153,123102,1,2,0:0:0:0:
187,227,123237,22,0,P|228:206|280:197,1,95,0|0,1:0|0:0,0:0:0:0:
415,246,123507,1,0,1:0:0:0:
415,246,123575,1,0,1:0:0:0:
415,246,123642,1,0,1:0:0:0:
310,343,123777,1,2,0:0:0:0:
161,300,123913,1,0,1:0:0:0:
161,300,123980,1,0,0:0:0:0:
161,300,124048,2,0,B|156:251|156:251|137:208,1,94.9450022020935,0|0,0:0|1:0,0:0:0:0:
198,81,124318,70,0,P|236:59|287:52,1,95,0|0,1:0|1:0,0:0:0:0:
400,133,124588,1,2,0:0:0:0:
466,35,124723,1,0,0:0:0:0:
466,35,124791,1,0,0:0:0:0:
466,35,124859,1,0,1:0:0:0:
400,133,124994,1,0,0:0:0:0:
444,260,125129,2,0,B|427:304|427:304|391:337,1,95,2|0,0:0|1:0,0:0:0:0:
256,283,125399,22,0,P|220:248|177:230,2,95,0|0|2,1:0|0:0|0:0,0:0:0:0:
141,360,125804,1,0,1:0:0:0:
112,359,125872,1,0,0:0:0:0:
84,352,125940,1,2,0:0:0:0:
59,337,126007,1,0,0:0:0:0:
39,316,126075,2,0,P|55:271|53:219,1,95,0|0,1:0|0:0,0:0:0:0:
83,78,126345,1,0,0:0:0:0:
83,78,126413,1,0,0:0:0:0:
83,78,126480,69,0,1:0:0:0:
202,131,126615,1,0,1:0:0:0:
300,46,126750,1,0,1:0:0:0:
411,126,126886,1,2,0:0:0:0:
417,153,126953,1,0,0:0:0:0:
417,182,127021,1,2,0:0:0:0:
408,209,127088,1,0,0:0:0:0:
391,233,127156,2,0,P|335:246|285:281,1,95,0|0,1:0|0:0,0:0:0:0:
177,337,127426,1,2,0:0:0:0:
177,337,127494,1,0,0:0:0:0:
177,337,127561,22,0,P|140:313|89:299,1,94.9450022020935,0|0,1:0|0:0,0:0:0:0:
52,182,127832,1,0,1:0:0:0:
39,157,127899,1,0,1:0:0:0:
32,130,127967,1,0,1:0:0:0:
125,35,128102,1,2,0:0:0:0:
262,68,128237,2,0,P|342:133|416:140,1,142.5,0|0,1:0|0:0,0:0:0:0:
407,140,128507,70,0,P|444:104|486:88,1,95,2|0,0:0|1:0,0:0:0:0:
436,244,128777,1,2,0:0:0:0:
306,318,128913,2,0,B|258:327|258:327|212:323,1,95,0|0,0:0|1:0,0:0:0:0:
107,245,129183,1,0,0:0:0:0:
85,120,129318,1,2,0:0:0:0:
207,64,129453,1,2,0:0:0:0:
230,80,129521,1,0,0:0:0:0:
256,88,129588,1,0,1:0:0:0:
284,88,129656,1,0,1:0:0:0:
311,82,129723,21,4,1:0:0:0:
450,131,129859,1,2,0:0:0:0:
344,209,129994,2,0,P|305:234|276:278,1,95,0|0,0:0|1:0,0:0:0:0:
272,301,130196,1,0,0:0:0:0:
271,329,130264,1,2,0:0:0:0:
403,358,130399,1,0,1:0:0:0:
484,244,130534,1,2,0:0:0:0:
488,216,130602,1,0,0:0:0:0:
487,187,130669,1,2,0:0:0:0:
479,159,130737,1,0,0:0:0:0:
463,135,130804,69,0,1:0:0:0:
327,150,130940,1,0,1:0:0:0:
216,67,131075,2,0,B|174:43|174:43|127:35,1,95,0|0,1:0|0:0,0:0:0:0:
100,41,131277,1,0,0:0:0:0:
76,56,131345,1,2,0:0:0:0:
36,177,131480,1,0,1:0:0:0:
165,237,131615,2,0,P|193:226|212:212,1,47.5,2|0,0:0|0:0,0:0:0:0:
118,303,131750,2,0,P|95:309|72:310,1,47.5,2|0,0:0|0:0,0:0:0:0:
202,316,131886,22,0,P|243:331|283:365,1,95,0|0,1:0|0:0,0:0:0:0:
416,292,132156,1,0,1:0:0:0:
416,292,132223,1,0,1:0:0:0:
416,292,132291,2,0,P|443:253|453:202,1,95,0|2,1:0|0:0,0:0:0:0:
410,77,132561,1,0,1:0:0:0:
277,94,132696,1,0,0:0:0:0:
229,219,132832,1,0,1:0:0:0:
220,245,132899,1,0,0:0:0:0:
216,273,132967,70,0,P|214:302|217:326,1,47.5,0|0,1:0|0:0,0:0:0:0:
310,275,133102,2,0,P|324:257|345:243,1,47.5,0|0,1:0|0:0,0:0:0:0:
377,340,133237,2,0,P|416:360|471:364,1,95,0|0,1:0|0:0,0:0:0:0:
439,197,133507,1,0,1:0:0:0:
312,134,133642,2,0,B|290:95|290:95|283:46,2,94.9450022020935,0|2|0,0:0|0:0|1:0,0:0:0:0:
271,257,134048,22,0,P|228:296|138:319,1,142.5,0|0,1:0|0:0,0:0:0:0:
119,316,134318,1,2,0:0:0:0:
27,195,134453,2,0,P|29:151|53:102,1,94.9450022020935,0|2,1:0|0:0,0:0:0:0:
68,83,134656,1,0,0:0:0:0:
90,65,134723,1,0,0:0:0:0:
115,52,134791,1,0,0:0:0:0:
142,44,134859,2,0,P|167:82|219:112,1,94.9450022020935,2|0,0:0|0:0,0:0:0:0:
236,240,135129,70,0,P|271:271|293:314,1,95,0|0,1:0|0:0,0:0:0:0:
419,293,135399,2,0,P|436:199|481:139,1,142.5,0|0,1:0|0:0,0:0:0:0:
482,141,135669,1,2,0:0:0:0:
382,41,135804,1,0,1:0:0:0:
276,137,135940,2,0,B|288:184|288:184|283:231,1,95,2|0,0:0|0:0,0:0:0:0:
150,318,136210,22,0,P|105:302|41:304,1,95,0|0,1:0|0:0,0:0:0:0:
17,192,136480,1,0,1:0:0:0:
17,192,136548,1,0,1:0:0:0:
17,192,136615,2,0,P|109:163|164:111,1,142.5,0|0,1:0|0:0,0:0:0:0:
158,109,136886,2,0,P|205:116|254:109,1,95,2|0,0:0|0:0,0:0:0:0:
382,41,137156,1,0,1:0:0:0:
482,202,137291,69,0,1:0:0:0:
360,127,137426,1,2,0:0:0:0:
356,268,137561,1,0,0:0:0:0:
482,202,137696,1,0,1:0:0:0:
360,127,137832,2,0,P|317:150|260:155,1,95,0|0,1:0|0:0,0:0:0:0:
135,79,138102,1,2,0:0:0:0:
112,96,138169,1,0,0:0:0:0:
96,120,138237,1,2,1:2:0:0:
85,146,138304,1,0,1:0:0:0:
83,174,138372,21,0,1:0:0:0:
152,286,138507,2,0,P|201:303|236:335,1,95,2|0,0:0|0:0,0:0:0:0:
367,312,138777,2,0,P|395:249|393:200,1,95,0|2,1:0|0:0,0:0:0:0:
392,195,138980,1,0,0:0:0:0:
382,167,139048,1,0,0:0:0:0:
283,66,139183,2,0,P|274:40|272:17,1,47.4725011010468,2|0,0:0|0:0,0:0:0:0:
205,87,139318,2,0,P|187:71|176:49,1,47.4725011010468,2|0,0:0|0:0,0:0:0:0:
149,150,139453,70,0,P|139:220|111:261,1,95,0|0,1:0|1:0,0:0:0:0:
19,366,139723,2,0,P|100:329|163:327,1,142.5,0|0,1:0|0:0,0:0:0:0:
180,331,139994,1,2,0:0:0:0:
327,297,140129,2,0,P|353:258|361:207,1,95,0|0,1:0|0:0,0:0:0:0:
302,82,140399,1,2,0:0:0:0:
302,82,140467,1,0,0:0:0:0:
302,82,140534,21,0,1:0:0:0:
209,184,140669,1,0,0:0:0:0:
70,144,140804,1,0,1:0:0:0:
70,144,140872,1,0,1:0:0:0:
70,144,140940,2,0,B|101:230|101:230|87:306,1,142.5,0|0,1:0|0:0,0:0:0:0:
86,308,141210,2,0,B|111:351|111:351|149:379,2,95,0|0|0,1:0|0:0|1:0,0:0:0:0:
194,234,141615,69,0,1:0:0:0:
320,273,141750,1,0,1:0:0:0:
440,221,141886,2,0,B|454:175|454:175|451:127,1,95,2|2,0:0|0:0,0:0:0:0:
445,100,142088,1,0,0:0:0:0:
434,73,142156,1,0,1:0:0:0:
283,91,142291,2,0,P|247:120|191:138,2,95,0|2|0,1:0|0:0|0:0,0:0:0:0:
355,197,142696,22,0,P|378:274|429:330,1,142.5,0|0,1:0|0:0,0:0:0:0:
442,335,142967,1,2,0:0:0:0:
270,319,143102,2,0,P|233:302|173:296,1,95,0|2,1:0|0:0,0:0:0:0:
151,299,143304,1,0,0:0:0:0:
123,306,143372,1,0,1:0:0:0:
96,317,143440,1,0,0:0:0:0:
72,333,143507,1,2,0:0:0:0:
113,202,143642,1,2,0:0:0:0:
81,85,143777,70,0,P|49:49|5:25,1,95,0|0,1:0|1:0,0:0:0:0:
177,67,144048,2,0,P|249:87|322:75,1,142.5,0|0,1:0|0:0,0:0:0:0:
339,63,144318,1,2,0:0:0:0:
473,123,144453,1,0,1:0:0:0:
485,148,144521,1,0,0:0:0:0:
492,175,144588,1,0,0:0:0:0:
398,278,144723,1,2,0:0:0:0:
278,215,144859,22,0,P|234:197|168:197,1,95,0|0,1:0|0:0,0:0:0:0:
52,270,145129,1,0,1:0:0:0:
65,294,145196,1,0,1:0:0:0:
83,315,145264,2,0,P|122:349|178:365,1,94.9450022020935,0|0,1:0|0:0,0:0:0:0:
211,131,145534,2,0,P|164:140|119:171,1,94.9450022020935,0|0,1:0|0:0,0:0:0:0:
223,276,145804,1,0,1:0:0:0:
341,180,145940,70,0,B|327:133|327:133|332:84,2,95,0|2|0,1:0|0:0|0:0,0:0:0:0:
445,277,146345,1,0,1:0:0:0:
329,322,146480,1,0,0:0:0:0:
228,247,146615,1,2,0:0:0:0:
204,129,146750,2,2,L|210:100,8,23.75,2|2|2|2|2|2|2|2|4,0:0|0:0|0:0|0:0|0:0|0:0|0:0|0:0|1:2,0:0:0:0:
204,129,164048,22,2,L|210:100,6,23.75
210,156,164318,6,0,P|228:202|226:252,1,95,4|0,1:2|0:0,0:0:0:0:
103,332,164588,1,0,0:0:0:0:
11,209,164724,1,0,1:0:0:0:
22,183,164791,1,0,0:0:0:0:
41,161,164859,1,2,0:0:0:0:
194,152,164994,1,0,1:0:0:0:
291,56,165129,2,0,P|284:34|269:12,1,47.5,2|0,0:0|0:0,0:0:0:0:
371,67,165264,2,0,P|383:44|387:18,1,47.5,2|0,0:0|0:0,0:0:0:0:
369,151,165399,6,0,P|346:190|343:239,1,95,0|0,1:0|0:0,0:0:0:0:
512,357,165669,2,0,P|497:259|462:216,1,142.5,0|0,1:0|0:0,0:0:0:0:
445,213,165940,1,2,0:0:0:0:
311,331,166075,2,0,P|261:351|219:351,1,95,0|2,1:0|0:0,0:0:0:0:
194,340,166277,1,0,0:0:0:0:
169,324,166345,1,2,0:0:0:0:
150,301,166413,1,0,0:0:0:0:
140,274,166480,5,0,1:0:0:0:
190,141,166615,1,2,0:0:0:0:
340,123,166750,1,0,1:0:0:0:
340,123,166818,1,0,1:0:0:0:
340,123,166886,2,0,B|386:139|386:139|482:122,1,142.5,0|0,1:0|0:0,0:0:0:0:
501,105,167156,1,2,0:0:0:0:
381,232,167291,2,0,B|368:278|368:278|373:324,1,95,0|0,0:0|1:0,0:0:0:0:
233,222,167561,6,0,P|195:193|145:185,1,95,0|2,1:0|0:0,0:0:0:0:
121,191,167764,1,0,0:0:0:0:
96,205,167832,1,2,0:0:0:0:
44,346,167967,2,0,P|21:364|-2:374,1,47.5,2|0,0:0|0:0,0:0:0:0:
131,326,168102,2,0,P|129:305|120:279,1,47.5,2|0,0:0|0:0,0:0:0:0:
205,373,168237,2,0,B|251:379|251:379|301:367,1,95,2|2,0:0|0:0,0:0:0:0:
358,215,168507,1,0,0:0:0:0:
492,278,168642,6,0,P|514:328|514:374,1,95,0|0,1:0|0:0,0:0:0:0:
358,215,168913,2,0,P|371:138|386:119,1,95,2|2,0:0|0:0,0:0:0:0:
400,106,169115,1,0,0:0:0:0:
424,91,169183,1,2,0:0:0:0:
277,60,169318,2,0,P|240:81|181:89,1,95,0|2,1:0|0:0,0:0:0:0:
160,85,169521,1,0,0:0:0:0:
134,72,169588,1,2,0:0:0:0:
113,51,169656,1,0,0:0:0:0:
97,27,169723,5,0,1:0:0:0:
55,168,169859,1,0,1:0:0:0:
182,236,169994,2,0,B|249:215|249:215|333:223,1,142.5,0|0,1:0|0:0,0:0:0:0:
346,234,170264,1,2,0:0:0:0:
418,341,170399,2,0,P|375:363|327:365,1,95,0|2,1:0|0:0,0:0:0:0:
301,356,170602,1,0,0:0:0:0:
276,341,170669,1,2,0:0:0:0:
263,182,170804,6,0,P|286:138|286:91,1,95,0|2,1:0|0:0,0:0:0:0:
144,30,171075,1,0,1:0:0:0:
116,35,171142,1,0,1:0:0:0:
89,47,171210,1,0,1:0:0:0:
40,177,171345,1,2,0:0:0:0:
124,286,171480,2,0,B|132:333|132:333|119:380,2,95,0|2|2,1:0|0:0|0:0,0:0:0:0:
247,199,171886,6,0,P|297:192|337:166,1,95,0|2,1:0|0:0,0:0:0:0:
377,44,172156,1,2,0:0:0:0:
495,138,172291,2,0,P|503:164|517:185,1,47.5,0|0,1:0|0:0,0:0:0:0:
471,250,172426,1,0,1:0:0:0:
256,192,172561,1,2,0:0:0:0:
256,192,172696,1,2,0:0:0:0:
256,192,172832,1,0,1:0:0:0:
256,192,172899,1,0,1:0:0:0:
256,192,172967,1,0,1:0:0:0:
256,192,173102,1,2,0:0:0:0:
256,192,173237,1,2,0:0:0:0:
256,192,173372,1,0,1:0:0:0:
256,192,173507,1,2,0:0:0:0:
256,192,173642,1,0,1:0:0:0:
256,192,173777,1,2,0:0:0:0:
256,192,173913,1,2,0:0:0:0:
256,192,174048,5,0,1:0:0:0:
256,192,174183,1,0,1:0:0:0:
256,192,174318,1,0,1:0:0:0:
256,192,174453,1,2,0:0:0:0:
256,192,174588,1,2,0:0:0:0:
256,192,174723,1,0,1:0:0:0:
256,192,174858,1,2,0:0:0:0:
256,192,174993,1,0,0:0:0:0:
256,192,175129,5,0,1:0:0:0:
256,192,175264,1,2,0:0:0:0:
256,192,175399,1,0,1:0:0:0:
256,192,175467,1,0,1:0:0:0:
256,192,175534,1,0,1:0:0:0:
256,192,175669,1,2,0:0:0:0:
256,192,175804,1,0,0:0:0:0:
256,192,175939,1,2,0:0:0:0:
256,192,176074,1,0,1:0:0:0:
256,192,176210,5,0,1:0:0:0:
256,192,176345,1,0,1:0:0:0:
256,192,176480,1,2,0:0:0:0:
256,192,176615,1,2,0:0:0:0:
256,192,176750,1,0,1:0:0:0:
256,192,176885,1,2,0:0:0:0:
256,192,177020,1,2,0:0:0:0:
256,192,177155,1,2,0:0:0:0:
256,192,177291,5,0,1:0:0:0:
256,192,177426,1,2,0:0:0:0:
256,192,177561,1,2,0:0:0:0:
256,192,177696,1,0,1:0:0:0:
256,192,177831,1,2,0:0:0:0:
256,192,177966,1,0,1:0:0:0:
256,192,178101,1,2,0:0:0:0:
256,192,178236,1,2,0:0:0:0:
256,192,178372,5,0,1:0:0:0:
256,192,178507,1,0,1:0:0:0:
256,192,178642,1,0,1:0:0:0:
256,192,178777,1,2,0:0:0:0:
256,192,178912,1,2,0:0:0:0:
256,192,179047,1,0,1:0:0:0:
256,192,179182,1,2,0:0:0:0:
256,192,179317,1,0,0:0:0:0:
256,192,179453,5,0,1:0:0:0:
256,192,179588,1,2,0:0:0:0:
256,192,179723,1,0,1:0:0:0:
256,192,179791,1,0,1:0:0:0:
256,192,179858,1,0,1:0:0:0:
256,192,179993,1,2,0:0:0:0:
256,192,180128,1,0,1:0:0:0:
256,192,180263,1,2,0:0:0:0:
256,192,180398,1,0,1:0:0:0:
256,192,180534,5,0,1:0:0:0:
256,192,180669,1,2,0:0:0:0:
256,192,180804,1,2,0:0:0:0:
256,192,180939,1,2,0:0:0:0:
256,192,181074,1,0,1:0:0:0:
256,192,181209,1,2,0:0:0:0:
256,192,181344,1,2,0:0:0:0:
256,192,181479,1,0,1:0:0:0:
256,192,181548,1,0,1:0:0:0:
256,192,181615,5,0,1:0:0:0:
256,192,181750,1,2,0:0:0:0:
256,192,181885,1,10,0:2:0:0:
256,192,182020,1,2,0:0:0:0:
256,192,182155,1,2,0:0:0:0:
256,192,182290,1,2,0:0:0:0:
256,192,182425,1,10,0:0:0:0:
256,192,182560,1,2,0:0:0:0:
256,192,182696,5,0,1:0:0:0:
256,192,182831,1,2,0:0:0:0:
256,192,182966,1,2,0:0:0:0:
256,192,183101,1,2,0:0:0:0:
256,192,183236,1,2,0:0:0:0:
256,192,183371,1,2,0:0:0:0:
256,192,183506,1,2,0:0:0:0:
256,192,183641,1,2,0:0:0:0:
256,192,183777,5,0,1:0:0:0:
256,192,183912,1,2,0:0:0:0:
256,192,184047,1,2,0:0:0:0:
256,192,184182,1,2,0:0:0:0:
256,192,184317,1,2,0:0:0:0:
256,192,184452,1,2,0:0:0:0:
256,192,184587,1,2,0:0:0:0:
256,192,184722,1,2,0:0:0:0:
256,192,184858,5,0,1:0:0:0:
256,192,184993,1,2,0:0:0:0:
256,192,185128,1,2,0:0:0:0:
256,192,185263,1,2,0:0:0:0:
256,192,185398,1,2,0:0:0:0:
256,192,185533,1,2,0:0:0:0:
256,192,185668,1,2,0:0:0:0:
256,192,185803,1,2,0:0:0:0:
256,192,185939,5,0,1:0:0:0:
256,192,186074,1,2,0:0:0:0:
256,192,186209,1,2,0:0:0:0:
256,192,186344,1,2,0:0:0:0:
256,192,186479,1,2,0:0:0:0:
256,192,186614,1,2,0:0:0:0:
256,192,186749,1,2,0:0:0:0:
256,192,186884,1,2,0:0:0:0:
256,192,187021,5,0,1:0:0:0:
256,192,187156,1,2,0:0:0:0:
256,192,187291,1,2,0:0:0:0:
256,192,187426,1,2,0:0:0:0:
256,192,187561,1,2,0:0:0:0:
256,192,187696,1,2,0:0:0:0:
256,192,187831,1,2,0:0:0:0:
256,192,187966,1,2,0:0:0:0:
256,192,188102,5,0,1:0:0:0:
256,192,188237,1,2,0:0:0:0:
256,192,188372,1,2,0:0:0:0:
256,192,188507,1,2,0:0:0:0:
256,192,188642,1,2,0:0:0:0:
256,192,188777,1,2,0:0:0:0:
256,192,188912,1,2,0:0:0:0:
256,192,189047,1,2,0:0:0:0:
256,192,189183,5,0,1:0:0:0:
256,192,189318,1,2,0:0:0:0:
256,192,189453,1,2,0:0:0:0:
256,192,189588,1,2,0:0:0:0:
256,192,189723,1,2,0:0:0:0:
256,192,189858,1,2,0:0:0:0:
256,192,189993,1,2,0:0:0:0:
256,192,190128,1,2,0:0:0:0:
256,192,190264,5,0,1:0:0:0:
256,192,190399,1,2,0:0:0:0:
256,192,190534,1,2,0:0:0:0:
256,192,190669,1,2,0:0:0:0:
256,192,190804,1,2,0:0:0:0:
256,192,190939,1,2,0:0:0:0:
256,192,191074,1,2,0:0:0:0:
256,192,191209,1,2,0:0:0:0:
256,192,191345,5,0,1:0:0:0:
256,192,191480,1,2,0:0:0:0:
256,192,191615,1,2,0:0:0:0:
256,192,191750,1,2,0:0:0:0:
256,192,191885,1,2,0:0:0:0:
256,192,192020,1,2,0:0:0:0:
256,192,192155,1,2,0:0:0:0:
256,192,192290,1,2,0:0:0:0:
256,192,192426,5,0,1:0:0:0:
256,192,192561,1,2,0:0:0:0:
256,192,192696,1,2,0:0:0:0:
256,192,192831,1,2,0:0:0:0:
256,192,192966,1,2,0:0:0:0:
256,192,193101,1,2,0:0:0:0:
256,192,193236,1,2,0:0:0:0:
256,192,193371,1,2,0:0:0:0:
256,192,193507,5,0,1:0:0:0:
256,192,193642,1,2,0:0:0:0:
256,192,193777,1,2,0:0:0:0:
256,192,193912,1,2,0:0:0:0:
256,192,194047,1,2,0:0:0:0:
256,192,194182,1,2,0:0:0:0:
256,192,194317,1,2,0:0:0:0:
256,192,194452,1,2,0:0:0:0:
256,192,194588,5,0,1:0:0:0:
256,192,194723,1,2,0:0:0:0:
256,192,194858,1,2,0:0:0:0:
256,192,194993,1,2,0:0:0:0:
256,192,195128,1,2,0:0:0:0:
256,192,195263,1,2,0:0:0:0:
256,192,195398,1,2,0:0:0:0:
256,192,195533,1,2,0:0:0:0:
256,192,195669,5,0,1:0:0:0:
256,192,195804,1,2,0:0:0:0:
256,192,195939,1,2,0:0:0:0:
256,192,196074,1,2,0:0:0:0:
256,192,196209,1,2,0:0:0:0:
256,192,196344,1,2,0:0:0:0:
256,192,196479,1,2,0:0:0:0:
256,192,196614,1,2,0:0:0:0:
256,192,196750,5,0,1:0:0:0:
256,192,196885,1,2,0:0:0:0:
256,192,197020,1,2,0:0:0:0:
256,192,197155,1,2,0:0:0:0:
256,192,197290,1,2,0:0:0:0:
256,192,197425,1,2,0:0:0:0:
256,192,197560,1,2,0:0:0:0:
256,192,197695,1,2,0:0:0:0:
256,192,197831,5,0,1:0:0:0:
256,192,197966,1,2,0:0:0:0:
256,192,198101,1,2,0:0:0:0:
256,192,198236,1,2,0:0:0:0:
256,192,198371,1,2,0:0:0:0:
256,192,198506,1,2,0:0:0:0:
256,192,198641,1,2,0:0:0:0:
256,192,198776,1,2,0:0:0:0:
256,192,198912,5,0,1:0:0:0:
256,192,199047,1,2,0:0:0:0:
256,192,199182,1,2,0:0:0:0:
256,192,199317,1,2,0:0:0:0:
256,192,199452,1,2,0:0:0:0:
256,192,199587,1,2,0:0:0:0:
256,192,199722,1,2,0:0:0:0:
256,192,199857,1,2,0:0:0:0:
256,192,199993,5,0,1:0:0:0:
256,192,200128,1,2,0:0:0:0:
256,192,200263,1,2,0:0:0:0:
256,192,200398,1,2,0:0:0:0:
256,192,200533,1,2,0:0:0:0:
256,192,200668,1,2,0:0:0:0:
256,192,200803,1,2,0:0:0:0:
256,192,200938,1,2,0:0:0:0:
256,192,201074,5,0,1:0:0:0:
256,192,201209,1,2,0:0:0:0:
256,192,201344,1,2,0:0:0:0:
256,192,201479,1,2,0:0:0:0:
256,192,201614,1,2,0:0:0:0:
256,192,201749,1,2,0:0:0:0:
256,192,201884,1,2,0:0:0:0:
256,192,202019,1,2,0:0:0:0:
256,192,202155,5,0,1:0:0:0:
256,192,202290,1,2,0:0:0:0:
256,192,202425,1,2,0:0:0:0:
256,192,202560,1,2,0:0:0:0:
256,192,202695,1,2,0:0:0:0:
256,192,202830,1,2,0:0:0:0:
256,192,202965,1,2,0:0:0:0:
256,192,203100,1,2,0:0:0:0:
256,192,203236,5,0,1:0:0:0:
256,192,203371,1,2,0:0:0:0:
256,192,203506,1,2,0:0:0:0:
256,192,203641,1,2,0:0:0:0:
256,192,203776,1,2,0:0:0:0:
256,192,203911,1,2,0:0:0:0:
256,192,204046,1,2,0:0:0:0:
256,192,204181,1,2,0:0:0:0:
256,192,204318,5,0,1:0:0:0:
256,192,204453,1,2,0:0:0:0:
256,192,204588,1,2,0:0:0:0:
256,192,204723,1,2,0:0:0:0:
256,192,204858,1,2,0:0:0:0:
256,192,204993,1,2,0:0:0:0:
256,192,205128,1,2,0:0:0:0:
256,192,205263,1,2,0:0:0:0:
256,192,205399,5,0,1:0:0:0:
256,192,205534,1,2,0:0:0:0:
256,192,205669,1,2,0:0:0:0:
256,192,205804,1,2,0:0:0:0:
256,192,205939,1,2,0:0:0:0:
256,192,206074,1,2,0:0:0:0:
256,192,206209,1,2,0:0:0:0:
256,192,206344,1,2,0:0:0:0:
256,192,206480,5,0,1:0:0:0:
256,192,206615,1,2,0:0:0:0:
256,192,206750,1,2,0:0:0:0:
256,192,206885,1,2,0:0:0:0:
256,192,207020,1,2,0:0:0:0:
256,192,207155,1,2,0:0:0:0:
256,192,207290,1,2,0:0:0:0:
256,192,207425,1,2,0:0:0:0:
256,192,207561,5,0,1:0:0:0:
256,192,207696,1,2,0:0:0:0:
256,192,207831,1,2,0:0:0:0:
256,192,207966,1,2,0:0:0:0:
256,192,208101,1,2,0:0:0:0:
256,192,208236,1,2,0:0:0:0:
256,192,208371,1,2,0:0:0:0:
256,192,208506,1,2,0:0:0:0:
256,192,208642,5,0,1:0:0:0:
256,192,208777,1,2,0:0:0:0:
256,192,208912,1,2,0:0:0:0:
256,192,209047,1,2,0:0:0:0:
256,192,209182,1,2,0:0:0:0:
256,192,209317,1,2,0:0:0:0:
256,192,209452,1,2,0:0:0:0:
256,192,209587,1,2,0:0:0:0:
256,192,209723,5,0,1:0:0:0:
256,192,209858,1,2,0:0:0:0:
256,192,209993,1,2,0:0:0:0:
256,192,210128,1,2,0:0:0:0:
256,192,210263,1,2,0:0:0:0:
256,192,210398,1,2,0:0:0:0:
256,192,210533,1,2,0:0:0:0:
256,192,210668,1,2,0:0:0:0:
256,192,210804,5,0,1:0:0:0:
256,192,210939,1,2,0:0:0:0:
256,192,211074,1,2,0:0:0:0:
256,192,211209,1,2,0:0:0:0:
256,192,211344,1,2,0:0:0:0:
256,192,211479,1,2,0:0:0:0:
256,192,211614,1,2,0:0:0:0:
256,192,211749,1,2,0:0:0:0:
256,192,211885,5,0,1:0:0:0:
256,192,212020,1,2,0:0:0:0:
256,192,212155,1,2,0:0:0:0:
256,192,212290,1,2,0:0:0:0:
256,192,212425,1,2,0:0:0:0:
256,192,212560,1,2,0:0:0:0:
256,192,212695,1,2,0:0:0:0:
256,192,212830,1,2,0:0:0:0:
256,192,212966,5,0,1:0:0:0:
256,192,213101,1,2,0:0:0:0:
256,192,213236,1,2,0:0:0:0:
256,192,213371,1,2,0:0:0:0:
256,192,213506,1,2,0:0:0:0:
256,192,213641,1,2,0:0:0:0:
256,192,213776,1,2,0:0:0:0:
256,192,213911,1,2,0:0:0:0:
256,192,214047,5,0,1:0:0:0:
256,192,214182,1,2,0:0:0:0:
256,192,214317,1,2,0:0:0:0:
256,192,214452,1,2,0:0:0:0:
256,192,214587,1,2,0:0:0:0:
256,192,214722,1,2,0:0:0:0:
256,192,214857,1,2,0:0:0:0:
256,192,214992,1,2,0:0:0:0:
256,192,215128,5,0,1:0:0:0:
256,192,215263,1,2,0:0:0:0:
256,192,215398,1,2,0:0:0:0:
256,192,215533,1,2,0:0:0:0:
256,192,215668,1,2,0:0:0:0:
256,192,215803,1,2,0:0:0:0:
256,192,215938,1,2,0:0:0:0:
256,192,216073,1,2,0:0:0:0:
256,192,216209,5,0,1:0:0:0:
256,192,216344,1,2,0:0:0:0:
256,192,216479,1,2,0:0:0:0:
256,192,216614,1,2,0:0:0:0:
256,192,216749,1,2,0:0:0:0:
256,192,216884,1,2,0:0:0:0:
256,192,217019,1,2,0:0:0:0:
256,192,217154,1,2,0:0:0:0:
256,192,217290,5,0,1:0:0:0:
256,192,217425,1,2,0:0:0:0:
256,192,217560,1,2,0:0:0:0:
256,192,217695,1,2,0:0:0:0:
256,192,217830,1,2,0:0:0:0:
256,192,217965,1,2,0:0:0:0:
256,192,218100,1,2,0:0:0:0:
256,192,218235,1,2,0:0:0:0:
256,192,218371,5,0,1:0:0:0:
256,192,218506,1,2,0:0:0:0:
256,192,218641,1,2,0:0:0:0:
256,192,218776,1,2,0:0:0:0:
256,192,218911,1,2,0:0:0:0:
256,192,219046,1,2,0:0:0:0:
256,192,219181,1,2,0:0:0:0:
256,192,219316,1,2,0:0:0:0:
256,192,219452,5,0,1:0:0:0:
256,192,219587,1,2,0:0:0:0:
256,192,219722,1,2,0:0:0:0:
256,192,219857,1,2,0:0:0:0:
256,192,219992,1,2,0:0:0:0:
256,192,220127,1,2,0:0:0:0:
256,192,220262,1,2,0:0:0:0:
256,192,220397,1,2,0:0:0:0:
256,192,220533,5,0,1:0:0:0:
256,192,220668,1,2,0:0:0:0:
256,192,220803,1,2,0:0:0:0:
256,192,220938,1,2,0:0:0:0:
256,192,221073,1,2,0:0:0:0:
256,192,221208,1,2,0:0:0:0:
256,192,221343,1,2,0:0:0:0:
256,192,221478,1,2,0:0:0:0:
256,192,221615,5,0,1:0:0:0:
256,192,221750,1,2,0:0:0:0:
256,192,221885,1,2,0:0:0:0:
256,192,222020,1,2,0:0:0:0:
256,192,222155,1,2,0:0:0:0:
256,192,222290,1,2,0:0:0:0:
256,192,222425,1,2,0:0:0:0:
256,192,222560,1,2,0:0:0:0:
256,192,222696,5,0,1:0:0:0:
256,192,222831,1,2,0:0:0:0:
256,192,222966,1,2,0:0:0:0:
256,192,223101,1,2,0:0:0:0:
256,192,223236,1,2,0:0:0:0:
256,192,223371,1,2,0:0:0:0:
256,192,223506,1,2,0:0:0:0:
256,192,223641,1,2,0:0:0:0:
256,192,223777,5,0,1:0:0:0:
256,192,223912,1,2,0:0:0:0:
256,192,224047,1,2,0:0:0:0:
256,192,224182,1,2,0:0:0:0:
256,192,224317,1,2,0:0:0:0:
256,192,224452,1,2,0:0:0:0:
256,192,224587,1,2,0:0:0:0:
256,192,224722,1,2,0:0:0:0:
256,192,224858,5,0,1:0:0:0:
256,192,224993,1,2,0:0:0:0:
256,192,225128,1,2,0:0:0:0:
256,192,225263,1,2,0:0:0:0:
256,192,225398,1,2,0:0:0:0:
256,192,225533,1,2,0:0:0:0:
256,192,225668,1,2,0:0:0:0:
256,192,225803,1,2,0:0:0:0:
256,192,225940,5,0,1:0:0:0:
256,192,226075,1,2,0:0:0:0:
256,192,226210,1,2,0:0:0:0:
256,192,226345,1,2,0:0:0:0:
256,192,226480,1,2,0:0:0:0:
256,192,226615,1,2,0:0:0:0:
256,192,226750,1,2,0:0:0:0:
256,192,226885,1,2,0:0:0:0:
256,192,227021,5,0,1:0:0:0:
256,192,227156,1,2,0:0:0:0:
256,192,227291,1,2,0:0:0:0:
256,192,227426,1,2,0:0:0:0:
256,192,227561,1,2,0:0:0:0:
256,192,227696,1,2,0:0:0:0:
256,192,227831,1,2,0:0:0:0:
256,192,227966,1,2,0:0:0:0:
256,192,228102,5,0,1:0:0:0:
256,192,228237,1,2,0:0:0:0:
256,192,228372,1,2,0:0:0:0:
256,192,228507,1,2,0:0:0:0:
256,192,228642,1,2,0:0:0:0:
256,192,228777,1,2,0:0:0:0:
256,192,228912,1,2,0:0:0:0:
256,192,229047,1,2,0:0:0:0:
256,192,229183,5,0,1:0:0:0:
256,192,229318,1,2,0:0:0:0:
256,192,229453,1,2,0:0:0:0:
256,192,229588,1,2,0:0:0:0:
256,192,229723,1,2,0:0:0:0:
256,192,229858,1,2,0:0:0:0:
256,192,229993,1,2,0:0:0:0:
256,192,230128,1,2,0:0:0:0:
256,192,230264,5,0,1:0:0:0:
256,192,230399,1,2,0:0:0:0:
256,192,230534,1,2,0:0:0:0:
256,192,230669,1,2,0:0:0:0:
256,192,230804,1,2,0:0:0:0:
256,192,230939,1,2,0:0:0:0:
256,192,231074,1,2,0:0:0:0:
256,192,231209,1,2,0:0:0:0:
256,192,231345,5,0,1:0:0:0:
256,192,231480,1,2,0:0:0:0:
256,192,231615,1,2,0:0:0:0:
256,192,231750,1,2,0:0:0:0:
256,192,231885,1,2,0:0:0:0:
256,192,232020,1,2,0:0:0:0:
256,192,232155,1,2,0:0:0:0:
256,192,232290,1,2,0:0:0:0:
256,192,232426,5,0,1:0:0:0:
256,192,232561,1,2,0:0:0:0:
256,192,232696,1,2,0:0:0:0:
256,192,232831,1,2,0:0:0:0:
256,192,232966,1,2,0:0:0:0:
256,192,233101,1,2,0:0:0:0:
256,192,233236,1,2,0:0:0:0:
256,192,233371,1,2,0:0:0:0:
256,192,233507,5,0,1:0:0:0:
256,192,233642,1,2,0:0:0:0:
256,192,233777,1,2,0:0:0:0:
256,192,233912,1,2,0:0:0:0:
256,192,234047,1,2,0:0:0:0:
256,192,234182,1,2,0:0:0:0:
256,192,234317,1,2,0:0:0:0:
256,192,234452,1,2,0:0:0:0:
256,192,234588,5,0,1:0:0:0:
256,192,234723,1,2,0:0:0:0:
256,192,234858,1,2,0:0:0:0:
256,192,234993,1,2,0:0:0:0:
256,192,235128,1,2,0:0:0:0:
256,192,235263,1,2,0:0:0:0:
256,192,235398,1,2,0:0:0:0:
256,192,235533,1,2,0:0:0:0:
256,192,235669,5,0,1:0:0:0:
256,192,235804,1,2,0:0:0:0:
256,192,235939,1,2,0:0:0:0:
256,192,236074,1,2,0:0:0:0:
256,192,236209,1,2,0:0:0:0:
256,192,236344,1,2,0:0:0:0:
256,192,236479,1,2,0:0:0:0:
256,192,236614,1,2,0:0:0:0:
256,192,236750,5,0,1:0:0:0:
256,192,236885,1,2,0:0:0:0:
256,192,237020,1,2,0:0:0:0:
256,192,237155,1,2,0:0:0:0:
256,192,237290,1,2,0:0:0:0:
256,192,237425,1,2,0:0:0:0:
256,192,237560,1,2,0:0:0:0:
256,192,237695,1,2,0:0:0:0:
256,192,237831,5,0,1:0:0:0:
256,192,237966,1,2,0:0:0:0:
256,192,238101,1,2,0:0:0:0:
256,192,238236,1,2,0:0:0:0:
256,192,238371,1,2,0:0:0:0:
256,192,238506,1,2,0:0:0:0:
256,192,238641,1,2,0:0:0:0:
256,192,238776,1,2,0:0:0:0:
256,192,238913,5,0,1:0:0:0:
256,192,239048,1,2,0:0:0:0:
256,192,239183,1,2,0:0:0:0:
256,192,239318,1,2,0:0:0:0:
256,192,239453,1,2,0:0:0:0:
256,192,239588,1,2,0:0:0:0:
256,192,239723,1,2,0:0:0:0:
256,192,239858,1,2,0:0:0:0:
256,192,239994,5,0,1:0:0:0:
256,192,240129,1,2,0:0:0:0:
256,192,240264,1,2,0:0:0:0:
256,192,240399,1,2,0:0:0:0:
256,192,240534,1,2,0:0:0:0:
256,192,240669,1,2,0:0:0:0:
256,192,240804,1,2,0:0:0:0:
256,192,240939,1,2,0:0:0:0:
256,192,241075,5,0,1:0:0:0:
256,192,241210,1,2,0:0:0:0:
256,192,241345,1,2,0:0:0:0:
256,192,241480,1,2,0:0:0:0:
256,192,241615,1,2,0:0:0:0:
256,192,241750,1,2,0:0:0:0:
256,192,241885,1,2,0:0:0:0:
256,192,242020,1,2,0:0:0:0:
256,192,242156,5,0,1:0:0:0:
256,192,242291,1,2,0:0:0:0:
256,192,242426,1,2,0:0:0:0:
256,192,242561,1,2,0:0:0:0:
256,192,242696,1,2,0:0:0:0:
256,192,242831,1,2,0:0:0:0:
256,192,242966,1,2,0:0:0:0:
256,192,243101,1,2,0:0:0:0:
256,192,243237,5,0,1:0:0:0:
256,192,243372,1,2,0:0:0:0:
256,192,243507,1,2,0:0:0:0:
256,192,243642,1,2,0:0:0:0:
256,192,243777,1,2,0:0:0:0:
256,192,243912,1,2,0:0:0:0:
256,192,244047,1,2,0:0:0:0:
256,192,244182,1,2,0:0:0:0:
256,192,244318,5,0,1:0:0:0:
256,192,244453,1,2,0:0:0:0:
256,192,244588,1,2,0:0:0:0:
256,192,244723,1,2,0:0:0:0:
256,192,244858,1,2,0:0:0:0:
256,192,244993,1,2,0:0:0:0:
256,192,245128,1,2,0:0:0:0:
256,192,245263,1,2,0:0:0:0:
256,192,245399,5,0,1:0:0:0:
256,192,245534,1,2,0:0:0:0:
256,192,245669,1,2,0:0:0:0:
256,192,245804,1,2,0:0:0:0:
256,192,245939,1,2,0:0:0:0:
256,192,246074,1,2,0:0:0:0:
256,192,246209,1,2,0:0:0:0:
256,192,246344,1,2,0:0:0:0:
256,192,246480,5,0,1:0:0:0:
256,192,246615,1,2,0:0:0:0:
256,192,246750,1,2,0:0:0:0:
256,192,246885,1,2,0:0:0:0:
256,192,247020,1,2,0:0:0:0:
256,192,247155,1,2,0:0:0:0:
256,192,247290,1,2,0:0:0:0:
256,192,247425,1,2,0:0:0:0:
256,192,247561,5,0,1:0:0:0:
256,192,247696,1,2,0:0:0:0:
256,192,247831,1,2,0:0:0:0:
256,192,247966,1,2,0:0:0:0:
256,192,248101,1,2,0:0:0:0:
256,192,248236,1,2,0:0:0:0:
256,192,248371,1,2,0:0:0:0:
256,192,248506,1,2,0:0:0:0:
256,192,248642,5,0,1:0:0:0:
256,192,248777,1,2,0:0:0:0:
256,192,248912,1,2,0:0:0:0:
256,192,249047,1,2,0:0:0:0:
256,192,249182,1,2,0:0:0:0:
256,192,249317,1,2,0:0:0:0:
256,192,249452,1,2,0:0:0:0:
256,192,249587,1,2,0:0:0:0:
256,192,249723,5,0,1:0:0:0:
256,192,249858,1,2,0:0:0:0:
256,192,249993,1,2,0:0:0:0:
256,192,250128,1,2,0:0:0:0:
256,192,250263,1,2,0:0:0:0:
256,192,250398,1,2,0:0:0:0:
256,192,250533,1,2,0:0:0:0:
256,192,250668,1,2,0:0:0:0:
256,192,250804,5,0,1:0:0:0:
256,192,250939,1,2,0:0:0:0:
256,192,251074,1,2,0:0:0:0:
256,192,251209,1,2,0:0:0:0:
256,192,251344,1,2,0:0:0:0:
256,192,251479,1,2,0:0:0:0:
256,192,251614,1,2,0:0:0:0:
256,192,251749,1,2,0:0:0:0:
256,192,251885,5,0,1:0:0:0:
256,192,252020,1,2,0:0:0:0:
256,192,252155,1,2,0:0:0:0:
256,192,252290,1,2,0:0:0:0:
256,192,252425,1,2,0:0:0:0:
256,192,252560,1,2,0:0:0:0:
256,192,252695,1,2,0:0:0:0:
256,192,252830,1,2,0:0:0:0:
256,192,252966,5,0,1:0:0:0:
256,192,253101,1,2,0:0:0:0:
256,192,253236,1,2,0:0:0:0:
256,192,253371,1,2,0:0:0:0:
256,192,253506,1,2,0:0:0:0:
256,192,253641,1,2,0:0:0:0:
256,192,253776,1,2,0:0:0:0:
256,192,253911,1,2,0:0:0:0:
256,192,254047,5,0,1:0:0:0:
256,192,254182,1,2,0:0:0:0:
256,192,254317,1,2,0:0:0:0:
256,192,254452,1,2,0:0:0:0:
256,192,254587,1,2,0:0:0:0:
256,192,254722,1,2,0:0:0:0:
256,192,254857,1,2,0:0:0:0:
256,192,254992,1,2,0:0:0:0:
256,192,255128,5,0,1:0:0:0:
256,192,255263,1,2,0:0:0:0:
256,192,255398,1,2,0:0:0:0:
256,192,255533,1,2,0:0:0:0:
256,192,255668,1,2,0:0:0:0:
256,192,255803,1,2,0:0:0:0:
256,192,255938,1,2,0:0:0:0:
256,192,256073,1,2,0:0:0:0:
256,192,256210,5,0,1:0:0:0:
256,192,256345,1,2,0:0:0:0:
256,192,256480,1,2,0:0:0:0:
256,192,256615,1,2,0:0:0:0:
256,192,256750,1,2,0:0:0:0:
256,192,256885,1,2,0:0:0:0:
256,192,257020,1,2,0:0:0:0:
256,192,257155,1,2,0:0:0:0:
256,192,257291,5,0,1:0:0:0:
256,192,257426,1,2,0:0:0:0:
256,192,257561,1,2,0:0:0:0:
256,192,257696,1,2,0:0:0:0:
256,192,257831,1,2,0:0:0:0:
256,192,257966,1,2,0:0:0:0:
256,192,258101,1,2,0:0:0:0:
256,192,258236,1,2,0:0:0:0:
256,192,258372,5,0,1:0:0:0:
256,192,258507,1,2,0:0:0:0:
256,192,258642,1,2,0:0:0:0:
256,192,258777,1,2,0:0:0:0:
256,192,258912,1,2,0:0:0:0:
256,192,259047,1,2,0:0:0:0:
256,192,259182,1,2,0:0:0:0:
256,192,259317,1,2,0:0:0:0:
256,192,259453,5,0,1:0:0:0:
256,192,259588,1,2,0:0:0:0:
256,192,259723,1,2,0:0:0:0:
256,192,259858,1,2,0:0:0:0:
256,192,259993,1,2,0:0:0:0:
256,192,260128,1,2,0:0:0:0:
256,192,260263,1,2,0:0:0:0:
256,192,260398,1,2,0:0:0:0:
256,192,260534,5,0,1:0:0:0:
256,192,260669,1,2,0:0:0:0:
256,192,260804,1,2,0:0:0:0:
256,192,260939,1,2,0:0:0:0:
256,192,261074,1,2,0:0:0:0:
256,192,261209,1,2,0:0:0:0:
256,192,261344,1,2,0:0:0:0:
256,192,261479,1,2,0:0:0:0:
256,192,261615,5,0,1:0:0:0:
256,192,261750,1,2,0:0:0:0:
256,192,261885,1,2,0:0:0:0:
256,192,262020,1,2,0:0:0:0:
256,192,262155,1,2,0:0:0:0:
256,192,262290,1,2,0:0:0:0:
256,192,262425,1,2,0:0:0:0:
256,192,262560,1,2,0:0:0:0:
256,192,262696,5,0,1:0:0:0:
256,192,262831,1,2,0:0:0:0:
256,192,262966,1,2,0:0:0:0:
256,192,263101,1,2,0:0:0:0:
256,192,263236,1,2,0:0:0:0:
256,192,263371,1,2,0:0:0:0:
256,192,263506,1,2,0:0:0:0:
256,192,263641,1,2,0:0:0:0:
256,192,263777,5,0,1:0:0:0:
256,192,263912,1,2,0:0:0:0:
256,192,264047,1,2,0:0:0:0:
256,192,264182,1,2,0:0:0:0:
256,192,264317,1,2,0:0:0:0:
256,192,264452,1,2,0:0:0:0:
256,192,264587,1,2,0:0:0:0:
256,192,264722,1,2,0:0:0:0:
256,192,264858,5,0,1:0:0:0:
256,192,264993,1,2,0:0:0:0:
256,192,265128,1,2,0:0:0:0:
256,192,265263,1,2,0:0:0:0:
256,192,265398,1,2,0:0:0:0:
256,192,265533,1,2,0:0:0:0:
256,192,265668,1,2,0:0:0:0:
256,192,265803,1,2,0:0:0:0:
256,192,265939,5,0,1:0:0:0:
256,192,266074,1,2,0:0:0:0:
256,192,266209,1,2,0:0:0:0:
256,192,266344,1,2,0:0:0:0:
256,192,266479,1,2,0:0:0:0:
256,192,266614,1,2,0:0:0:0:
256,192,266749,1,2,0:0:0:0:
256,192,266884,1,2,0:0:0:0:
256,192,267020,5,0,1:0:0:0:
256,192,267155,1,2,0:0:0:0:
256,192,267290,1,2,0:0:0:0:
256,192,267425,1,2,0:0:0:0:
256,192,267560,1,2,0:0:0:0:
256,192,267695,1,2,0:0:0:0:
256,192,267830,1,2,0:0:0:0:
256,192,267965,1,2,0:0:0:0:
256,192,268101,5,4,1:2:0:0:
