osu file format v14

[General]
AudioFilename: goreshit - semantic compositions on death and its meaning - 03 looming shadow of a tree long gone.mp3
AudioLeadIn: 0
PreviewTime: 181620
Countdown: 0
SampleSet: Normal
StackLeniency: 0.7
Mode: 3
LetterboxInBreaks: 0
SpecialStyle: 0
WidescreenStoryboard: 0

[Editor]
DistanceSpacing: 0.8
BeatDivisor: 4
GridSize: 16
TimelineZoom: 1.9

[Metadata]
Title:looming shadow of a tree long gone
TitleUnicode:looming shadow of a tree long gone
Artist:goreshit
ArtistUnicode:goreshit
Creator:Blocko
Version:anguish
Source:
Tags:breakcore dnb semantic compositions of death and its meaning
BeatmapID:1418720
BeatmapSetID:670897

[Difficulty]
HPDrainRate:9.2
CircleSize:7
OverallDifficulty:9.5
ApproachRate:10
SliderMultiplier:1.4
SliderTickRate:1

[Events]
//Background and Video events
0,0,"looming.jpg",0,0
//Break Periods
//Storyboard Layer 0 (Background)
//Storyboard Layer 1 (Fail)
//Storyboard Layer 2 (Pass)
//Storyboard Layer 3 (Foreground)
//Storyboard Sound Samples

[TimingPoints]
77837,270.27027027027,4,1,0,10,1,0
181620,-100,4,1,0,10,0,1
198850,-100,4,1,0,10,0,0
198918,-100,4,1,0,10,0,1
216215,-100,4,1,0,10,0,0
233512,-100,4,1,0,10,0,1
250742,-100,4,1,0,10,0,0
250809,-100,4,1,0,10,0,1
268107,-100,4,1,0,10,0,0

[HitObjects]
36,192,77837,5,0,0:0:0:0:
256,192,77837,1,0,0:0:0:0:
475,192,77837,1,0,0:0:0:0:
329,192,77837,1,0,0:0:0:0:
109,192,77837,1,0,0:0:0:0:
182,192,77972,1,0,0:0:0:0:
36,192,77972,1,0,0:0:0:0:
402,192,78107,1,0,0:0:0:0:
475,192,78107,1,0,0:0:0:0:
256,192,78107,1,0,0:0:0:0:
109,192,78242,1,0,0:0:0:0:
182,192,78309,1,0,0:0:0:0:
329,192,78377,1,0,0:0:0:0:
182,192,78445,1,0,0:0:0:0:
475,192,78512,1,0,0:0:0:0:
402,192,78512,1,0,0:0:0:0:
256,192,78512,1,0,0:0:0:0:
109,192,78647,1,0,0:0:0:0:
182,192,78715,1,0,0:0:0:0:
329,192,78782,1,0,0:0:0:0:
182,192,78850,1,0,0:0:0:0:
402,192,78918,1,0,0:0:0:0:
109,192,78985,1,0,0:0:0:0:
36,192,78985,1,0,0:0:0:0:
329,192,79053,1,0,0:0:0:0:
109,192,79120,1,0,0:0:0:0:
256,192,79188,1,0,0:0:0:0:
402,192,79188,1,0,0:0:0:0:
475,192,79188,1,0,0:0:0:0:
109,192,79323,1,0,0:0:0:0:
182,192,79391,1,0,0:0:0:0:
329,192,79458,1,0,0:0:0:0:
182,192,79526,1,0,0:0:0:0:
475,192,79593,1,0,0:0:0:0:
256,192,79593,1,0,0:0:0:0:
402,192,79593,1,0,0:0:0:0:
329,192,79728,1,0,0:0:0:0:
182,192,79796,1,0,0:0:0:0:
475,192,79864,1,0,0:0:0:0:
256,192,79864,1,0,0:0:0:0:
402,192,79864,1,0,0:0:0:0:
109,192,79999,1,0,0:0:0:0:
182,192,80066,1,0,0:0:0:0:
329,192,80134,1,0,0:0:0:0:
182,192,80201,1,0,0:0:0:0:
402,192,80269,1,0,0:0:0:0:
329,192,80269,1,0,0:0:0:0:
109,192,80269,1,0,0:0:0:0:
36,192,80269,1,0,0:0:0:0:
402,192,80404,1,0,0:0:0:0:
256,192,80404,1,0,0:0:0:0:
475,192,80404,1,0,0:0:0:0:
109,192,80539,1,0,0:0:0:0:
182,192,80607,1,0,0:0:0:0:
329,192,80674,1,0,0:0:0:0:
182,192,80742,1,0,0:0:0:0:
256,192,80809,1,0,0:0:0:0:
402,192,80809,1,0,0:0:0:0:
475,192,80809,1,0,0:0:0:0:
109,192,80945,1,0,0:0:0:0:
182,192,81012,1,0,0:0:0:0:
329,192,81080,1,0,0:0:0:0:
182,192,81147,1,0,0:0:0:0:
402,192,81215,1,0,0:0:0:0:
329,192,81282,1,0,0:0:0:0:
36,192,81282,1,0,0:0:0:0:
109,192,81282,1,0,0:0:0:0:
402,192,81350,1,0,0:0:0:0:
475,192,81350,1,0,0:0:0:0:
256,192,81350,1,0,0:0:0:0:
109,192,81485,1,0,0:0:0:0:
182,192,81553,1,0,0:0:0:0:
402,192,81620,1,0,0:0:0:0:
329,192,81688,1,0,0:0:0:0:
256,192,81755,1,0,0:0:0:0:
475,192,81755,1,0,0:0:0:0:
109,192,81755,1,0,0:0:0:0:
36,192,81755,1,0,0:0:0:0:
402,192,81891,1,0,0:0:0:0:
329,192,82026,1,0,0:0:0:0:
475,192,82026,1,0,0:0:0:0:
182,192,82026,1,0,0:0:0:0:
109,192,82161,1,0,0:0:0:0:
256,192,82161,1,0,0:0:0:0:
402,192,82161,1,0,0:0:0:0:
36,192,82161,1,0,0:0:0:0:
36,192,82296,1,0,0:0:0:0:
182,192,82296,1,0,0:0:0:0:
475,192,82431,1,0,0:0:0:0:
402,192,82431,1,0,0:0:0:0:
256,192,82431,1,0,0:0:0:0:
109,192,82566,1,0,0:0:0:0:
182,192,82634,1,0,0:0:0:0:
329,192,82701,1,0,0:0:0:0:
109,192,82769,1,0,0:0:0:0:
256,192,82837,1,0,0:0:0:0:
402,192,82837,1,0,0:0:0:0:
475,192,82837,1,0,0:0:0:0:
402,192,82972,1,0,0:0:0:0:
256,192,82972,1,0,0:0:0:0:
475,192,82972,1,0,0:0:0:0:
182,192,83107,1,0,0:0:0:0:
402,192,83174,1,0,0:0:0:0:
329,192,83242,1,0,0:0:0:0:
256,192,83242,1,0,0:0:0:0:
36,192,83242,1,0,0:0:0:0:
109,192,83242,1,0,0:0:0:0:
36,192,83377,1,0,0:0:0:0:
182,192,83377,1,0,0:0:0:0:
402,192,83512,1,0,0:0:0:0:
475,192,83512,1,0,0:0:0:0:
256,192,83512,1,0,0:0:0:0:
109,192,83647,1,0,0:0:0:0:
182,192,83715,1,0,0:0:0:0:
329,192,83782,1,0,0:0:0:0:
109,192,83850,1,0,0:0:0:0:
256,192,83918,1,0,0:0:0:0:
475,192,83918,1,0,0:0:0:0:
402,192,83918,1,0,0:0:0:0:
109,192,84053,1,0,0:0:0:0:
182,192,84120,1,0,0:0:0:0:
329,192,84188,1,0,0:0:0:0:
109,192,84255,1,0,0:0:0:0:
402,192,84323,1,0,0:0:0:0:
36,192,84391,1,0,0:0:0:0:
182,192,84391,1,0,0:0:0:0:
329,192,84458,1,0,0:0:0:0:
182,192,84526,1,0,0:0:0:0:
475,192,84593,1,0,0:0:0:0:
256,192,84593,1,0,0:0:0:0:
402,192,84593,1,0,0:0:0:0:
109,192,84728,1,0,0:0:0:0:
182,192,84796,1,0,0:0:0:0:
329,192,84864,1,0,0:0:0:0:
109,192,84931,1,0,0:0:0:0:
475,192,84999,1,0,0:0:0:0:
402,192,84999,1,0,0:0:0:0:
256,192,84999,1,0,0:0:0:0:
182,192,85134,1,0,0:0:0:0:
329,192,85201,1,0,0:0:0:0:
182,192,85269,1,0,0:0:0:0:
402,192,85337,1,0,0:0:0:0:
256,192,85404,1,0,0:0:0:0:
329,192,85404,1,0,0:0:0:0:
109,192,85404,1,0,0:0:0:0:
36,192,85404,1,0,0:0:0:0:
182,192,85539,1,0,0:0:0:0:
475,192,85674,1,0,0:0:0:0:
329,192,85674,1,0,0:0:0:0:
109,192,85674,1,0,0:0:0:0:
36,192,85809,1,0,0:0:0:0:
329,192,85809,1,0,0:0:0:0:
402,192,85809,1,0,0:0:0:0:
182,192,85809,1,0,0:0:0:0:
256,192,85945,1,0,0:0:0:0:
109,192,85945,1,0,0:0:0:0:
182,192,86080,1,0,0:0:0:0:
475,192,86080,1,0,0:0:0:0:
402,192,86080,1,0,0:0:0:0:
329,192,86215,1,0,0:0:0:0:
182,192,86282,1,0,0:0:0:0:
329,192,86350,1,0,0:0:0:0:
36,192,86350,1,0,0:0:0:0:
109,192,86350,1,0,0:0:0:0:
182,192,86418,1,0,0:0:0:0:
402,192,86418,1,0,0:0:0:0:
475,192,86418,1,0,0:0:0:0:
36,192,86485,1,0,0:0:0:0:
329,192,86485,1,0,0:0:0:0:
256,192,86485,1,0,0:0:0:0:
109,192,86485,1,0,0:0:0:0:
36,192,86620,1,0,0:0:0:0:
182,192,86620,1,0,0:0:0:0:
256,192,86755,1,0,0:0:0:0:
402,192,86755,1,0,0:0:0:0:
475,192,86755,1,0,0:0:0:0:
109,192,86891,1,0,0:0:0:0:
182,192,86958,1,0,0:0:0:0:
329,192,87026,1,0,0:0:0:0:
182,192,87093,1,0,0:0:0:0:
402,192,87161,1,0,0:0:0:0:
475,192,87161,1,0,0:0:0:0:
256,192,87161,1,0,0:0:0:0:
109,192,87296,1,0,0:0:0:0:
182,192,87364,1,0,0:0:0:0:
329,192,87431,1,0,0:0:0:0:
182,192,87499,1,0,0:0:0:0:
402,192,87566,1,0,0:0:0:0:
36,192,87634,1,0,0:0:0:0:
109,192,87634,1,0,0:0:0:0:
329,192,87701,1,0,0:0:0:0:
109,192,87769,1,0,0:0:0:0:
475,192,87837,1,0,0:0:0:0:
256,192,87837,1,0,0:0:0:0:
402,192,87837,1,0,0:0:0:0:
109,192,87972,1,0,0:0:0:0:
182,192,88039,1,0,0:0:0:0:
329,192,88107,1,0,0:0:0:0:
182,192,88174,1,0,0:0:0:0:
256,192,88242,1,0,0:0:0:0:
475,192,88242,1,0,0:0:0:0:
402,192,88242,1,0,0:0:0:0:
329,192,88377,1,0,0:0:0:0:
109,192,88445,1,0,0:0:0:0:
475,192,88512,1,0,0:0:0:0:
402,192,88512,1,0,0:0:0:0:
256,192,88512,1,0,0:0:0:0:
109,192,88647,1,0,0:0:0:0:
182,192,88715,1,0,0:0:0:0:
329,192,88782,1,0,0:0:0:0:
182,192,88850,1,0,0:0:0:0:
402,192,88918,1,0,0:0:0:0:
329,192,88918,1,0,0:0:0:0:
109,192,88918,1,0,0:0:0:0:
36,192,88918,1,0,0:0:0:0:
402,192,89053,1,0,0:0:0:0:
475,192,89053,1,0,0:0:0:0:
256,192,89053,1,0,0:0:0:0:
109,192,89188,1,0,0:0:0:0:
182,192,89255,1,0,0:0:0:0:
329,192,89323,1,0,0:0:0:0:
182,192,89391,1,0,0:0:0:0:
475,192,89458,1,0,0:0:0:0:
402,192,89458,1,0,0:0:0:0:
256,192,89458,1,0,0:0:0:0:
109,192,89593,1,0,0:0:0:0:
329,192,89661,1,0,0:0:0:0:
182,192,89728,1,0,0:0:0:0:
402,192,89796,1,0,0:0:0:0:
256,192,89864,1,0,0:0:0:0:
329,192,89931,1,0,0:0:0:0:
36,192,89931,1,0,0:0:0:0:
109,192,89931,1,0,0:0:0:0:
182,192,89999,1,0,0:0:0:0:
475,192,89999,1,0,0:0:0:0:
402,192,89999,1,0,0:0:0:0:
109,192,90134,1,0,0:0:0:0:
182,192,90201,1,0,0:0:0:0:
329,192,90269,1,0,0:0:0:0:
182,192,90337,1,0,0:0:0:0:
329,192,90404,1,0,0:0:0:0:
256,192,90404,1,0,0:0:0:0:
36,192,90404,1,0,0:0:0:0:
475,192,90404,1,0,0:0:0:0:
109,192,90539,1,0,0:0:0:0:
329,192,90674,1,0,0:0:0:0:
182,192,90674,1,0,0:0:0:0:
475,192,90674,1,0,0:0:0:0:
109,192,90809,1,0,0:0:0:0:
329,192,90809,1,0,0:0:0:0:
36,192,90809,1,0,0:0:0:0:
256,192,90809,1,0,0:0:0:0:
36,192,90945,1,0,0:0:0:0:
182,192,90945,1,0,0:0:0:0:
475,192,91080,1,0,0:0:0:0:
402,192,91080,1,0,0:0:0:0:
256,192,91080,1,0,0:0:0:0:
109,192,91215,1,0,0:0:0:0:
182,192,91282,1,0,0:0:0:0:
329,192,91350,1,0,0:0:0:0:
109,192,91418,1,0,0:0:0:0:
475,192,91485,1,0,0:0:0:0:
402,192,91485,1,0,0:0:0:0:
256,192,91485,1,0,0:0:0:0:
402,192,91620,1,0,0:0:0:0:
475,192,91620,1,0,0:0:0:0:
256,192,91620,1,0,0:0:0:0:
329,192,91755,1,0,0:0:0:0:
182,192,91823,1,0,0:0:0:0:
402,192,91891,1,0,0:0:0:0:
329,192,91891,1,0,0:0:0:0:
109,192,91891,1,0,0:0:0:0:
36,192,91891,1,0,0:0:0:0:
182,192,92026,1,0,0:0:0:0:
36,192,92026,1,0,0:0:0:0:
475,192,92161,1,0,0:0:0:0:
402,192,92161,1,0,0:0:0:0:
256,192,92161,1,0,0:0:0:0:
109,192,92296,1,0,0:0:0:0:
182,192,92364,1,0,0:0:0:0:
329,192,92431,1,0,0:0:0:0:
109,192,92499,1,0,0:0:0:0:
475,192,92566,1,0,0:0:0:0:
402,192,92566,1,0,0:0:0:0:
256,192,92566,1,0,0:0:0:0:
109,192,92701,1,0,0:0:0:0:
182,192,92769,1,0,0:0:0:0:
329,192,92837,1,0,0:0:0:0:
109,192,92904,1,0,0:0:0:0:
402,192,92972,1,0,0:0:0:0:
36,192,93039,1,0,0:0:0:0:
182,192,93039,1,0,0:0:0:0:
329,192,93107,1,0,0:0:0:0:
182,192,93174,1,0,0:0:0:0:
402,192,93242,1,0,0:0:0:0:
475,192,93242,1,0,0:0:0:0:
256,192,93242,1,0,0:0:0:0:
109,192,93377,1,0,0:0:0:0:
182,192,93445,1,0,0:0:0:0:
329,192,93512,1,0,0:0:0:0:
109,192,93580,1,0,0:0:0:0:
475,192,93647,1,0,0:0:0:0:
402,192,93647,1,0,0:0:0:0:
256,192,93647,1,0,0:0:0:0:
109,192,93782,1,0,0:0:0:0:
182,192,93850,1,0,0:0:0:0:
329,192,93918,1,0,0:0:0:0:
182,192,93985,1,0,0:0:0:0:
329,192,94053,1,0,0:0:0:0:
402,192,94053,1,0,0:0:0:0:
109,192,94053,1,0,0:0:0:0:
36,192,94053,1,0,0:0:0:0:
256,192,94188,1,0,0:0:0:0:
475,192,94323,1,0,0:0:0:0:
402,192,94323,1,0,0:0:0:0:
182,192,94323,1,0,0:0:0:0:
402,192,94458,1,0,0:0:0:0:
109,192,94458,1,0,0:0:0:0:
36,192,94458,1,0,0:0:0:0:
256,192,94458,1,0,0:0:0:0:
182,192,94593,1,0,0:0:0:0:
329,192,94593,1,0,0:0:0:0:
256,192,94728,1,0,0:0:0:0:
402,192,94728,1,0,0:0:0:0:
475,192,94728,1,0,0:0:0:0:
329,192,94864,1,0,0:0:0:0:
182,192,94931,1,0,0:0:0:0:
329,192,94999,1,0,0:0:0:0:
36,192,94999,1,0,0:0:0:0:
109,192,94999,1,0,0:0:0:0:
182,192,95066,1,0,0:0:0:0:
475,192,95066,1,0,0:0:0:0:
402,192,95066,1,0,0:0:0:0:
36,192,95134,5,0,0:0:0:0:
329,192,95134,1,0,0:0:0:0:
256,192,95134,1,0,0:0:0:0:
109,192,95134,1,0,0:0:0:0:
182,192,95269,1,0,0:0:0:0:
36,192,95269,1,0,0:0:0:0:
256,192,95404,1,0,0:0:0:0:
402,192,95404,1,0,0:0:0:0:
475,192,95404,1,0,0:0:0:0:
36,192,95539,1,0,0:0:0:0:
182,192,95539,1,0,0:0:0:0:
329,192,95607,1,0,0:0:0:0:
109,192,95674,1,0,0:0:0:0:
182,192,95742,1,0,0:0:0:0:
256,192,95809,1,0,0:0:0:0:
402,192,95809,1,0,0:0:0:0:
475,192,95809,1,0,0:0:0:0:
182,192,95945,1,0,0:0:0:0:
402,192,96012,1,0,0:0:0:0:
109,192,96080,1,0,0:0:0:0:
402,192,96147,1,0,0:0:0:0:
182,192,96215,1,0,0:0:0:0:
36,192,96215,1,0,0:0:0:0:
329,192,96282,1,0,0:0:0:0:
475,192,96282,1,0,0:0:0:0:
36,192,96350,1,0,0:0:0:0:
109,192,96350,1,0,0:0:0:0:
256,192,96418,1,0,0:0:0:0:
109,192,96485,1,0,0:0:0:0:
402,192,96485,1,0,0:0:0:0:
475,192,96485,1,0,0:0:0:0:
182,192,96620,1,0,0:0:0:0:
329,192,96688,1,0,0:0:0:0:
182,192,96755,1,0,0:0:0:0:
109,192,96823,1,0,0:0:0:0:
256,192,96891,1,0,0:0:0:0:
402,192,96891,1,0,0:0:0:0:
475,192,96891,1,0,0:0:0:0:
182,192,97026,1,0,0:0:0:0:
329,192,97093,1,0,0:0:0:0:
475,192,97161,1,0,0:0:0:0:
36,192,97161,1,0,0:0:0:0:
402,192,97161,1,0,0:0:0:0:
475,192,97296,1,0,0:0:0:0:
182,192,97296,1,0,0:0:0:0:
329,192,97364,1,0,0:0:0:0:
36,192,97431,1,0,0:0:0:0:
256,192,97499,1,0,0:0:0:0:
36,192,97566,1,0,0:0:0:0:
182,192,97566,1,0,0:0:0:0:
402,192,97566,1,0,0:0:0:0:
475,192,97566,1,0,0:0:0:0:
329,192,97634,1,0,0:0:0:0:
256,192,97701,1,0,0:0:0:0:
109,192,97701,1,0,0:0:0:0:
475,192,97701,1,0,0:0:0:0:
182,192,97837,1,0,0:0:0:0:
329,192,97904,1,0,0:0:0:0:
402,192,97972,1,0,0:0:0:0:
109,192,97972,1,0,0:0:0:0:
182,192,98039,1,0,0:0:0:0:
475,192,98107,1,0,0:0:0:0:
256,192,98107,1,0,0:0:0:0:
402,192,98107,1,0,0:0:0:0:
329,192,98242,1,0,0:0:0:0:
109,192,98242,1,0,0:0:0:0:
182,192,98309,1,0,0:0:0:0:
36,192,98377,1,0,0:0:0:0:
402,192,98377,1,0,0:0:0:0:
329,192,98445,1,0,0:0:0:0:
182,192,98512,1,0,0:0:0:0:
475,192,98512,1,0,0:0:0:0:
329,192,98580,1,0,0:0:0:0:
36,192,98580,1,0,0:0:0:0:
109,192,98580,1,0,0:0:0:0:
256,192,98647,1,0,0:0:0:0:
475,192,98647,1,0,0:0:0:0:
402,192,98647,1,0,0:0:0:0:
329,192,98782,1,0,0:0:0:0:
182,192,98782,1,0,0:0:0:0:
402,192,98850,1,0,0:0:0:0:
36,192,98918,1,0,0:0:0:0:
182,192,98918,1,0,0:0:0:0:
329,192,98985,1,0,0:0:0:0:
256,192,99053,1,0,0:0:0:0:
475,192,99053,1,0,0:0:0:0:
36,192,99053,1,0,0:0:0:0:
109,192,99053,1,0,0:0:0:0:
402,192,99188,1,0,0:0:0:0:
475,192,99323,1,0,0:0:0:0:
182,192,99323,1,0,0:0:0:0:
329,192,99323,1,0,0:0:0:0:
182,192,99458,1,0,0:0:0:0:
256,192,99458,1,0,0:0:0:0:
402,192,99458,1,0,0:0:0:0:
36,192,99458,1,0,0:0:0:0:
36,192,99593,1,0,0:0:0:0:
329,192,99593,1,0,0:0:0:0:
256,192,99728,1,0,0:0:0:0:
475,192,99728,1,0,0:0:0:0:
402,192,99728,1,0,0:0:0:0:
109,192,99864,1,0,0:0:0:0:
329,192,99864,1,0,0:0:0:0:
182,192,99931,1,0,0:0:0:0:
329,192,99999,1,0,0:0:0:0:
182,192,100066,1,0,0:0:0:0:
475,192,100134,1,0,0:0:0:0:
36,192,100134,1,0,0:0:0:0:
256,192,100134,1,0,0:0:0:0:
256,192,100269,1,0,0:0:0:0:
475,192,100269,1,0,0:0:0:0:
36,192,100269,1,0,0:0:0:0:
182,192,100404,1,0,0:0:0:0:
329,192,100472,1,0,0:0:0:0:
475,192,100539,1,0,0:0:0:0:
402,192,100539,1,0,0:0:0:0:
36,192,100539,1,0,0:0:0:0:
109,192,100539,1,0,0:0:0:0:
329,192,100674,1,0,0:0:0:0:
109,192,100674,1,0,0:0:0:0:
36,192,100809,1,0,0:0:0:0:
475,192,100809,1,0,0:0:0:0:
256,192,100809,1,0,0:0:0:0:
109,192,100945,1,0,0:0:0:0:
182,192,101012,1,0,0:0:0:0:
329,192,101080,1,0,0:0:0:0:
109,192,101147,1,0,0:0:0:0:
475,192,101215,1,0,0:0:0:0:
402,192,101215,1,0,0:0:0:0:
256,192,101215,1,0,0:0:0:0:
109,192,101350,1,0,0:0:0:0:
182,192,101418,1,0,0:0:0:0:
329,192,101485,1,0,0:0:0:0:
182,192,101553,1,0,0:0:0:0:
109,192,101620,1,0,0:0:0:0:
36,192,101620,1,0,0:0:0:0:
475,192,101688,1,0,0:0:0:0:
329,192,101688,1,0,0:0:0:0:
182,192,101755,1,0,0:0:0:0:
402,192,101823,1,0,0:0:0:0:
36,192,101891,1,0,0:0:0:0:
475,192,101891,1,0,0:0:0:0:
256,192,101891,1,0,0:0:0:0:
182,192,101958,1,0,0:0:0:0:
475,192,102026,1,0,0:0:0:0:
329,192,102026,1,0,0:0:0:0:
109,192,102093,1,0,0:0:0:0:
329,192,102161,1,0,0:0:0:0:
182,192,102228,1,0,0:0:0:0:
475,192,102296,1,0,0:0:0:0:
256,192,102296,1,0,0:0:0:0:
36,192,102296,1,0,0:0:0:0:
109,192,102431,1,0,0:0:0:0:
182,192,102499,1,0,0:0:0:0:
402,192,102566,1,0,0:0:0:0:
329,192,102566,1,0,0:0:0:0:
182,192,102634,1,0,0:0:0:0:
402,192,102701,1,0,0:0:0:0:
36,192,102701,1,0,0:0:0:0:
109,192,102701,1,0,0:0:0:0:
475,192,102701,1,0,0:0:0:0:
182,192,102837,1,0,0:0:0:0:
329,192,102837,1,0,0:0:0:0:
402,192,102972,1,0,0:0:0:0:
109,192,102972,1,0,0:0:0:0:
256,192,102972,1,0,0:0:0:0:
402,192,103107,1,0,0:0:0:0:
475,192,103107,1,0,0:0:0:0:
36,192,103107,1,0,0:0:0:0:
182,192,103107,1,0,0:0:0:0:
329,192,103242,1,0,0:0:0:0:
109,192,103242,1,0,0:0:0:0:
256,192,103377,1,0,0:0:0:0:
36,192,103377,1,0,0:0:0:0:
475,192,103377,1,0,0:0:0:0:
329,192,103512,1,0,0:0:0:0:
182,192,103580,1,0,0:0:0:0:
329,192,103647,1,0,0:0:0:0:
109,192,103647,1,0,0:0:0:0:
36,192,103647,1,0,0:0:0:0:
182,192,103715,1,0,0:0:0:0:
475,192,103715,1,0,0:0:0:0:
402,192,103715,1,0,0:0:0:0:
329,192,103782,1,0,0:0:0:0:
256,192,103782,1,0,0:0:0:0:
36,192,103782,1,0,0:0:0:0:
109,192,103782,1,0,0:0:0:0:
182,192,103918,1,0,0:0:0:0:
36,192,103918,1,0,0:0:0:0:
475,192,104053,1,0,0:0:0:0:
256,192,104053,1,0,0:0:0:0:
402,192,104053,1,0,0:0:0:0:
329,192,104188,1,0,0:0:0:0:
109,192,104188,1,0,0:0:0:0:
182,192,104255,1,0,0:0:0:0:
329,192,104323,1,0,0:0:0:0:
402,192,104391,1,0,0:0:0:0:
475,192,104458,1,0,0:0:0:0:
36,192,104458,1,0,0:0:0:0:
256,192,104458,1,0,0:0:0:0:
109,192,104593,1,0,0:0:0:0:
182,192,104661,1,0,0:0:0:0:
329,192,104728,1,0,0:0:0:0:
36,192,104796,1,0,0:0:0:0:
329,192,104864,1,0,0:0:0:0:
182,192,104864,1,0,0:0:0:0:
402,192,104931,1,0,0:0:0:0:
475,192,104931,1,0,0:0:0:0:
109,192,104999,1,0,0:0:0:0:
256,192,104999,1,0,0:0:0:0:
402,192,105066,1,0,0:0:0:0:
475,192,105134,1,0,0:0:0:0:
109,192,105134,1,0,0:0:0:0:
36,192,105134,1,0,0:0:0:0:
182,192,105269,1,0,0:0:0:0:
329,192,105337,1,0,0:0:0:0:
182,192,105404,1,0,0:0:0:0:
256,192,105472,1,0,0:0:0:0:
36,192,105539,1,0,0:0:0:0:
402,192,105539,1,0,0:0:0:0:
475,192,105539,1,0,0:0:0:0:
329,192,105674,1,0,0:0:0:0:
182,192,105742,1,0,0:0:0:0:
256,192,105809,1,0,0:0:0:0:
36,192,105809,1,0,0:0:0:0:
475,192,105809,1,0,0:0:0:0:
402,192,105945,1,0,0:0:0:0:
109,192,105945,1,0,0:0:0:0:
182,192,106012,1,0,0:0:0:0:
329,192,106080,1,0,0:0:0:0:
182,192,106147,1,0,0:0:0:0:
402,192,106215,1,0,0:0:0:0:
475,192,106215,1,0,0:0:0:0:
256,192,106215,1,0,0:0:0:0:
36,192,106215,1,0,0:0:0:0:
109,192,106282,1,0,0:0:0:0:
329,192,106350,1,0,0:0:0:0:
182,192,106350,1,0,0:0:0:0:
475,192,106350,1,0,0:0:0:0:
402,192,106485,1,0,0:0:0:0:
329,192,106553,1,0,0:0:0:0:
36,192,106620,1,0,0:0:0:0:
182,192,106620,1,0,0:0:0:0:
329,192,106688,1,0,0:0:0:0:
256,192,106755,1,0,0:0:0:0:
475,192,106755,1,0,0:0:0:0:
109,192,106755,1,0,0:0:0:0:
329,192,106891,1,0,0:0:0:0:
109,192,106891,1,0,0:0:0:0:
182,192,106958,1,0,0:0:0:0:
36,192,107026,1,0,0:0:0:0:
402,192,107026,1,0,0:0:0:0:
329,192,107093,1,0,0:0:0:0:
475,192,107161,1,0,0:0:0:0:
182,192,107161,1,0,0:0:0:0:
329,192,107228,1,0,0:0:0:0:
109,192,107228,1,0,0:0:0:0:
36,192,107228,1,0,0:0:0:0:
402,192,107296,1,0,0:0:0:0:
256,192,107296,1,0,0:0:0:0:
475,192,107296,1,0,0:0:0:0:
329,192,107431,1,0,0:0:0:0:
182,192,107431,1,0,0:0:0:0:
402,192,107499,1,0,0:0:0:0:
109,192,107566,1,0,0:0:0:0:
182,192,107566,1,0,0:0:0:0:
329,192,107634,1,0,0:0:0:0:
475,192,107701,1,0,0:0:0:0:
256,192,107701,1,0,0:0:0:0:
36,192,107701,1,0,0:0:0:0:
402,192,107701,1,0,0:0:0:0:
109,192,107837,1,0,0:0:0:0:
182,192,107972,1,0,0:0:0:0:
475,192,107972,1,0,0:0:0:0:
329,192,107972,1,0,0:0:0:0:
109,192,108107,1,0,0:0:0:0:
329,192,108107,1,0,0:0:0:0:
36,192,108107,1,0,0:0:0:0:
256,192,108107,1,0,0:0:0:0:
36,192,108242,1,0,0:0:0:0:
182,192,108242,1,0,0:0:0:0:
475,192,108377,1,0,0:0:0:0:
402,192,108377,1,0,0:0:0:0:
256,192,108377,1,0,0:0:0:0:
109,192,108512,1,0,0:0:0:0:
329,192,108512,1,0,0:0:0:0:
182,192,108580,1,0,0:0:0:0:
329,192,108647,1,0,0:0:0:0:
402,192,108715,1,0,0:0:0:0:
256,192,108782,1,0,0:0:0:0:
36,192,108782,1,0,0:0:0:0:
475,192,108782,1,0,0:0:0:0:
36,192,108918,1,0,0:0:0:0:
256,192,108918,1,0,0:0:0:0:
475,192,108918,1,0,0:0:0:0:
182,192,109053,1,0,0:0:0:0:
329,192,109120,1,0,0:0:0:0:
109,192,109188,1,0,0:0:0:0:
475,192,109188,1,0,0:0:0:0:
402,192,109188,1,0,0:0:0:0:
36,192,109188,1,0,0:0:0:0:
109,192,109323,1,0,0:0:0:0:
329,192,109323,1,0,0:0:0:0:
475,192,109458,1,0,0:0:0:0:
256,192,109458,1,0,0:0:0:0:
36,192,109458,1,0,0:0:0:0:
109,192,109593,1,0,0:0:0:0:
182,192,109661,1,0,0:0:0:0:
329,192,109728,1,0,0:0:0:0:
182,192,109796,1,0,0:0:0:0:
475,192,109864,1,0,0:0:0:0:
36,192,109864,1,0,0:0:0:0:
256,192,109864,1,0,0:0:0:0:
402,192,109999,1,0,0:0:0:0:
329,192,110066,1,0,0:0:0:0:
182,192,110134,1,0,0:0:0:0:
329,192,110201,1,0,0:0:0:0:
36,192,110269,1,0,0:0:0:0:
109,192,110269,1,0,0:0:0:0:
475,192,110337,1,0,0:0:0:0:
402,192,110337,1,0,0:0:0:0:
109,192,110404,1,0,0:0:0:0:
329,192,110472,1,0,0:0:0:0:
36,192,110539,1,0,0:0:0:0:
475,192,110539,1,0,0:0:0:0:
182,192,110539,1,0,0:0:0:0:
256,192,110607,1,0,0:0:0:0:
109,192,110674,1,0,0:0:0:0:
402,192,110674,1,0,0:0:0:0:
329,192,110742,1,0,0:0:0:0:
182,192,110809,1,0,0:0:0:0:
329,192,110877,1,0,0:0:0:0:
256,192,110945,1,0,0:0:0:0:
475,192,110945,1,0,0:0:0:0:
36,192,110945,1,0,0:0:0:0:
109,192,111080,1,0,0:0:0:0:
182,192,111147,1,0,0:0:0:0:
329,192,111215,1,0,0:0:0:0:
402,192,111215,1,0,0:0:0:0:
182,192,111282,1,0,0:0:0:0:
109,192,111350,1,0,0:0:0:0:
36,192,111350,1,0,0:0:0:0:
402,192,111350,1,0,0:0:0:0:
475,192,111350,1,0,0:0:0:0:
329,192,111485,1,0,0:0:0:0:
182,192,111485,1,0,0:0:0:0:
475,192,111620,1,0,0:0:0:0:
256,192,111620,1,0,0:0:0:0:
402,192,111620,1,0,0:0:0:0:
36,192,111755,1,0,0:0:0:0:
109,192,111755,1,0,0:0:0:0:
256,192,111755,1,0,0:0:0:0:
329,192,111755,1,0,0:0:0:0:
182,192,111891,1,0,0:0:0:0:
402,192,111891,1,0,0:0:0:0:
475,192,112026,1,0,0:0:0:0:
256,192,112026,1,0,0:0:0:0:
36,192,112026,1,0,0:0:0:0:
329,192,112161,1,0,0:0:0:0:
182,192,112228,1,0,0:0:0:0:
109,192,112296,1,0,0:0:0:0:
36,192,112296,1,0,0:0:0:0:
329,192,112296,1,0,0:0:0:0:
402,192,112364,1,0,0:0:0:0:
182,192,112364,1,0,0:0:0:0:
329,192,112431,1,0,0:0:0:0:
36,192,112431,1,0,0:0:0:0:
256,192,112431,1,0,0:0:0:0:
475,192,112431,1,0,0:0:0:0:
109,192,112431,1,0,0:0:0:0:
182,192,112566,1,0,0:0:0:0:
36,192,112566,1,0,0:0:0:0:
475,192,112701,1,0,0:0:0:0:
109,192,112701,1,0,0:0:0:0:
256,192,112701,1,0,0:0:0:0:
402,192,112701,1,0,0:0:0:0:
329,192,112837,1,0,0:0:0:0:
475,192,112837,1,0,0:0:0:0:
36,192,112837,1,0,0:0:0:0:
109,192,112837,1,0,0:0:0:0:
182,192,112904,1,0,0:0:0:0:
329,192,112972,1,0,0:0:0:0:
256,192,113039,1,0,0:0:0:0:
36,192,113107,1,0,0:0:0:0:
109,192,113107,1,0,0:0:0:0:
402,192,113107,1,0,0:0:0:0:
475,192,113107,1,0,0:0:0:0:
329,192,113242,1,0,0:0:0:0:
109,192,113242,1,0,0:0:0:0:
182,192,113309,1,0,0:0:0:0:
402,192,113377,1,0,0:0:0:0:
182,192,113445,1,0,0:0:0:0:
475,192,113512,1,0,0:0:0:0:
109,192,113512,1,0,0:0:0:0:
36,192,113512,1,0,0:0:0:0:
329,192,113580,1,0,0:0:0:0:
36,192,113647,1,0,0:0:0:0:
109,192,113647,1,0,0:0:0:0:
475,192,113647,1,0,0:0:0:0:
329,192,113715,1,0,0:0:0:0:
256,192,113782,1,0,0:0:0:0:
36,192,113782,1,0,0:0:0:0:
475,192,113782,1,0,0:0:0:0:
402,192,113782,1,0,0:0:0:0:
402,192,113918,1,0,0:0:0:0:
109,192,113918,1,0,0:0:0:0:
182,192,113985,1,0,0:0:0:0:
329,192,114053,1,0,0:0:0:0:
182,192,114120,1,0,0:0:0:0:
475,192,114188,1,0,0:0:0:0:
402,192,114188,1,0,0:0:0:0:
36,192,114188,1,0,0:0:0:0:
256,192,114188,1,0,0:0:0:0:
182,192,114323,1,0,0:0:0:0:
329,192,114323,1,0,0:0:0:0:
109,192,114391,1,0,0:0:0:0:
475,192,114458,1,0,0:0:0:0:
36,192,114458,1,0,0:0:0:0:
256,192,114458,1,0,0:0:0:0:
329,192,114458,1,0,0:0:0:0:
402,192,114593,1,0,0:0:0:0:
182,192,114593,1,0,0:0:0:0:
36,192,114593,1,0,0:0:0:0:
109,192,114593,1,0,0:0:0:0:
329,192,114661,1,0,0:0:0:0:
475,192,114728,1,0,0:0:0:0:
182,192,114796,1,0,0:0:0:0:
36,192,114864,1,0,0:0:0:0:
109,192,114864,1,0,0:0:0:0:
329,192,114864,1,0,0:0:0:0:
182,192,114931,1,0,0:0:0:0:
475,192,114931,1,0,0:0:0:0:
402,192,114931,1,0,0:0:0:0:
36,192,114999,1,0,0:0:0:0:
256,192,114999,1,0,0:0:0:0:
329,192,114999,1,0,0:0:0:0:
109,192,114999,1,0,0:0:0:0:
402,192,115134,1,0,0:0:0:0:
182,192,115134,1,0,0:0:0:0:
329,192,115201,1,0,0:0:0:0:
475,192,115269,1,0,0:0:0:0:
109,192,115269,1,0,0:0:0:0:
256,192,115269,1,0,0:0:0:0:
402,192,115269,1,0,0:0:0:0:
36,192,115337,1,0,0:0:0:0:
329,192,115404,1,0,0:0:0:0:
256,192,115404,1,0,0:0:0:0:
475,192,115404,1,0,0:0:0:0:
182,192,115404,1,0,0:0:0:0:
329,192,115539,1,0,0:0:0:0:
402,192,115539,1,0,0:0:0:0:
36,192,115539,1,0,0:0:0:0:
182,192,115539,1,0,0:0:0:0:
475,192,115607,1,0,0:0:0:0:
256,192,115674,1,0,0:0:0:0:
329,192,115674,1,0,0:0:0:0:
109,192,115674,1,0,0:0:0:0:
36,192,115674,1,0,0:0:0:0:
402,192,115742,1,0,0:0:0:0:
256,192,115809,1,0,0:0:0:0:
475,192,115809,1,0,0:0:0:0:
182,192,115809,1,0,0:0:0:0:
36,192,115809,1,0,0:0:0:0:
109,192,115877,1,0,0:0:0:0:
329,192,115877,1,0,0:0:0:0:
402,192,115945,1,0,0:0:0:0:
256,192,115945,1,0,0:0:0:0:
475,192,115945,1,0,0:0:0:0:
182,192,115945,1,0,0:0:0:0:
182,192,116080,1,0,0:0:0:0:
329,192,116080,1,0,0:0:0:0:
109,192,116147,1,0,0:0:0:0:
402,192,116215,1,0,0:0:0:0:
475,192,116215,1,0,0:0:0:0:
256,192,116215,1,0,0:0:0:0:
36,192,116215,1,0,0:0:0:0:
182,192,116282,1,0,0:0:0:0:
329,192,116350,1,0,0:0:0:0:
109,192,116350,1,0,0:0:0:0:
402,192,116350,1,0,0:0:0:0:
36,192,116350,1,0,0:0:0:0:
475,192,116485,1,0,0:0:0:0:
182,192,116485,1,0,0:0:0:0:
402,192,116620,1,0,0:0:0:0:
475,192,116620,1,0,0:0:0:0:
109,192,116620,1,0,0:0:0:0:
256,192,116620,1,0,0:0:0:0:
329,192,116755,1,0,0:0:0:0:
402,192,116755,1,0,0:0:0:0:
182,192,116755,1,0,0:0:0:0:
36,192,116755,1,0,0:0:0:0:
109,192,116891,1,0,0:0:0:0:
256,192,116891,1,0,0:0:0:0:
475,192,117026,1,0,0:0:0:0:
329,192,117026,1,0,0:0:0:0:
182,192,117026,1,0,0:0:0:0:
402,192,117026,1,0,0:0:0:0:
402,192,117161,1,0,0:0:0:0:
256,192,117161,1,0,0:0:0:0:
36,192,117161,1,0,0:0:0:0:
109,192,117161,1,0,0:0:0:0:
329,192,117228,1,0,0:0:0:0:
182,192,117296,1,0,0:0:0:0:
329,192,117364,1,0,0:0:0:0:
182,192,117431,1,0,0:0:0:0:
402,192,117431,1,0,0:0:0:0:
475,192,117431,1,0,0:0:0:0:
36,192,117431,1,0,0:0:0:0:
109,192,117566,1,0,0:0:0:0:
36,192,117566,1,0,0:0:0:0:
256,192,117566,1,0,0:0:0:0:
475,192,117566,1,0,0:0:0:0:
329,192,117634,1,0,0:0:0:0:
182,192,117701,1,0,0:0:0:0:
329,192,117769,1,0,0:0:0:0:
475,192,117837,1,0,0:0:0:0:
182,192,117837,1,0,0:0:0:0:
402,192,117837,1,0,0:0:0:0:
36,192,117837,1,0,0:0:0:0:
475,192,117972,1,0,0:0:0:0:
182,192,117972,1,0,0:0:0:0:
36,192,117972,1,0,0:0:0:0:
402,192,117972,1,0,0:0:0:0:
475,192,118107,1,0,0:0:0:0:
256,192,118107,1,0,0:0:0:0:
36,192,118107,1,0,0:0:0:0:
109,192,118107,1,0,0:0:0:0:
182,192,118242,1,0,0:0:0:0:
402,192,118242,1,0,0:0:0:0:
329,192,118309,1,0,0:0:0:0:
109,192,118377,1,0,0:0:0:0:
329,192,118445,1,0,0:0:0:0:
475,192,118512,1,0,0:0:0:0:
109,192,118512,1,0,0:0:0:0:
36,192,118512,1,0,0:0:0:0:
256,192,118512,1,0,0:0:0:0:
402,192,118647,1,0,0:0:0:0:
182,192,118647,1,0,0:0:0:0:
329,192,118715,1,0,0:0:0:0:
182,192,118782,1,0,0:0:0:0:
256,192,118850,1,0,0:0:0:0:
475,192,118918,1,0,0:0:0:0:
36,192,118918,1,0,0:0:0:0:
109,192,118918,1,0,0:0:0:0:
402,192,118918,1,0,0:0:0:0:
329,192,118985,1,0,0:0:0:0:
36,192,119053,1,0,0:0:0:0:
256,192,119120,1,0,0:0:0:0:
475,192,119188,1,0,0:0:0:0:
402,192,119188,1,0,0:0:0:0:
182,192,119188,1,0,0:0:0:0:
329,192,119255,1,0,0:0:0:0:
109,192,119255,1,0,0:0:0:0:
36,192,119255,1,0,0:0:0:0:
256,192,119323,1,0,0:0:0:0:
402,192,119323,1,0,0:0:0:0:
475,192,119323,1,0,0:0:0:0:
182,192,119323,1,0,0:0:0:0:
109,192,119391,1,0,0:0:0:0:
329,192,119458,1,0,0:0:0:0:
402,192,119526,1,0,0:0:0:0:
256,192,119593,1,0,0:0:0:0:
475,192,119593,1,0,0:0:0:0:
182,192,119593,1,0,0:0:0:0:
36,192,119593,1,0,0:0:0:0:
329,192,119728,1,0,0:0:0:0:
109,192,119728,1,0,0:0:0:0:
256,192,119796,1,0,0:0:0:0:
475,192,119864,1,0,0:0:0:0:
402,192,119864,1,0,0:0:0:0:
182,192,119864,1,0,0:0:0:0:
36,192,119864,1,0,0:0:0:0:
329,192,119931,1,0,0:0:0:0:
402,192,119999,1,0,0:0:0:0:
256,192,119999,1,0,0:0:0:0:
109,192,119999,1,0,0:0:0:0:
36,192,119999,1,0,0:0:0:0:
36,192,120134,1,0,0:0:0:0:
256,192,120134,1,0,0:0:0:0:
402,192,120134,1,0,0:0:0:0:
109,192,120134,1,0,0:0:0:0:
36,192,120269,1,0,0:0:0:0:
182,192,120269,1,0,0:0:0:0:
475,192,120269,1,0,0:0:0:0:
329,192,120269,1,0,0:0:0:0:
475,192,120404,1,0,0:0:0:0:
256,192,120404,1,0,0:0:0:0:
402,192,120404,1,0,0:0:0:0:
109,192,120404,1,0,0:0:0:0:
475,192,120539,1,0,0:0:0:0:
402,192,120539,1,0,0:0:0:0:
109,192,120539,1,0,0:0:0:0:
256,192,120539,1,0,0:0:0:0:
475,192,120674,1,0,0:0:0:0:
36,192,120674,1,0,0:0:0:0:
329,192,120674,1,0,0:0:0:0:
182,192,120674,1,0,0:0:0:0:
329,192,120809,1,0,0:0:0:0:
109,192,120809,1,0,0:0:0:0:
256,192,120877,1,0,0:0:0:0:
182,192,120945,1,0,0:0:0:0:
475,192,120945,1,0,0:0:0:0:
402,192,120945,1,0,0:0:0:0:
329,192,121012,1,0,0:0:0:0:
36,192,121012,1,0,0:0:0:0:
109,192,121012,1,0,0:0:0:0:
256,192,121080,1,0,0:0:0:0:
182,192,121080,1,0,0:0:0:0:
402,192,121080,1,0,0:0:0:0:
475,192,121080,1,0,0:0:0:0:
329,192,121215,1,0,0:0:0:0:
109,192,121215,1,0,0:0:0:0:
256,192,121350,1,0,0:0:0:0:
402,192,121350,1,0,0:0:0:0:
475,192,121350,1,0,0:0:0:0:
36,192,121350,1,0,0:0:0:0:
329,192,121485,1,0,0:0:0:0:
475,192,121485,1,0,0:0:0:0:
36,192,121485,1,0,0:0:0:0:
109,192,121485,1,0,0:0:0:0:
182,192,121553,1,0,0:0:0:0:
329,192,121620,1,0,0:0:0:0:
256,192,121688,1,0,0:0:0:0:
36,192,121755,1,0,0:0:0:0:
475,192,121755,1,0,0:0:0:0:
182,192,121755,1,0,0:0:0:0:
402,192,121755,1,0,0:0:0:0:
109,192,121891,1,0,0:0:0:0:
402,192,121891,1,0,0:0:0:0:
329,192,121958,1,0,0:0:0:0:
182,192,122026,1,0,0:0:0:0:
329,192,122093,1,0,0:0:0:0:
36,192,122161,1,0,0:0:0:0:
402,192,122161,1,0,0:0:0:0:
475,192,122161,1,0,0:0:0:0:
182,192,122228,1,0,0:0:0:0:
402,192,122296,1,0,0:0:0:0:
475,192,122296,1,0,0:0:0:0:
36,192,122296,1,0,0:0:0:0:
182,192,122364,1,0,0:0:0:0:
256,192,122431,1,0,0:0:0:0:
109,192,122431,1,0,0:0:0:0:
36,192,122431,1,0,0:0:0:0:
475,192,122431,1,0,0:0:0:0:
182,192,122566,1,0,0:0:0:0:
402,192,122566,1,0,0:0:0:0:
329,192,122634,1,0,0:0:0:0:
109,192,122701,1,0,0:0:0:0:
329,192,122769,1,0,0:0:0:0:
36,192,122837,1,0,0:0:0:0:
402,192,122837,1,0,0:0:0:0:
475,192,122837,1,0,0:0:0:0:
182,192,122837,1,0,0:0:0:0:
329,192,122972,1,0,0:0:0:0:
475,192,122972,1,0,0:0:0:0:
109,192,123039,1,0,0:0:0:0:
256,192,123107,1,0,0:0:0:0:
182,192,123107,1,0,0:0:0:0:
402,192,123107,1,0,0:0:0:0:
36,192,123107,1,0,0:0:0:0:
329,192,123242,1,0,0:0:0:0:
475,192,123242,1,0,0:0:0:0:
36,192,123242,1,0,0:0:0:0:
109,192,123242,1,0,0:0:0:0:
182,192,123309,1,0,0:0:0:0:
329,192,123377,1,0,0:0:0:0:
256,192,123445,1,0,0:0:0:0:
182,192,123512,1,0,0:0:0:0:
475,192,123512,1,0,0:0:0:0:
402,192,123512,1,0,0:0:0:0:
36,192,123580,1,0,0:0:0:0:
109,192,123580,1,0,0:0:0:0:
329,192,123580,1,0,0:0:0:0:
256,192,123647,1,0,0:0:0:0:
402,192,123647,1,0,0:0:0:0:
475,192,123647,1,0,0:0:0:0:
182,192,123647,1,0,0:0:0:0:
109,192,123782,1,0,0:0:0:0:
329,192,123782,1,0,0:0:0:0:
182,192,123850,1,0,0:0:0:0:
475,192,123918,1,0,0:0:0:0:
256,192,123918,1,0,0:0:0:0:
402,192,123918,1,0,0:0:0:0:
36,192,123918,1,0,0:0:0:0:
109,192,123985,1,0,0:0:0:0:
182,192,124053,1,0,0:0:0:0:
402,192,124053,1,0,0:0:0:0:
475,192,124053,1,0,0:0:0:0:
329,192,124053,1,0,0:0:0:0:
256,192,124188,1,0,0:0:0:0:
109,192,124188,1,0,0:0:0:0:
402,192,124188,1,0,0:0:0:0:
36,192,124188,1,0,0:0:0:0:
475,192,124255,1,0,0:0:0:0:
256,192,124323,1,0,0:0:0:0:
36,192,124323,1,0,0:0:0:0:
182,192,124323,1,0,0:0:0:0:
329,192,124323,1,0,0:0:0:0:
402,192,124391,1,0,0:0:0:0:
256,192,124458,1,0,0:0:0:0:
475,192,124458,1,0,0:0:0:0:
109,192,124458,1,0,0:0:0:0:
36,192,124458,1,0,0:0:0:0:
182,192,124526,1,0,0:0:0:0:
329,192,124526,1,0,0:0:0:0:
475,192,124593,1,0,0:0:0:0:
36,192,124593,1,0,0:0:0:0:
256,192,124593,1,0,0:0:0:0:
402,192,124593,1,0,0:0:0:0:
109,192,124728,1,0,0:0:0:0:
182,192,124728,1,0,0:0:0:0:
329,192,124796,1,0,0:0:0:0:
182,192,124864,1,0,0:0:0:0:
36,192,124864,1,0,0:0:0:0:
475,192,124864,1,0,0:0:0:0:
402,192,124864,1,0,0:0:0:0:
256,192,124931,1,0,0:0:0:0:
36,192,124999,1,0,0:0:0:0:
475,192,124999,1,0,0:0:0:0:
109,192,124999,1,0,0:0:0:0:
329,192,124999,1,0,0:0:0:0:
402,192,125134,1,0,0:0:0:0:
256,192,125134,1,0,0:0:0:0:
475,192,125269,1,0,0:0:0:0:
329,192,125269,1,0,0:0:0:0:
36,192,125269,1,0,0:0:0:0:
182,192,125269,1,0,0:0:0:0:
256,192,125404,1,0,0:0:0:0:
109,192,125404,1,0,0:0:0:0:
402,192,125404,1,0,0:0:0:0:
36,192,125404,1,0,0:0:0:0:
182,192,125539,1,0,0:0:0:0:
329,192,125539,1,0,0:0:0:0:
256,192,125674,1,0,0:0:0:0:
36,192,125674,1,0,0:0:0:0:
475,192,125674,1,0,0:0:0:0:
402,192,125674,1,0,0:0:0:0:
36,192,125809,1,0,0:0:0:0:
329,192,125809,1,0,0:0:0:0:
109,192,125809,1,0,0:0:0:0:
475,192,125809,1,0,0:0:0:0:
182,192,125877,1,0,0:0:0:0:
402,192,125945,1,0,0:0:0:0:
182,192,126012,1,0,0:0:0:0:
329,192,126080,1,0,0:0:0:0:
36,192,126080,1,0,0:0:0:0:
256,192,126080,1,0,0:0:0:0:
475,192,126080,1,0,0:0:0:0:
109,192,126215,1,0,0:0:0:0:
256,192,126215,1,0,0:0:0:0:
475,192,126215,1,0,0:0:0:0:
402,192,126215,1,0,0:0:0:0:
182,192,126282,1,0,0:0:0:0:
329,192,126350,1,0,0:0:0:0:
182,192,126418,1,0,0:0:0:0:
109,192,126485,1,0,0:0:0:0:
329,192,126485,1,0,0:0:0:0:
475,192,126485,1,0,0:0:0:0:
36,192,126485,1,0,0:0:0:0:
109,192,126620,1,0,0:0:0:0:
329,192,126620,1,0,0:0:0:0:
36,192,126620,1,0,0:0:0:0:
475,192,126620,1,0,0:0:0:0:
36,192,126755,1,0,0:0:0:0:
402,192,126755,1,0,0:0:0:0:
256,192,126755,1,0,0:0:0:0:
475,192,126755,1,0,0:0:0:0:
109,192,126891,1,0,0:0:0:0:
402,192,126891,1,0,0:0:0:0:
329,192,126958,1,0,0:0:0:0:
182,192,127026,1,0,0:0:0:0:
329,192,127093,1,0,0:0:0:0:
36,192,127161,1,0,0:0:0:0:
475,192,127161,1,0,0:0:0:0:
109,192,127161,1,0,0:0:0:0:
256,192,127161,1,0,0:0:0:0:
402,192,127296,1,0,0:0:0:0:
109,192,127296,1,0,0:0:0:0:
182,192,127364,1,0,0:0:0:0:
329,192,127431,1,0,0:0:0:0:
182,192,127499,1,0,0:0:0:0:
256,192,127566,1,0,0:0:0:0:
475,192,127566,1,0,0:0:0:0:
402,192,127566,1,0,0:0:0:0:
36,192,127566,1,0,0:0:0:0:
109,192,127634,1,0,0:0:0:0:
475,192,127701,1,0,0:0:0:0:
256,192,127769,1,0,0:0:0:0:
329,192,127837,1,0,0:0:0:0:
36,192,127837,1,0,0:0:0:0:
109,192,127837,1,0,0:0:0:0:
402,192,127904,1,0,0:0:0:0:
182,192,127904,1,0,0:0:0:0:
475,192,127904,1,0,0:0:0:0:
36,192,127972,1,0,0:0:0:0:
256,192,127972,1,0,0:0:0:0:
109,192,127972,1,0,0:0:0:0:
329,192,127972,1,0,0:0:0:0:
475,192,128039,1,0,0:0:0:0:
182,192,128107,1,0,0:0:0:0:
329,192,128174,1,0,0:0:0:0:
182,192,128242,1,0,0:0:0:0:
36,192,128242,1,0,0:0:0:0:
475,192,128242,1,0,0:0:0:0:
402,192,128242,1,0,0:0:0:0:
329,192,128377,1,0,0:0:0:0:
109,192,128377,1,0,0:0:0:0:
256,192,128445,1,0,0:0:0:0:
36,192,128512,1,0,0:0:0:0:
109,192,128512,1,0,0:0:0:0:
402,192,128512,1,0,0:0:0:0:
475,192,128512,1,0,0:0:0:0:
329,192,128580,1,0,0:0:0:0:
256,192,128647,1,0,0:0:0:0:
36,192,128647,1,0,0:0:0:0:
475,192,128647,1,0,0:0:0:0:
182,192,128647,1,0,0:0:0:0:
475,192,128782,1,0,0:0:0:0:
36,192,128782,1,0,0:0:0:0:
256,192,128782,1,0,0:0:0:0:
182,192,128782,1,0,0:0:0:0:
182,192,128918,1,0,0:0:0:0:
329,192,128918,1,0,0:0:0:0:
109,192,128918,1,0,0:0:0:0:
402,192,128918,1,0,0:0:0:0:
256,192,129053,1,0,0:0:0:0:
36,192,129053,1,0,0:0:0:0:
475,192,129053,1,0,0:0:0:0:
329,192,129053,1,0,0:0:0:0:
36,192,129188,1,0,0:0:0:0:
256,192,129188,1,0,0:0:0:0:
329,192,129188,1,0,0:0:0:0:
475,192,129188,1,0,0:0:0:0:
109,192,129323,1,0,0:0:0:0:
329,192,129323,1,0,0:0:0:0:
182,192,129323,1,0,0:0:0:0:
402,192,129323,1,0,0:0:0:0:
402,192,129458,1,0,0:0:0:0:
256,192,129458,1,0,0:0:0:0:
182,192,129526,1,0,0:0:0:0:
109,192,129593,1,0,0:0:0:0:
36,192,129593,1,0,0:0:0:0:
329,192,129593,1,0,0:0:0:0:
402,192,129661,1,0,0:0:0:0:
182,192,129661,1,0,0:0:0:0:
36,192,129728,1,0,0:0:0:0:
329,192,129728,1,0,0:0:0:0:
256,192,129728,1,0,0:0:0:0:
475,192,129728,1,0,0:0:0:0:
109,192,129728,1,0,0:0:0:0:
402,192,129864,1,0,0:0:0:0:
182,192,129864,1,0,0:0:0:0:
329,192,129999,1,0,0:0:0:0:
36,192,129999,1,0,0:0:0:0:
256,192,129999,1,0,0:0:0:0:
475,192,129999,1,0,0:0:0:0:
109,192,130134,1,0,0:0:0:0:
402,192,130134,1,0,0:0:0:0:
36,192,130134,1,0,0:0:0:0:
475,192,130134,1,0,0:0:0:0:
256,192,130201,1,0,0:0:0:0:
329,192,130269,1,0,0:0:0:0:
109,192,130269,1,0,0:0:0:0:
182,192,130337,1,0,0:0:0:0:
475,192,130404,1,0,0:0:0:0:
402,192,130404,1,0,0:0:0:0:
36,192,130404,1,0,0:0:0:0:
256,192,130404,1,0,0:0:0:0:
329,192,130539,1,0,0:0:0:0:
109,192,130539,1,0,0:0:0:0:
182,192,130607,1,0,0:0:0:0:
402,192,130674,1,0,0:0:0:0:
109,192,130674,1,0,0:0:0:0:
256,192,130742,1,0,0:0:0:0:
36,192,130809,1,0,0:0:0:0:
182,192,130809,1,0,0:0:0:0:
475,192,130809,1,0,0:0:0:0:
329,192,130877,1,0,0:0:0:0:
182,192,130945,1,0,0:0:0:0:
36,192,130945,1,0,0:0:0:0:
475,192,130945,1,0,0:0:0:0:
329,192,131012,1,0,0:0:0:0:
36,192,131080,1,0,0:0:0:0:
475,192,131080,1,0,0:0:0:0:
256,192,131080,1,0,0:0:0:0:
109,192,131080,1,0,0:0:0:0:
402,192,131215,1,0,0:0:0:0:
182,192,131215,1,0,0:0:0:0:
329,192,131282,1,0,0:0:0:0:
109,192,131350,1,0,0:0:0:0:
475,192,131350,1,0,0:0:0:0:
329,192,131418,1,0,0:0:0:0:
475,192,131485,1,0,0:0:0:0:
36,192,131485,1,0,0:0:0:0:
182,192,131485,1,0,0:0:0:0:
402,192,131485,1,0,0:0:0:0:
182,192,131620,1,0,0:0:0:0:
329,192,131620,1,0,0:0:0:0:
109,192,131688,1,0,0:0:0:0:
402,192,131755,1,0,0:0:0:0:
36,192,131755,1,0,0:0:0:0:
475,192,131755,1,0,0:0:0:0:
256,192,131755,1,0,0:0:0:0:
182,192,131891,1,0,0:0:0:0:
329,192,131891,1,0,0:0:0:0:
475,192,131891,1,0,0:0:0:0:
36,192,131891,1,0,0:0:0:0:
109,192,131958,1,0,0:0:0:0:
402,192,132026,1,0,0:0:0:0:
256,192,132026,1,0,0:0:0:0:
182,192,132093,1,0,0:0:0:0:
109,192,132161,1,0,0:0:0:0:
36,192,132161,1,0,0:0:0:0:
329,192,132161,1,0,0:0:0:0:
182,192,132228,1,0,0:0:0:0:
402,192,132228,1,0,0:0:0:0:
475,192,132228,1,0,0:0:0:0:
36,192,132296,1,0,0:0:0:0:
329,192,132296,1,0,0:0:0:0:
256,192,132296,1,0,0:0:0:0:
109,192,132296,1,0,0:0:0:0:
475,192,132431,1,0,0:0:0:0:
182,192,132431,1,0,0:0:0:0:
329,192,132499,1,0,0:0:0:0:
475,192,132566,1,0,0:0:0:0:
109,192,132566,1,0,0:0:0:0:
36,192,132566,1,0,0:0:0:0:
256,192,132566,1,0,0:0:0:0:
402,192,132634,1,0,0:0:0:0:
329,192,132701,1,0,0:0:0:0:
36,192,132701,1,0,0:0:0:0:
182,192,132701,1,0,0:0:0:0:
256,192,132701,1,0,0:0:0:0:
475,192,132837,1,0,0:0:0:0:
109,192,132837,1,0,0:0:0:0:
256,192,132837,1,0,0:0:0:0:
402,192,132837,1,0,0:0:0:0:
182,192,132904,1,0,0:0:0:0:
36,192,132972,1,0,0:0:0:0:
109,192,132972,1,0,0:0:0:0:
329,192,132972,1,0,0:0:0:0:
402,192,132972,1,0,0:0:0:0:
256,192,133039,1,0,0:0:0:0:
475,192,133107,1,0,0:0:0:0:
36,192,133107,1,0,0:0:0:0:
182,192,133107,1,0,0:0:0:0:
402,192,133107,1,0,0:0:0:0:
109,192,133174,1,0,0:0:0:0:
329,192,133174,1,0,0:0:0:0:
475,192,133242,1,0,0:0:0:0:
402,192,133242,1,0,0:0:0:0:
182,192,133242,1,0,0:0:0:0:
256,192,133242,1,0,0:0:0:0:
329,192,133377,1,0,0:0:0:0:
182,192,133377,1,0,0:0:0:0:
109,192,133445,1,0,0:0:0:0:
475,192,133512,1,0,0:0:0:0:
329,192,133512,1,0,0:0:0:0:
256,192,133512,1,0,0:0:0:0:
36,192,133512,1,0,0:0:0:0:
182,192,133580,1,0,0:0:0:0:
36,192,133647,1,0,0:0:0:0:
402,192,133647,1,0,0:0:0:0:
109,192,133647,1,0,0:0:0:0:
475,192,133647,1,0,0:0:0:0:
329,192,133782,1,0,0:0:0:0:
182,192,133782,1,0,0:0:0:0:
109,192,133918,1,0,0:0:0:0:
256,192,133918,1,0,0:0:0:0:
329,192,133918,1,0,0:0:0:0:
475,192,133918,1,0,0:0:0:0:
182,192,134053,1,0,0:0:0:0:
256,192,134053,1,0,0:0:0:0:
36,192,134053,1,0,0:0:0:0:
402,192,134053,1,0,0:0:0:0:
329,192,134188,1,0,0:0:0:0:
109,192,134188,1,0,0:0:0:0:
182,192,134323,1,0,0:0:0:0:
256,192,134323,1,0,0:0:0:0:
402,192,134323,1,0,0:0:0:0:
475,192,134323,1,0,0:0:0:0:
256,192,134458,1,0,0:0:0:0:
109,192,134458,1,0,0:0:0:0:
36,192,134458,1,0,0:0:0:0:
475,192,134458,1,0,0:0:0:0:
329,192,134526,1,0,0:0:0:0:
182,192,134593,1,0,0:0:0:0:
109,192,134593,1,0,0:0:0:0:
329,192,134661,1,0,0:0:0:0:
256,192,134728,1,0,0:0:0:0:
36,192,134728,1,0,0:0:0:0:
475,192,134728,1,0,0:0:0:0:
402,192,134728,1,0,0:0:0:0:
109,192,134864,1,0,0:0:0:0:
36,192,134864,1,0,0:0:0:0:
329,192,134864,1,0,0:0:0:0:
475,192,134864,1,0,0:0:0:0:
182,192,134931,1,0,0:0:0:0:
402,192,134999,1,0,0:0:0:0:
256,192,134999,1,0,0:0:0:0:
109,192,135066,1,0,0:0:0:0:
36,192,135134,1,0,0:0:0:0:
182,192,135134,1,0,0:0:0:0:
329,192,135134,1,0,0:0:0:0:
475,192,135134,1,0,0:0:0:0:
36,192,135269,1,0,0:0:0:0:
475,192,135269,1,0,0:0:0:0:
329,192,135269,1,0,0:0:0:0:
182,192,135269,1,0,0:0:0:0:
256,192,135404,1,0,0:0:0:0:
109,192,135404,1,0,0:0:0:0:
36,192,135404,1,0,0:0:0:0:
475,192,135404,1,0,0:0:0:0:
182,192,135539,1,0,0:0:0:0:
402,192,135539,1,0,0:0:0:0:
329,192,135607,1,0,0:0:0:0:
36,192,135674,1,0,0:0:0:0:
182,192,135674,1,0,0:0:0:0:
329,192,135742,1,0,0:0:0:0:
256,192,135809,1,0,0:0:0:0:
475,192,135809,1,0,0:0:0:0:
109,192,135809,1,0,0:0:0:0:
36,192,135809,1,0,0:0:0:0:
329,192,135945,1,0,0:0:0:0:
109,192,135945,1,0,0:0:0:0:
182,192,136012,1,0,0:0:0:0:
475,192,136080,1,0,0:0:0:0:
329,192,136080,1,0,0:0:0:0:
182,192,136147,1,0,0:0:0:0:
475,192,136215,1,0,0:0:0:0:
36,192,136215,1,0,0:0:0:0:
109,192,136215,1,0,0:0:0:0:
402,192,136215,1,0,0:0:0:0:
329,192,136282,1,0,0:0:0:0:
182,192,136350,1,0,0:0:0:0:
36,192,136350,1,0,0:0:0:0:
329,192,136418,1,0,0:0:0:0:
402,192,136485,1,0,0:0:0:0:
475,192,136485,1,0,0:0:0:0:
182,192,136485,1,0,0:0:0:0:
329,192,136553,1,0,0:0:0:0:
36,192,136553,1,0,0:0:0:0:
109,192,136553,1,0,0:0:0:0:
475,192,136620,1,0,0:0:0:0:
182,192,136620,1,0,0:0:0:0:
256,192,136620,1,0,0:0:0:0:
402,192,136620,1,0,0:0:0:0:
109,192,136688,1,0,0:0:0:0:
36,192,136755,1,0,0:0:0:0:
329,192,136755,1,0,0:0:0:0:
182,192,136823,1,0,0:0:0:0:
256,192,136891,1,0,0:0:0:0:
36,192,136891,1,0,0:0:0:0:
475,192,136891,1,0,0:0:0:0:
329,192,136891,1,0,0:0:0:0:
182,192,137026,1,0,0:0:0:0:
402,192,137026,1,0,0:0:0:0:
329,192,137093,1,0,0:0:0:0:
256,192,137161,1,0,0:0:0:0:
475,192,137161,1,0,0:0:0:0:
36,192,137161,1,0,0:0:0:0:
182,192,137161,1,0,0:0:0:0:
402,192,137228,1,0,0:0:0:0:
256,192,137296,1,0,0:0:0:0:
36,192,137296,1,0,0:0:0:0:
109,192,137296,1,0,0:0:0:0:
329,192,137296,1,0,0:0:0:0:
256,192,137431,1,0,0:0:0:0:
36,192,137431,1,0,0:0:0:0:
329,192,137431,1,0,0:0:0:0:
109,192,137431,1,0,0:0:0:0:
329,192,137566,1,0,0:0:0:0:
182,192,137566,1,0,0:0:0:0:
36,192,137566,1,0,0:0:0:0:
475,192,137566,1,0,0:0:0:0:
475,192,137701,1,0,0:0:0:0:
256,192,137701,1,0,0:0:0:0:
402,192,137701,1,0,0:0:0:0:
182,192,137701,1,0,0:0:0:0:
182,192,137837,1,0,0:0:0:0:
256,192,137837,1,0,0:0:0:0:
475,192,137837,1,0,0:0:0:0:
402,192,137837,1,0,0:0:0:0:
36,192,137972,1,0,0:0:0:0:
182,192,137972,1,0,0:0:0:0:
329,192,137972,1,0,0:0:0:0:
475,192,137972,1,0,0:0:0:0:
109,192,138107,1,0,0:0:0:0:
256,192,138107,1,0,0:0:0:0:
329,192,138174,1,0,0:0:0:0:
402,192,138242,1,0,0:0:0:0:
182,192,138242,1,0,0:0:0:0:
475,192,138242,1,0,0:0:0:0:
329,192,138309,1,0,0:0:0:0:
109,192,138309,1,0,0:0:0:0:
36,192,138309,1,0,0:0:0:0:
402,192,138377,1,0,0:0:0:0:
182,192,138377,1,0,0:0:0:0:
475,192,138377,1,0,0:0:0:0:
256,192,138377,1,0,0:0:0:0:
329,192,138512,1,0,0:0:0:0:
36,192,138512,1,0,0:0:0:0:
109,192,138647,1,0,0:0:0:0:
256,192,138647,1,0,0:0:0:0:
475,192,138647,1,0,0:0:0:0:
36,192,138782,1,0,0:0:0:0:
475,192,138782,1,0,0:0:0:0:
402,192,138782,1,0,0:0:0:0:
182,192,138782,1,0,0:0:0:0:
329,192,138850,1,0,0:0:0:0:
109,192,138918,1,0,0:0:0:0:
182,192,138918,1,0,0:0:0:0:
329,192,138985,1,0,0:0:0:0:
256,192,139053,1,0,0:0:0:0:
475,192,139053,1,0,0:0:0:0:
36,192,139053,1,0,0:0:0:0:
109,192,139053,1,0,0:0:0:0:
182,192,139188,1,0,0:0:0:0:
402,192,139188,1,0,0:0:0:0:
329,192,139255,1,0,0:0:0:0:
402,192,139323,1,0,0:0:0:0:
109,192,139323,1,0,0:0:0:0:
256,192,139391,1,0,0:0:0:0:
475,192,139458,1,0,0:0:0:0:
36,192,139458,1,0,0:0:0:0:
329,192,139458,1,0,0:0:0:0:
182,192,139526,1,0,0:0:0:0:
36,192,139593,1,0,0:0:0:0:
475,192,139593,1,0,0:0:0:0:
329,192,139593,1,0,0:0:0:0:
182,192,139661,1,0,0:0:0:0:
256,192,139728,1,0,0:0:0:0:
402,192,139728,1,0,0:0:0:0:
475,192,139728,1,0,0:0:0:0:
36,192,139728,1,0,0:0:0:0:
109,192,139864,1,0,0:0:0:0:
329,192,139864,1,0,0:0:0:0:
182,192,139931,1,0,0:0:0:0:
475,192,139999,1,0,0:0:0:0:
329,192,139999,1,0,0:0:0:0:
182,192,140066,1,0,0:0:0:0:
256,192,140134,1,0,0:0:0:0:
402,192,140134,1,0,0:0:0:0:
36,192,140134,1,0,0:0:0:0:
475,192,140134,1,0,0:0:0:0:
182,192,140269,1,0,0:0:0:0:
329,192,140269,1,0,0:0:0:0:
109,192,140337,1,0,0:0:0:0:
475,192,140404,1,0,0:0:0:0:
36,192,140404,1,0,0:0:0:0:
256,192,140404,1,0,0:0:0:0:
329,192,140404,1,0,0:0:0:0:
36,192,140539,1,0,0:0:0:0:
109,192,140539,1,0,0:0:0:0:
402,192,140539,1,0,0:0:0:0:
475,192,140539,1,0,0:0:0:0:
182,192,140607,1,0,0:0:0:0:
109,192,140674,1,0,0:0:0:0:
329,192,140674,1,0,0:0:0:0:
256,192,140742,1,0,0:0:0:0:
475,192,140809,1,0,0:0:0:0:
182,192,140809,1,0,0:0:0:0:
402,192,140809,1,0,0:0:0:0:
329,192,140877,1,0,0:0:0:0:
109,192,140877,1,0,0:0:0:0:
36,192,140877,1,0,0:0:0:0:
402,192,140945,1,0,0:0:0:0:
256,192,140945,1,0,0:0:0:0:
475,192,140945,1,0,0:0:0:0:
182,192,140945,1,0,0:0:0:0:
109,192,141080,1,0,0:0:0:0:
329,192,141080,1,0,0:0:0:0:
182,192,141147,1,0,0:0:0:0:
256,192,141215,1,0,0:0:0:0:
36,192,141215,1,0,0:0:0:0:
475,192,141215,1,0,0:0:0:0:
402,192,141215,1,0,0:0:0:0:
109,192,141282,1,0,0:0:0:0:
182,192,141350,1,0,0:0:0:0:
256,192,141350,1,0,0:0:0:0:
402,192,141350,1,0,0:0:0:0:
329,192,141350,1,0,0:0:0:0:
36,192,141485,1,0,0:0:0:0:
475,192,141485,1,0,0:0:0:0:
109,192,141485,1,0,0:0:0:0:
329,192,141485,1,0,0:0:0:0:
256,192,141553,1,0,0:0:0:0:
182,192,141620,1,0,0:0:0:0:
475,192,141620,1,0,0:0:0:0:
402,192,141620,1,0,0:0:0:0:
109,192,141620,1,0,0:0:0:0:
329,192,141688,1,0,0:0:0:0:
36,192,141755,1,0,0:0:0:0:
256,192,141755,1,0,0:0:0:0:
109,192,141755,1,0,0:0:0:0:
475,192,141755,1,0,0:0:0:0:
402,192,141823,1,0,0:0:0:0:
182,192,141823,1,0,0:0:0:0:
256,192,141891,1,0,0:0:0:0:
109,192,141891,1,0,0:0:0:0:
36,192,141891,1,0,0:0:0:0:
329,192,141891,1,0,0:0:0:0:
402,192,142026,1,0,0:0:0:0:
182,192,142026,1,0,0:0:0:0:
256,192,142093,1,0,0:0:0:0:
475,192,142161,1,0,0:0:0:0:
36,192,142161,1,0,0:0:0:0:
329,192,142161,1,0,0:0:0:0:
109,192,142161,1,0,0:0:0:0:
182,192,142228,1,0,0:0:0:0:
475,192,142296,1,0,0:0:0:0:
402,192,142296,1,0,0:0:0:0:
256,192,142296,1,0,0:0:0:0:
36,192,142296,1,0,0:0:0:0:
182,192,142431,1,0,0:0:0:0:
329,192,142431,1,0,0:0:0:0:
36,192,142566,1,0,0:0:0:0:
109,192,142566,1,0,0:0:0:0:
475,192,142566,1,0,0:0:0:0:
256,192,142566,1,0,0:0:0:0:
329,192,142701,1,0,0:0:0:0:
182,192,142701,1,0,0:0:0:0:
402,192,142701,1,0,0:0:0:0:
36,192,142701,1,0,0:0:0:0:
256,192,142837,1,0,0:0:0:0:
109,192,142837,1,0,0:0:0:0:
402,192,142972,1,0,0:0:0:0:
329,192,142972,1,0,0:0:0:0:
182,192,142972,1,0,0:0:0:0:
475,192,142972,1,0,0:0:0:0:
36,192,143107,1,0,0:0:0:0:
256,192,143107,1,0,0:0:0:0:
109,192,143107,1,0,0:0:0:0:
475,192,143107,1,0,0:0:0:0:
402,192,143174,1,0,0:0:0:0:
182,192,143242,1,0,0:0:0:0:
329,192,143242,1,0,0:0:0:0:
109,192,143309,1,0,0:0:0:0:
36,192,143377,1,0,0:0:0:0:
329,192,143377,1,0,0:0:0:0:
475,192,143377,1,0,0:0:0:0:
256,192,143377,1,0,0:0:0:0:
402,192,143512,1,0,0:0:0:0:
36,192,143512,1,0,0:0:0:0:
475,192,143512,1,0,0:0:0:0:
109,192,143512,1,0,0:0:0:0:
182,192,143580,1,0,0:0:0:0:
256,192,143647,1,0,0:0:0:0:
402,192,143647,1,0,0:0:0:0:
109,192,143715,1,0,0:0:0:0:
182,192,143782,1,0,0:0:0:0:
329,192,143782,1,0,0:0:0:0:
36,192,143782,1,0,0:0:0:0:
475,192,143782,1,0,0:0:0:0:
475,192,143918,1,0,0:0:0:0:
36,192,143918,1,0,0:0:0:0:
329,192,143918,1,0,0:0:0:0:
182,192,143918,1,0,0:0:0:0:
475,192,144053,1,0,0:0:0:0:
36,192,144053,1,0,0:0:0:0:
402,192,144053,1,0,0:0:0:0:
256,192,144053,1,0,0:0:0:0:
402,192,144188,1,0,0:0:0:0:
109,192,144188,1,0,0:0:0:0:
182,192,144255,1,0,0:0:0:0:
475,192,144323,1,0,0:0:0:0:
329,192,144323,1,0,0:0:0:0:
182,192,144391,1,0,0:0:0:0:
402,192,144458,1,0,0:0:0:0:
475,192,144458,1,0,0:0:0:0:
36,192,144458,1,0,0:0:0:0:
256,192,144458,1,0,0:0:0:0:
182,192,144593,1,0,0:0:0:0:
402,192,144593,1,0,0:0:0:0:
329,192,144661,1,0,0:0:0:0:
109,192,144728,1,0,0:0:0:0:
182,192,144728,1,0,0:0:0:0:
329,192,144796,1,0,0:0:0:0:
109,192,144864,1,0,0:0:0:0:
36,192,144864,1,0,0:0:0:0:
256,192,144864,1,0,0:0:0:0:
475,192,144864,1,0,0:0:0:0:
402,192,144931,1,0,0:0:0:0:
36,192,144999,1,0,0:0:0:0:
329,192,144999,1,0,0:0:0:0:
182,192,145066,1,0,0:0:0:0:
36,192,145134,1,0,0:0:0:0:
109,192,145134,1,0,0:0:0:0:
329,192,145134,1,0,0:0:0:0:
475,192,145201,1,0,0:0:0:0:
402,192,145201,1,0,0:0:0:0:
182,192,145201,1,0,0:0:0:0:
256,192,145269,1,0,0:0:0:0:
329,192,145269,1,0,0:0:0:0:
109,192,145269,1,0,0:0:0:0:
36,192,145269,1,0,0:0:0:0:
402,192,145337,1,0,0:0:0:0:
475,192,145404,1,0,0:0:0:0:
182,192,145404,1,0,0:0:0:0:
109,192,145472,1,0,0:0:0:0:
256,192,145539,1,0,0:0:0:0:
36,192,145539,1,0,0:0:0:0:
475,192,145539,1,0,0:0:0:0:
329,192,145539,1,0,0:0:0:0:
329,192,145674,1,0,0:0:0:0:
109,192,145674,1,0,0:0:0:0:
256,192,145742,1,0,0:0:0:0:
402,192,145809,1,0,0:0:0:0:
475,192,145809,1,0,0:0:0:0:
36,192,145809,1,0,0:0:0:0:
182,192,145809,1,0,0:0:0:0:
329,192,145877,1,0,0:0:0:0:
36,192,145945,1,0,0:0:0:0:
256,192,145945,1,0,0:0:0:0:
109,192,145945,1,0,0:0:0:0:
475,192,145945,1,0,0:0:0:0:
109,192,146080,1,0,0:0:0:0:
256,192,146080,1,0,0:0:0:0:
475,192,146080,1,0,0:0:0:0:
36,192,146080,1,0,0:0:0:0:
109,192,146215,1,0,0:0:0:0:
402,192,146215,1,0,0:0:0:0:
329,192,146215,1,0,0:0:0:0:
182,192,146215,1,0,0:0:0:0:
402,192,146350,1,0,0:0:0:0:
475,192,146350,1,0,0:0:0:0:
36,192,146350,1,0,0:0:0:0:
256,192,146350,1,0,0:0:0:0:
256,192,146485,1,0,0:0:0:0:
36,192,146485,1,0,0:0:0:0:
475,192,146485,1,0,0:0:0:0:
402,192,146485,1,0,0:0:0:0:
109,192,146620,1,0,0:0:0:0:
402,192,146620,1,0,0:0:0:0:
329,192,146620,1,0,0:0:0:0:
182,192,146620,1,0,0:0:0:0:
36,192,146755,5,0,0:0:0:0:
475,192,146755,1,0,0:0:0:0:
402,192,146755,1,0,0:0:0:0:
109,192,146789,1,0,0:0:0:0:
182,192,146823,1,0,0:0:0:0:
329,192,146857,1,0,0:0:0:0:
256,192,146891,1,0,0:0:0:0:
109,192,146891,1,0,0:0:0:0:
475,192,146891,1,0,0:0:0:0:
36,192,146891,1,0,0:0:0:0:
402,192,146924,1,0,0:0:0:0:
329,192,146958,1,0,0:0:0:0:
182,192,146992,1,0,0:0:0:0:
402,192,147026,1,0,0:0:0:0:
109,192,147026,1,0,0:0:0:0:
475,192,147026,1,0,0:0:0:0:
256,192,147026,1,0,0:0:0:0:
36,192,147026,1,0,0:0:0:0:
475,192,147431,1,0,0:0:0:0:
182,192,147431,1,0,0:0:0:0:
402,192,147431,1,0,0:0:0:0:
109,192,147431,1,0,0:0:0:0:
109,192,147701,1,0,0:0:0:0:
182,192,147701,1,0,0:0:0:0:
402,192,147701,1,0,0:0:0:0:
475,192,147701,1,0,0:0:0:0:
182,192,148107,1,0,0:0:0:0:
109,192,148107,1,0,0:0:0:0:
402,192,148107,1,0,0:0:0:0:
475,192,148107,1,0,0:0:0:0:
475,192,148242,1,0,0:0:0:0:
182,192,148242,1,0,0:0:0:0:
109,192,148242,1,0,0:0:0:0:
402,192,148242,1,0,0:0:0:0:
182,192,148377,1,0,0:0:0:0:
109,192,148377,1,0,0:0:0:0:
402,192,148377,1,0,0:0:0:0:
475,192,148377,1,0,0:0:0:0:
402,192,148782,1,0,0:0:0:0:
475,192,148782,1,0,0:0:0:0:
109,192,148782,1,0,0:0:0:0:
182,192,148782,1,0,0:0:0:0:
475,192,149188,1,0,0:0:0:0:
402,192,149188,1,0,0:0:0:0:
109,192,149188,1,0,0:0:0:0:
182,192,149188,1,0,0:0:0:0:
402,192,149458,1,0,0:0:0:0:
475,192,149458,1,0,0:0:0:0:
182,192,149458,1,0,0:0:0:0:
109,192,149458,1,0,0:0:0:0:
329,192,149526,1,0,0:0:0:0:
256,192,149526,1,0,0:0:0:0:
36,192,149526,1,0,0:0:0:0:
182,192,149593,1,0,0:0:0:0:
109,192,149593,1,0,0:0:0:0:
402,192,149593,1,0,0:0:0:0:
475,192,149593,1,0,0:0:0:0:
475,192,149864,1,0,0:0:0:0:
109,192,149864,1,0,0:0:0:0:
182,192,149864,1,0,0:0:0:0:
402,192,149864,1,0,0:0:0:0:
475,192,150134,1,0,0:0:0:0:
109,192,150134,1,0,0:0:0:0:
402,192,150134,1,0,0:0:0:0:
182,192,150134,1,0,0:0:0:0:
475,192,150269,1,0,0:0:0:0:
109,192,150269,1,0,0:0:0:0:
402,192,150269,1,0,0:0:0:0:
182,192,150269,1,0,0:0:0:0:
109,192,150404,1,0,0:0:0:0:
182,192,150404,1,0,0:0:0:0:
402,192,150404,1,0,0:0:0:0:
475,192,150404,1,0,0:0:0:0:
475,192,150809,1,0,0:0:0:0:
402,192,150809,1,0,0:0:0:0:
109,192,150809,1,0,0:0:0:0:
182,192,150809,1,0,0:0:0:0:
475,192,151215,1,0,0:0:0:0:
109,192,151215,1,0,0:0:0:0:
182,192,151215,1,0,0:0:0:0:
402,192,151215,1,0,0:0:0:0:
329,192,151350,1,0,0:0:0:0:
36,192,151350,1,0,0:0:0:0:
109,192,151350,1,0,0:0:0:0:
402,192,151350,1,0,0:0:0:0:
402,192,151755,1,0,0:0:0:0:
109,192,151755,1,0,0:0:0:0:
329,192,151755,1,0,0:0:0:0:
36,192,151755,1,0,0:0:0:0:
329,192,152026,1,0,0:0:0:0:
402,192,152026,1,0,0:0:0:0:
109,192,152026,1,0,0:0:0:0:
36,192,152026,1,0,0:0:0:0:
402,192,152431,1,0,0:0:0:0:
36,192,152431,1,0,0:0:0:0:
109,192,152431,1,0,0:0:0:0:
329,192,152431,1,0,0:0:0:0:
109,192,152566,1,0,0:0:0:0:
36,192,152566,1,0,0:0:0:0:
402,192,152566,1,0,0:0:0:0:
329,192,152566,1,0,0:0:0:0:
402,192,152701,1,0,0:0:0:0:
329,192,152701,1,0,0:0:0:0:
109,192,152701,1,0,0:0:0:0:
36,192,152701,1,0,0:0:0:0:
329,192,153107,1,0,0:0:0:0:
109,192,153107,1,0,0:0:0:0:
36,192,153107,1,0,0:0:0:0:
402,192,153107,1,0,0:0:0:0:
329,192,153512,1,0,0:0:0:0:
402,192,153512,1,0,0:0:0:0:
109,192,153512,1,0,0:0:0:0:
36,192,153512,1,0,0:0:0:0:
109,192,153782,1,0,0:0:0:0:
402,192,153782,1,0,0:0:0:0:
329,192,153782,1,0,0:0:0:0:
36,192,153782,1,0,0:0:0:0:
256,192,153850,1,0,0:0:0:0:
475,192,153850,1,0,0:0:0:0:
182,192,153850,1,0,0:0:0:0:
109,192,153918,1,0,0:0:0:0:
329,192,153918,1,0,0:0:0:0:
36,192,153918,1,0,0:0:0:0:
402,192,153918,1,0,0:0:0:0:
329,192,154188,1,0,0:0:0:0:
109,192,154188,1,0,0:0:0:0:
402,192,154188,1,0,0:0:0:0:
36,192,154188,1,0,0:0:0:0:
402,192,154458,1,0,0:0:0:0:
109,192,154458,1,0,0:0:0:0:
329,192,154458,1,0,0:0:0:0:
36,192,154458,1,0,0:0:0:0:
329,192,154593,1,0,0:0:0:0:
109,192,154593,1,0,0:0:0:0:
402,192,154593,1,0,0:0:0:0:
36,192,154593,1,0,0:0:0:0:
36,192,154728,1,0,0:0:0:0:
109,192,154728,1,0,0:0:0:0:
402,192,154728,1,0,0:0:0:0:
329,192,154728,1,0,0:0:0:0:
109,192,155134,1,0,0:0:0:0:
329,192,155134,1,0,0:0:0:0:
36,192,155134,1,0,0:0:0:0:
402,192,155134,1,0,0:0:0:0:
36,192,155539,1,0,0:0:0:0:
329,192,155539,1,0,0:0:0:0:
402,192,155539,1,0,0:0:0:0:
109,192,155539,1,0,0:0:0:0:
475,192,155674,1,0,0:0:0:0:
182,192,155674,1,0,0:0:0:0:
109,192,155674,1,0,0:0:0:0:
329,192,155674,1,0,0:0:0:0:
109,192,156080,1,0,0:0:0:0:
329,192,156080,1,0,0:0:0:0:
475,192,156080,1,0,0:0:0:0:
182,192,156080,1,0,0:0:0:0:
475,192,156350,1,0,0:0:0:0:
329,192,156350,1,0,0:0:0:0:
109,192,156350,1,0,0:0:0:0:
182,192,156350,1,0,0:0:0:0:
329,192,156755,1,0,0:0:0:0:
109,192,156755,1,0,0:0:0:0:
475,192,156755,1,0,0:0:0:0:
182,192,156755,1,0,0:0:0:0:
475,192,156891,1,0,0:0:0:0:
182,192,156891,1,0,0:0:0:0:
329,192,156891,1,0,0:0:0:0:
109,192,156891,1,0,0:0:0:0:
329,192,157026,1,0,0:0:0:0:
182,192,157026,1,0,0:0:0:0:
109,192,157026,1,0,0:0:0:0:
475,192,157026,1,0,0:0:0:0:
329,192,157431,1,0,0:0:0:0:
109,192,157431,1,0,0:0:0:0:
182,192,157431,1,0,0:0:0:0:
475,192,157431,1,0,0:0:0:0:
109,192,157837,1,0,0:0:0:0:
475,192,157837,1,0,0:0:0:0:
182,192,157837,1,0,0:0:0:0:
329,192,157837,1,0,0:0:0:0:
182,192,158107,1,0,0:0:0:0:
109,192,158107,1,0,0:0:0:0:
475,192,158107,1,0,0:0:0:0:
329,192,158107,1,0,0:0:0:0:
36,192,158174,1,0,0:0:0:0:
402,192,158174,1,0,0:0:0:0:
256,192,158174,1,0,0:0:0:0:
329,192,158242,1,0,0:0:0:0:
182,192,158242,1,0,0:0:0:0:
475,192,158242,1,0,0:0:0:0:
109,192,158242,1,0,0:0:0:0:
329,192,158512,1,0,0:0:0:0:
475,192,158512,1,0,0:0:0:0:
109,192,158512,1,0,0:0:0:0:
182,192,158512,1,0,0:0:0:0:
329,192,158782,1,0,0:0:0:0:
475,192,158782,1,0,0:0:0:0:
182,192,158782,1,0,0:0:0:0:
109,192,158782,1,0,0:0:0:0:
329,192,158918,1,0,0:0:0:0:
109,192,158918,1,0,0:0:0:0:
182,192,158918,1,0,0:0:0:0:
475,192,158918,1,0,0:0:0:0:
475,192,159053,1,0,0:0:0:0:
329,192,159053,1,0,0:0:0:0:
109,192,159053,1,0,0:0:0:0:
182,192,159053,1,0,0:0:0:0:
182,192,159458,1,0,0:0:0:0:
475,192,159458,1,0,0:0:0:0:
109,192,159458,1,0,0:0:0:0:
329,192,159458,1,0,0:0:0:0:
329,192,159864,1,0,0:0:0:0:
475,192,159864,1,0,0:0:0:0:
182,192,159864,1,0,0:0:0:0:
109,192,159864,1,0,0:0:0:0:
36,192,159999,1,0,0:0:0:0:
182,192,159999,1,0,0:0:0:0:
329,192,159999,1,0,0:0:0:0:
402,192,159999,1,0,0:0:0:0:
182,192,160404,1,0,0:0:0:0:
36,192,160404,1,0,0:0:0:0:
402,192,160404,1,0,0:0:0:0:
329,192,160404,1,0,0:0:0:0:
182,192,160674,1,0,0:0:0:0:
402,192,160674,1,0,0:0:0:0:
329,192,160674,1,0,0:0:0:0:
36,192,160674,1,0,0:0:0:0:
329,192,161080,1,0,0:0:0:0:
402,192,161080,1,0,0:0:0:0:
36,192,161080,1,0,0:0:0:0:
182,192,161080,1,0,0:0:0:0:
182,192,161215,1,0,0:0:0:0:
36,192,161215,1,0,0:0:0:0:
402,192,161215,1,0,0:0:0:0:
329,192,161215,1,0,0:0:0:0:
36,192,161350,1,0,0:0:0:0:
329,192,161350,1,0,0:0:0:0:
402,192,161350,1,0,0:0:0:0:
182,192,161350,1,0,0:0:0:0:
402,192,161755,1,0,0:0:0:0:
36,192,161755,1,0,0:0:0:0:
329,192,161755,1,0,0:0:0:0:
182,192,161755,1,0,0:0:0:0:
36,192,162161,1,0,0:0:0:0:
402,192,162161,1,0,0:0:0:0:
182,192,162161,1,0,0:0:0:0:
329,192,162161,1,0,0:0:0:0:
182,192,162431,1,0,0:0:0:0:
329,192,162431,1,0,0:0:0:0:
36,192,162431,1,0,0:0:0:0:
402,192,162431,1,0,0:0:0:0:
475,192,162499,1,0,0:0:0:0:
256,192,162499,1,0,0:0:0:0:
109,192,162499,1,0,0:0:0:0:
329,192,162566,1,0,0:0:0:0:
402,192,162566,1,0,0:0:0:0:
182,192,162566,1,0,0:0:0:0:
36,192,162566,1,0,0:0:0:0:
182,192,162837,1,0,0:0:0:0:
402,192,162837,1,0,0:0:0:0:
36,192,162837,1,0,0:0:0:0:
329,192,162837,1,0,0:0:0:0:
329,192,163107,1,0,0:0:0:0:
402,192,163107,1,0,0:0:0:0:
182,192,163107,1,0,0:0:0:0:
36,192,163107,1,0,0:0:0:0:
36,192,163242,1,0,0:0:0:0:
182,192,163242,1,0,0:0:0:0:
329,192,163242,1,0,0:0:0:0:
402,192,163242,1,0,0:0:0:0:
182,192,163377,1,0,0:0:0:0:
329,192,163377,1,0,0:0:0:0:
36,192,163377,1,0,0:0:0:0:
402,192,163377,1,0,0:0:0:0:
329,192,163782,1,0,0:0:0:0:
182,192,163782,1,0,0:0:0:0:
36,192,163782,1,0,0:0:0:0:
402,192,163782,1,0,0:0:0:0:
329,192,164053,1,0,0:0:0:0:
36,192,164053,1,0,0:0:0:0:
402,192,164087,1,0,0:0:0:0:
109,192,164087,1,0,0:0:0:0:
475,192,164120,1,0,0:0:0:0:
182,192,164120,1,0,0:0:0:0:
256,192,164154,1,0,0:0:0:0:
329,192,164188,1,0,0:0:0:0:
36,192,164188,1,0,0:0:0:0:
402,192,164222,1,0,0:0:0:0:
109,192,164222,1,0,0:0:0:0:
182,192,164255,1,0,0:0:0:0:
475,192,164255,1,0,0:0:0:0:
256,192,164289,1,0,0:0:0:0:
402,192,164323,1,0,0:0:0:0:
109,192,164323,1,0,0:0:0:0:
329,192,164323,1,0,0:0:0:0:
36,192,164323,1,0,0:0:0:0:
329,192,164458,1,0,0:0:0:0:
182,192,164458,1,0,0:0:0:0:
256,192,164593,1,0,0:0:0:0:
109,192,164593,1,0,0:0:0:0:
402,192,164593,1,0,0:0:0:0:
475,192,164593,1,0,0:0:0:0:
329,192,164728,1,0,0:0:0:0:
256,192,164728,1,0,0:0:0:0:
402,192,164728,1,0,0:0:0:0:
36,192,164728,1,0,0:0:0:0:
109,192,164728,1,0,0:0:0:0:
182,192,164796,1,0,0:0:0:0:
475,192,164864,1,0,0:0:0:0:
329,192,164864,1,0,0:0:0:0:
182,192,164931,1,0,0:0:0:0:
475,192,164999,1,0,0:0:0:0:
36,192,164999,1,0,0:0:0:0:
402,192,164999,1,0,0:0:0:0:
256,192,164999,1,0,0:0:0:0:
109,192,164999,1,0,0:0:0:0:
182,192,165134,1,0,0:0:0:0:
329,192,165134,1,0,0:0:0:0:
109,192,165201,1,0,0:0:0:0:
402,192,165269,1,0,0:0:0:0:
256,192,165269,1,0,0:0:0:0:
182,192,165337,1,0,0:0:0:0:
475,192,165404,1,0,0:0:0:0:
402,192,165404,1,0,0:0:0:0:
36,192,165404,1,0,0:0:0:0:
109,192,165404,1,0,0:0:0:0:
329,192,165472,1,0,0:0:0:0:
36,192,165539,1,0,0:0:0:0:
402,192,165539,1,0,0:0:0:0:
475,192,165539,1,0,0:0:0:0:
109,192,165539,1,0,0:0:0:0:
329,192,165607,1,0,0:0:0:0:
36,192,165674,1,0,0:0:0:0:
182,192,165674,1,0,0:0:0:0:
256,192,165674,1,0,0:0:0:0:
402,192,165674,1,0,0:0:0:0:
475,192,165674,1,0,0:0:0:0:
109,192,165809,1,0,0:0:0:0:
329,192,165809,1,0,0:0:0:0:
402,192,165877,1,0,0:0:0:0:
36,192,165945,1,0,0:0:0:0:
182,192,165945,1,0,0:0:0:0:
329,192,166012,1,0,0:0:0:0:
402,192,166080,1,0,0:0:0:0:
475,192,166080,1,0,0:0:0:0:
256,192,166080,1,0,0:0:0:0:
36,192,166080,1,0,0:0:0:0:
109,192,166080,1,0,0:0:0:0:
182,192,166215,1,0,0:0:0:0:
329,192,166215,1,0,0:0:0:0:
109,192,166282,1,0,0:0:0:0:
329,192,166350,1,0,0:0:0:0:
36,192,166350,1,0,0:0:0:0:
475,192,166350,1,0,0:0:0:0:
256,192,166350,1,0,0:0:0:0:
402,192,166485,1,0,0:0:0:0:
475,192,166485,1,0,0:0:0:0:
36,192,166485,1,0,0:0:0:0:
109,192,166485,1,0,0:0:0:0:
182,192,166553,1,0,0:0:0:0:
329,192,166620,1,0,0:0:0:0:
256,192,166620,1,0,0:0:0:0:
109,192,166688,1,0,0:0:0:0:
475,192,166755,1,0,0:0:0:0:
329,192,166755,1,0,0:0:0:0:
182,192,166755,1,0,0:0:0:0:
402,192,166755,1,0,0:0:0:0:
36,192,166823,1,0,0:0:0:0:
109,192,166823,1,0,0:0:0:0:
256,192,166823,1,0,0:0:0:0:
402,192,166891,1,0,0:0:0:0:
475,192,166891,1,0,0:0:0:0:
182,192,166891,1,0,0:0:0:0:
329,192,166891,1,0,0:0:0:0:
36,192,167026,1,0,0:0:0:0:
256,192,167026,1,0,0:0:0:0:
329,192,167093,1,0,0:0:0:0:
182,192,167161,1,0,0:0:0:0:
109,192,167161,1,0,0:0:0:0:
475,192,167161,1,0,0:0:0:0:
36,192,167161,1,0,0:0:0:0:
402,192,167161,1,0,0:0:0:0:
256,192,167228,1,0,0:0:0:0:
329,192,167296,1,0,0:0:0:0:
109,192,167296,1,0,0:0:0:0:
402,192,167296,1,0,0:0:0:0:
475,192,167296,1,0,0:0:0:0:
329,192,167431,1,0,0:0:0:0:
475,192,167431,1,0,0:0:0:0:
256,192,167431,1,0,0:0:0:0:
36,192,167431,1,0,0:0:0:0:
182,192,167499,1,0,0:0:0:0:
402,192,167566,1,0,0:0:0:0:
329,192,167566,1,0,0:0:0:0:
109,192,167566,1,0,0:0:0:0:
36,192,167566,1,0,0:0:0:0:
256,192,167634,1,0,0:0:0:0:
475,192,167701,1,0,0:0:0:0:
182,192,167701,1,0,0:0:0:0:
36,192,167701,1,0,0:0:0:0:
402,192,167701,1,0,0:0:0:0:
109,192,167769,1,0,0:0:0:0:
329,192,167769,1,0,0:0:0:0:
182,192,167837,1,0,0:0:0:0:
256,192,167837,1,0,0:0:0:0:
475,192,167837,1,0,0:0:0:0:
402,192,167837,1,0,0:0:0:0:
329,192,167972,1,0,0:0:0:0:
36,192,167972,1,0,0:0:0:0:
182,192,168039,1,0,0:0:0:0:
329,192,168107,1,0,0:0:0:0:
36,192,168107,1,0,0:0:0:0:
475,192,168107,1,0,0:0:0:0:
256,192,168107,1,0,0:0:0:0:
109,192,168174,1,0,0:0:0:0:
182,192,168242,1,0,0:0:0:0:
475,192,168242,1,0,0:0:0:0:
402,192,168242,1,0,0:0:0:0:
329,192,168242,1,0,0:0:0:0:
256,192,168377,1,0,0:0:0:0:
402,192,168377,1,0,0:0:0:0:
475,192,168512,1,0,0:0:0:0:
36,192,168512,1,0,0:0:0:0:
329,192,168512,1,0,0:0:0:0:
182,192,168512,1,0,0:0:0:0:
109,192,168512,1,0,0:0:0:0:
402,192,168647,1,0,0:0:0:0:
475,192,168647,1,0,0:0:0:0:
36,192,168647,1,0,0:0:0:0:
256,192,168647,1,0,0:0:0:0:
109,192,168647,1,0,0:0:0:0:
329,192,168782,1,0,0:0:0:0:
182,192,168782,1,0,0:0:0:0:
256,192,168918,1,0,0:0:0:0:
36,192,168918,1,0,0:0:0:0:
402,192,168918,1,0,0:0:0:0:
475,192,168918,1,0,0:0:0:0:
182,192,169053,1,0,0:0:0:0:
109,192,169053,1,0,0:0:0:0:
329,192,169053,1,0,0:0:0:0:
36,192,169053,1,0,0:0:0:0:
475,192,169053,1,0,0:0:0:0:
402,192,169120,1,0,0:0:0:0:
256,192,169188,1,0,0:0:0:0:
109,192,169188,1,0,0:0:0:0:
329,192,169255,1,0,0:0:0:0:
402,192,169323,1,0,0:0:0:0:
475,192,169323,1,0,0:0:0:0:
256,192,169323,1,0,0:0:0:0:
182,192,169323,1,0,0:0:0:0:
36,192,169323,1,0,0:0:0:0:
109,192,169458,1,0,0:0:0:0:
36,192,169458,1,0,0:0:0:0:
329,192,169458,1,0,0:0:0:0:
475,192,169458,1,0,0:0:0:0:
182,192,169526,1,0,0:0:0:0:
402,192,169593,1,0,0:0:0:0:
256,192,169593,1,0,0:0:0:0:
182,192,169661,1,0,0:0:0:0:
329,192,169728,1,0,0:0:0:0:
475,192,169728,1,0,0:0:0:0:
36,192,169728,1,0,0:0:0:0:
109,192,169728,1,0,0:0:0:0:
109,192,169864,1,0,0:0:0:0:
36,192,169864,1,0,0:0:0:0:
329,192,169864,1,0,0:0:0:0:
475,192,169864,1,0,0:0:0:0:
402,192,169999,1,0,0:0:0:0:
256,192,169999,1,0,0:0:0:0:
475,192,169999,1,0,0:0:0:0:
36,192,169999,1,0,0:0:0:0:
182,192,169999,1,0,0:0:0:0:
256,192,170134,1,0,0:0:0:0:
109,192,170134,1,0,0:0:0:0:
329,192,170201,1,0,0:0:0:0:
182,192,170269,1,0,0:0:0:0:
475,192,170269,1,0,0:0:0:0:
329,192,170337,1,0,0:0:0:0:
475,192,170404,1,0,0:0:0:0:
256,192,170404,1,0,0:0:0:0:
402,192,170404,1,0,0:0:0:0:
36,192,170404,1,0,0:0:0:0:
109,192,170404,1,0,0:0:0:0:
182,192,170539,1,0,0:0:0:0:
402,192,170539,1,0,0:0:0:0:
36,192,170607,1,0,0:0:0:0:
329,192,170674,1,0,0:0:0:0:
182,192,170674,1,0,0:0:0:0:
109,192,170674,1,0,0:0:0:0:
475,192,170674,1,0,0:0:0:0:
256,192,170742,1,0,0:0:0:0:
475,192,170809,1,0,0:0:0:0:
109,192,170809,1,0,0:0:0:0:
36,192,170809,1,0,0:0:0:0:
402,192,170809,1,0,0:0:0:0:
329,192,170877,1,0,0:0:0:0:
182,192,170945,1,0,0:0:0:0:
475,192,170945,1,0,0:0:0:0:
402,192,171012,1,0,0:0:0:0:
182,192,171080,1,0,0:0:0:0:
109,192,171080,1,0,0:0:0:0:
329,192,171080,1,0,0:0:0:0:
36,192,171080,1,0,0:0:0:0:
402,192,171147,1,0,0:0:0:0:
475,192,171147,1,0,0:0:0:0:
256,192,171147,1,0,0:0:0:0:
109,192,171215,1,0,0:0:0:0:
329,192,171215,1,0,0:0:0:0:
182,192,171215,1,0,0:0:0:0:
36,192,171215,1,0,0:0:0:0:
475,192,171282,1,0,0:0:0:0:
256,192,171350,1,0,0:0:0:0:
109,192,171350,1,0,0:0:0:0:
402,192,171418,1,0,0:0:0:0:
182,192,171485,1,0,0:0:0:0:
36,192,171485,1,0,0:0:0:0:
329,192,171485,1,0,0:0:0:0:
475,192,171485,1,0,0:0:0:0:
256,192,171485,1,0,0:0:0:0:
402,192,171620,1,0,0:0:0:0:
109,192,171620,1,0,0:0:0:0:
256,192,171688,1,0,0:0:0:0:
402,192,171755,1,0,0:0:0:0:
475,192,171755,1,0,0:0:0:0:
182,192,171755,1,0,0:0:0:0:
36,192,171755,1,0,0:0:0:0:
329,192,171823,1,0,0:0:0:0:
109,192,171891,1,0,0:0:0:0:
36,192,171891,1,0,0:0:0:0:
402,192,171891,1,0,0:0:0:0:
256,192,171891,1,0,0:0:0:0:
256,192,172026,1,0,0:0:0:0:
402,192,172026,1,0,0:0:0:0:
36,192,172026,1,0,0:0:0:0:
109,192,172026,1,0,0:0:0:0:
329,192,172161,1,0,0:0:0:0:
475,192,172161,1,0,0:0:0:0:
182,192,172161,1,0,0:0:0:0:
36,192,172161,1,0,0:0:0:0:
475,192,172296,1,0,0:0:0:0:
402,192,172296,1,0,0:0:0:0:
109,192,172296,1,0,0:0:0:0:
256,192,172296,1,0,0:0:0:0:
402,192,172431,1,0,0:0:0:0:
475,192,172431,1,0,0:0:0:0:
109,192,172431,1,0,0:0:0:0:
256,192,172431,1,0,0:0:0:0:
329,192,172566,1,0,0:0:0:0:
475,192,172566,1,0,0:0:0:0:
182,192,172566,1,0,0:0:0:0:
36,192,172566,1,0,0:0:0:0:
329,192,172701,1,0,0:0:0:0:
109,192,172701,1,0,0:0:0:0:
36,192,172769,1,0,0:0:0:0:
182,192,172837,1,0,0:0:0:0:
256,192,172837,1,0,0:0:0:0:
475,192,172837,1,0,0:0:0:0:
402,192,172837,1,0,0:0:0:0:
329,192,172904,1,0,0:0:0:0:
36,192,172904,1,0,0:0:0:0:
109,192,172904,1,0,0:0:0:0:
256,192,172972,1,0,0:0:0:0:
182,192,172972,1,0,0:0:0:0:
402,192,172972,1,0,0:0:0:0:
475,192,172972,1,0,0:0:0:0:
329,192,173107,1,0,0:0:0:0:
182,192,173107,1,0,0:0:0:0:
402,192,173242,1,0,0:0:0:0:
109,192,173242,1,0,0:0:0:0:
475,192,173242,1,0,0:0:0:0:
256,192,173242,1,0,0:0:0:0:
109,192,173377,1,0,0:0:0:0:
402,192,173377,1,0,0:0:0:0:
475,192,173377,1,0,0:0:0:0:
329,192,173377,1,0,0:0:0:0:
36,192,173377,1,0,0:0:0:0:
182,192,173445,1,0,0:0:0:0:
402,192,173512,1,0,0:0:0:0:
256,192,173512,1,0,0:0:0:0:
109,192,173580,1,0,0:0:0:0:
475,192,173647,1,0,0:0:0:0:
256,192,173647,1,0,0:0:0:0:
36,192,173647,1,0,0:0:0:0:
182,192,173647,1,0,0:0:0:0:
329,192,173647,1,0,0:0:0:0:
402,192,173782,1,0,0:0:0:0:
109,192,173782,1,0,0:0:0:0:
329,192,173850,1,0,0:0:0:0:
182,192,173918,1,0,0:0:0:0:
36,192,173918,1,0,0:0:0:0:
329,192,173985,1,0,0:0:0:0:
36,192,174053,1,0,0:0:0:0:
109,192,174053,1,0,0:0:0:0:
402,192,174053,1,0,0:0:0:0:
475,192,174053,1,0,0:0:0:0:
182,192,174120,1,0,0:0:0:0:
402,192,174188,1,0,0:0:0:0:
36,192,174188,1,0,0:0:0:0:
109,192,174188,1,0,0:0:0:0:
475,192,174188,1,0,0:0:0:0:
182,192,174255,1,0,0:0:0:0:
329,192,174323,1,0,0:0:0:0:
256,192,174323,1,0,0:0:0:0:
109,192,174323,1,0,0:0:0:0:
36,192,174323,1,0,0:0:0:0:
475,192,174323,1,0,0:0:0:0:
182,192,174458,1,0,0:0:0:0:
329,192,174458,1,0,0:0:0:0:
475,192,174526,1,0,0:0:0:0:
256,192,174593,1,0,0:0:0:0:
109,192,174593,1,0,0:0:0:0:
402,192,174661,1,0,0:0:0:0:
182,192,174728,1,0,0:0:0:0:
256,192,174728,1,0,0:0:0:0:
329,192,174728,1,0,0:0:0:0:
36,192,174728,1,0,0:0:0:0:
475,192,174728,1,0,0:0:0:0:
402,192,174864,1,0,0:0:0:0:
109,192,174864,1,0,0:0:0:0:
182,192,174931,1,0,0:0:0:0:
329,192,174999,1,0,0:0:0:0:
36,192,174999,1,0,0:0:0:0:
475,192,174999,1,0,0:0:0:0:
256,192,174999,1,0,0:0:0:0:
36,192,175134,1,0,0:0:0:0:
182,192,175134,1,0,0:0:0:0:
475,192,175134,1,0,0:0:0:0:
402,192,175134,1,0,0:0:0:0:
329,192,175201,1,0,0:0:0:0:
109,192,175269,1,0,0:0:0:0:
256,192,175269,1,0,0:0:0:0:
475,192,175337,1,0,0:0:0:0:
182,192,175404,1,0,0:0:0:0:
36,192,175404,1,0,0:0:0:0:
329,192,175404,1,0,0:0:0:0:
109,192,175404,1,0,0:0:0:0:
475,192,175472,1,0,0:0:0:0:
256,192,175472,1,0,0:0:0:0:
402,192,175472,1,0,0:0:0:0:
109,192,175539,1,0,0:0:0:0:
182,192,175539,1,0,0:0:0:0:
329,192,175539,1,0,0:0:0:0:
36,192,175539,1,0,0:0:0:0:
402,192,175674,1,0,0:0:0:0:
256,192,175674,1,0,0:0:0:0:
182,192,175742,1,0,0:0:0:0:
475,192,175809,1,0,0:0:0:0:
36,192,175809,1,0,0:0:0:0:
109,192,175809,1,0,0:0:0:0:
329,192,175809,1,0,0:0:0:0:
402,192,175809,1,0,0:0:0:0:
256,192,175877,1,0,0:0:0:0:
475,192,175945,1,0,0:0:0:0:
182,192,175945,1,0,0:0:0:0:
36,192,175945,1,0,0:0:0:0:
402,192,175945,1,0,0:0:0:0:
182,192,176080,1,0,0:0:0:0:
475,192,176080,1,0,0:0:0:0:
256,192,176080,1,0,0:0:0:0:
109,192,176080,1,0,0:0:0:0:
402,192,176147,1,0,0:0:0:0:
109,192,176215,1,0,0:0:0:0:
36,192,176215,1,0,0:0:0:0:
182,192,176215,1,0,0:0:0:0:
329,192,176215,1,0,0:0:0:0:
475,192,176282,1,0,0:0:0:0:
329,192,176350,1,0,0:0:0:0:
256,192,176350,1,0,0:0:0:0:
36,192,176350,1,0,0:0:0:0:
109,192,176350,1,0,0:0:0:0:
402,192,176418,1,0,0:0:0:0:
182,192,176418,1,0,0:0:0:0:
256,192,176485,1,0,0:0:0:0:
329,192,176485,1,0,0:0:0:0:
475,192,176485,1,0,0:0:0:0:
36,192,176485,1,0,0:0:0:0:
109,192,176620,1,0,0:0:0:0:
402,192,176620,1,0,0:0:0:0:
256,192,176688,1,0,0:0:0:0:
475,192,176755,1,0,0:0:0:0:
109,192,176755,1,0,0:0:0:0:
36,192,176755,1,0,0:0:0:0:
329,192,176755,1,0,0:0:0:0:
182,192,176823,1,0,0:0:0:0:
256,192,176891,1,0,0:0:0:0:
475,192,176891,1,0,0:0:0:0:
402,192,176891,1,0,0:0:0:0:
36,192,176891,1,0,0:0:0:0:
182,192,177026,1,0,0:0:0:0:
329,192,177026,1,0,0:0:0:0:
109,192,177161,1,0,0:0:0:0:
36,192,177161,1,0,0:0:0:0:
256,192,177161,1,0,0:0:0:0:
402,192,177161,1,0,0:0:0:0:
475,192,177161,1,0,0:0:0:0:
329,192,177296,1,0,0:0:0:0:
475,192,177296,1,0,0:0:0:0:
402,192,177296,1,0,0:0:0:0:
182,192,177296,1,0,0:0:0:0:
36,192,177296,1,0,0:0:0:0:
329,192,177431,1,0,0:0:0:0:
109,192,177431,1,0,0:0:0:0:
256,192,177566,1,0,0:0:0:0:
402,192,177566,1,0,0:0:0:0:
475,192,177566,1,0,0:0:0:0:
182,192,177566,1,0,0:0:0:0:
475,192,177701,1,0,0:0:0:0:
256,192,177701,1,0,0:0:0:0:
36,192,177701,1,0,0:0:0:0:
109,192,177701,1,0,0:0:0:0:
329,192,177701,1,0,0:0:0:0:
182,192,177769,1,0,0:0:0:0:
329,192,177837,1,0,0:0:0:0:
402,192,177837,1,0,0:0:0:0:
182,192,177904,1,0,0:0:0:0:
36,192,177972,1,0,0:0:0:0:
256,192,177972,1,0,0:0:0:0:
109,192,177972,1,0,0:0:0:0:
402,192,177972,1,0,0:0:0:0:
475,192,177972,1,0,0:0:0:0:
329,192,178107,1,0,0:0:0:0:
36,192,178107,1,0,0:0:0:0:
182,192,178107,1,0,0:0:0:0:
475,192,178107,1,0,0:0:0:0:
402,192,178174,1,0,0:0:0:0:
256,192,178242,1,0,0:0:0:0:
109,192,178242,1,0,0:0:0:0:
329,192,178309,1,0,0:0:0:0:
402,192,178377,1,0,0:0:0:0:
182,192,178377,1,0,0:0:0:0:
475,192,178377,1,0,0:0:0:0:
36,192,178377,1,0,0:0:0:0:
475,192,178512,1,0,0:0:0:0:
402,192,178512,1,0,0:0:0:0:
36,192,178512,1,0,0:0:0:0:
182,192,178512,1,0,0:0:0:0:
475,192,178647,1,0,0:0:0:0:
109,192,178647,1,0,0:0:0:0:
36,192,178647,1,0,0:0:0:0:
329,192,178647,1,0,0:0:0:0:
256,192,178647,1,0,0:0:0:0:
329,192,178782,1,0,0:0:0:0:
182,192,178782,1,0,0:0:0:0:
109,192,178850,1,0,0:0:0:0:
402,192,178918,1,0,0:0:0:0:
256,192,178918,1,0,0:0:0:0:
109,192,178985,1,0,0:0:0:0:
256,192,179053,1,0,0:0:0:0:
329,192,179053,1,0,0:0:0:0:
182,192,179053,1,0,0:0:0:0:
475,192,179053,1,0,0:0:0:0:
36,192,179053,1,0,0:0:0:0:
109,192,179188,1,0,0:0:0:0:
402,192,179188,1,0,0:0:0:0:
329,192,179255,1,0,0:0:0:0:
475,192,179323,1,0,0:0:0:0:
182,192,179323,1,0,0:0:0:0:
402,192,179323,1,0,0:0:0:0:
36,192,179323,1,0,0:0:0:0:
256,192,179391,1,0,0:0:0:0:
109,192,179458,1,0,0:0:0:0:
36,192,179458,1,0,0:0:0:0:
329,192,179458,1,0,0:0:0:0:
475,192,179458,1,0,0:0:0:0:
182,192,179526,1,0,0:0:0:0:
256,192,179593,1,0,0:0:0:0:
402,192,179593,1,0,0:0:0:0:
109,192,179661,1,0,0:0:0:0:
182,192,179728,1,0,0:0:0:0:
475,192,179728,1,0,0:0:0:0:
329,192,179728,1,0,0:0:0:0:
402,192,179728,1,0,0:0:0:0:
36,192,179796,1,0,0:0:0:0:
109,192,179796,1,0,0:0:0:0:
256,192,179796,1,0,0:0:0:0:
475,192,179864,1,0,0:0:0:0:
182,192,179864,1,0,0:0:0:0:
402,192,179864,1,0,0:0:0:0:
329,192,179864,1,0,0:0:0:0:
36,192,179931,1,0,0:0:0:0:
256,192,179999,1,0,0:0:0:0:
109,192,179999,1,0,0:0:0:0:
402,192,180066,1,0,0:0:0:0:
256,192,180134,1,0,0:0:0:0:
182,192,180134,1,0,0:0:0:0:
329,192,180134,1,0,0:0:0:0:
475,192,180134,1,0,0:0:0:0:
36,192,180134,1,0,0:0:0:0:
402,192,180269,1,0,0:0:0:0:
109,192,180269,1,0,0:0:0:0:
256,192,180337,1,0,0:0:0:0:
475,192,180404,1,0,0:0:0:0:
182,192,180404,1,0,0:0:0:0:
402,192,180404,1,0,0:0:0:0:
36,192,180404,1,0,0:0:0:0:
329,192,180472,1,0,0:0:0:0:
36,192,180539,1,0,0:0:0:0:
256,192,180539,1,0,0:0:0:0:
109,192,180539,1,0,0:0:0:0:
475,192,180539,1,0,0:0:0:0:
109,192,180674,1,0,0:0:0:0:
475,192,180674,1,0,0:0:0:0:
256,192,180674,1,0,0:0:0:0:
36,192,180674,1,0,0:0:0:0:
402,192,180809,1,0,0:0:0:0:
182,192,180809,1,0,0:0:0:0:
329,192,180809,1,0,0:0:0:0:
109,192,180809,1,0,0:0:0:0:
256,192,180945,1,0,0:0:0:0:
475,192,180945,1,0,0:0:0:0:
36,192,180945,1,0,0:0:0:0:
402,192,180945,1,0,0:0:0:0:
36,192,181080,5,0,0:0:0:0:
256,192,181080,1,0,0:0:0:0:
402,192,181080,1,0,0:0:0:0:
475,192,181080,1,0,0:0:0:0:
109,192,181215,1,0,0:0:0:0:
329,192,181215,1,0,0:0:0:0:
182,192,181215,1,0,0:0:0:0:
402,192,181215,1,0,0:0:0:0:
475,192,181350,1,0,0:0:0:0:
182,192,181350,1,0,0:0:0:0:
402,192,181418,1,0,0:0:0:0:
329,192,181485,1,0,0:0:0:0:
36,192,181485,1,0,0:0:0:0:
109,192,181485,1,0,0:0:0:0:
256,192,181485,1,0,0:0:0:0:
182,192,181553,1,0,0:0:0:0:
402,192,181553,1,0,0:0:0:0:
329,192,181620,1,0,0:0:0:0:
36,192,181620,1,0,0:0:0:0:
109,192,181620,1,0,0:0:0:0:
475,192,181620,1,0,0:0:0:0:
256,192,181620,1,0,0:0:0:0:
182,192,181755,1,0,0:0:0:0:
402,192,181755,1,0,0:0:0:0:
36,192,181891,1,0,0:0:0:0:
256,192,181891,1,0,0:0:0:0:
475,192,181891,1,0,0:0:0:0:
109,192,181891,1,0,0:0:0:0:
329,192,181891,1,0,0:0:0:0:
182,192,182026,1,0,0:0:0:0:
402,192,182026,1,0,0:0:0:0:
329,192,182093,1,0,0:0:0:0:
109,192,182093,1,0,0:0:0:0:
256,192,182161,1,0,0:0:0:0:
182,192,182161,1,0,0:0:0:0:
36,192,182161,1,0,0:0:0:0:
475,192,182161,1,0,0:0:0:0:
329,192,182296,1,0,0:0:0:0:
109,192,182296,1,0,0:0:0:0:
36,192,182431,1,0,0:0:0:0:
256,192,182431,1,0,0:0:0:0:
475,192,182431,1,0,0:0:0:0:
182,192,182431,1,0,0:0:0:0:
402,192,182431,1,0,0:0:0:0:
329,192,182566,1,0,0:0:0:0:
109,192,182566,1,0,0:0:0:0:
182,192,182634,1,0,0:0:0:0:
402,192,182634,1,0,0:0:0:0:
256,192,182701,1,0,0:0:0:0:
36,192,182701,1,0,0:0:0:0:
475,192,182701,1,0,0:0:0:0:
329,192,182701,1,0,0:0:0:0:
475,192,182837,1,0,0:0:0:0:
256,192,182837,1,0,0:0:0:0:
36,192,182837,1,0,0:0:0:0:
329,192,182837,1,0,0:0:0:0:
36,192,182972,1,0,0:0:0:0:
475,192,182972,1,0,0:0:0:0:
256,192,182972,1,0,0:0:0:0:
402,192,182972,1,0,0:0:0:0:
182,192,182972,1,0,0:0:0:0:
109,192,183107,1,0,0:0:0:0:
329,192,183107,1,0,0:0:0:0:
402,192,183174,1,0,0:0:0:0:
182,192,183174,1,0,0:0:0:0:
256,192,183242,1,0,0:0:0:0:
36,192,183242,1,0,0:0:0:0:
475,192,183242,1,0,0:0:0:0:
329,192,183242,1,0,0:0:0:0:
109,192,183309,1,0,0:0:0:0:
329,192,183377,1,0,0:0:0:0:
182,192,183377,1,0,0:0:0:0:
402,192,183512,1,0,0:0:0:0:
475,192,183512,1,0,0:0:0:0:
256,192,183512,1,0,0:0:0:0:
36,192,183512,1,0,0:0:0:0:
182,192,183512,1,0,0:0:0:0:
475,192,183647,1,0,0:0:0:0:
329,192,183647,1,0,0:0:0:0:
109,192,183647,1,0,0:0:0:0:
36,192,183647,1,0,0:0:0:0:
182,192,183715,1,0,0:0:0:0:
256,192,183715,1,0,0:0:0:0:
109,192,183782,1,0,0:0:0:0:
402,192,183782,1,0,0:0:0:0:
329,192,183782,1,0,0:0:0:0:
36,192,183782,1,0,0:0:0:0:
402,192,183918,1,0,0:0:0:0:
182,192,183918,1,0,0:0:0:0:
182,192,184053,1,0,0:0:0:0:
109,192,184053,1,0,0:0:0:0:
36,192,184053,1,0,0:0:0:0:
329,192,184053,1,0,0:0:0:0:
475,192,184053,1,0,0:0:0:0:
402,192,184188,1,0,0:0:0:0:
256,192,184188,1,0,0:0:0:0:
182,192,184255,1,0,0:0:0:0:
329,192,184255,1,0,0:0:0:0:
36,192,184323,1,0,0:0:0:0:
109,192,184323,1,0,0:0:0:0:
475,192,184323,1,0,0:0:0:0:
256,192,184323,1,0,0:0:0:0:
329,192,184458,1,0,0:0:0:0:
109,192,184458,1,0,0:0:0:0:
182,192,184593,1,0,0:0:0:0:
36,192,184593,1,0,0:0:0:0:
475,192,184593,1,0,0:0:0:0:
329,192,184593,1,0,0:0:0:0:
402,192,184593,1,0,0:0:0:0:
109,192,184728,1,0,0:0:0:0:
256,192,184728,1,0,0:0:0:0:
182,192,184796,1,0,0:0:0:0:
329,192,184796,1,0,0:0:0:0:
402,192,184864,1,0,0:0:0:0:
475,192,184864,1,0,0:0:0:0:
36,192,184864,1,0,0:0:0:0:
109,192,184864,1,0,0:0:0:0:
256,192,184999,1,0,0:0:0:0:
109,192,184999,1,0,0:0:0:0:
329,192,184999,1,0,0:0:0:0:
36,192,184999,1,0,0:0:0:0:
402,192,185066,1,0,0:0:0:0:
475,192,185066,1,0,0:0:0:0:
182,192,185066,1,0,0:0:0:0:
109,192,185134,1,0,0:0:0:0:
329,192,185134,1,0,0:0:0:0:
36,192,185134,1,0,0:0:0:0:
256,192,185134,1,0,0:0:0:0:
402,192,185269,1,0,0:0:0:0:
182,192,185269,1,0,0:0:0:0:
256,192,185269,1,0,0:0:0:0:
475,192,185269,1,0,0:0:0:0:
109,192,185337,1,0,0:0:0:0:
36,192,185337,1,0,0:0:0:0:
475,192,185404,1,0,0:0:0:0:
402,192,185404,1,0,0:0:0:0:
182,192,185404,1,0,0:0:0:0:
256,192,185404,1,0,0:0:0:0:
109,192,185472,1,0,0:0:0:0:
36,192,185539,1,0,0:0:0:0:
329,192,185539,1,0,0:0:0:0:
36,192,185674,1,0,0:0:0:0:
475,192,185674,1,0,0:0:0:0:
256,192,185674,1,0,0:0:0:0:
402,192,185674,1,0,0:0:0:0:
182,192,185674,1,0,0:0:0:0:
182,192,185809,1,0,0:0:0:0:
329,192,185809,1,0,0:0:0:0:
475,192,185809,1,0,0:0:0:0:
109,192,185809,1,0,0:0:0:0:
256,192,185945,1,0,0:0:0:0:
36,192,185945,1,0,0:0:0:0:
109,192,185945,1,0,0:0:0:0:
402,192,185945,1,0,0:0:0:0:
329,192,186080,1,0,0:0:0:0:
182,192,186080,1,0,0:0:0:0:
475,192,186215,1,0,0:0:0:0:
182,192,186215,1,0,0:0:0:0:
256,192,186215,1,0,0:0:0:0:
36,192,186215,1,0,0:0:0:0:
402,192,186215,1,0,0:0:0:0:
109,192,186350,1,0,0:0:0:0:
402,192,186350,1,0,0:0:0:0:
256,192,186418,1,0,0:0:0:0:
329,192,186418,1,0,0:0:0:0:
182,192,186485,1,0,0:0:0:0:
109,192,186485,1,0,0:0:0:0:
475,192,186485,1,0,0:0:0:0:
36,192,186485,1,0,0:0:0:0:
329,192,186620,1,0,0:0:0:0:
182,192,186620,1,0,0:0:0:0:
36,192,186755,1,0,0:0:0:0:
256,192,186755,1,0,0:0:0:0:
109,192,186755,1,0,0:0:0:0:
475,192,186755,1,0,0:0:0:0:
329,192,186755,1,0,0:0:0:0:
109,192,186891,1,0,0:0:0:0:
402,192,186891,1,0,0:0:0:0:
256,192,186958,1,0,0:0:0:0:
182,192,186958,1,0,0:0:0:0:
36,192,187026,1,0,0:0:0:0:
329,192,187026,1,0,0:0:0:0:
402,192,187026,1,0,0:0:0:0:
475,192,187026,1,0,0:0:0:0:
182,192,187161,1,0,0:0:0:0:
329,192,187161,1,0,0:0:0:0:
36,192,187296,1,0,0:0:0:0:
256,192,187296,1,0,0:0:0:0:
182,192,187296,1,0,0:0:0:0:
109,192,187296,1,0,0:0:0:0:
475,192,187296,1,0,0:0:0:0:
402,192,187431,1,0,0:0:0:0:
109,192,187431,1,0,0:0:0:0:
329,192,187499,1,0,0:0:0:0:
182,192,187499,1,0,0:0:0:0:
36,192,187566,1,0,0:0:0:0:
256,192,187566,1,0,0:0:0:0:
109,192,187566,1,0,0:0:0:0:
475,192,187566,1,0,0:0:0:0:
402,192,187634,1,0,0:0:0:0:
182,192,187701,1,0,0:0:0:0:
329,192,187701,1,0,0:0:0:0:
36,192,187837,1,0,0:0:0:0:
402,192,187837,1,0,0:0:0:0:
256,192,187837,1,0,0:0:0:0:
182,192,187837,1,0,0:0:0:0:
475,192,187837,1,0,0:0:0:0:
109,192,187972,1,0,0:0:0:0:
329,192,187972,1,0,0:0:0:0:
182,192,187972,1,0,0:0:0:0:
36,192,187972,1,0,0:0:0:0:
256,192,188039,1,0,0:0:0:0:
402,192,188039,1,0,0:0:0:0:
109,192,188107,1,0,0:0:0:0:
36,192,188107,1,0,0:0:0:0:
475,192,188107,1,0,0:0:0:0:
329,192,188107,1,0,0:0:0:0:
182,192,188242,1,0,0:0:0:0:
402,192,188242,1,0,0:0:0:0:
109,192,188377,1,0,0:0:0:0:
256,192,188377,1,0,0:0:0:0:
36,192,188377,1,0,0:0:0:0:
475,192,188377,1,0,0:0:0:0:
329,192,188377,1,0,0:0:0:0:
182,192,188512,1,0,0:0:0:0:
402,192,188512,1,0,0:0:0:0:
475,192,188512,1,0,0:0:0:0:
329,192,188512,1,0,0:0:0:0:
256,192,188580,1,0,0:0:0:0:
109,192,188580,1,0,0:0:0:0:
36,192,188647,1,0,0:0:0:0:
182,192,188647,1,0,0:0:0:0:
475,192,188647,1,0,0:0:0:0:
402,192,188647,1,0,0:0:0:0:
109,192,188782,1,0,0:0:0:0:
329,192,188782,1,0,0:0:0:0:
182,192,188918,1,0,0:0:0:0:
256,192,188918,1,0,0:0:0:0:
36,192,188918,1,0,0:0:0:0:
402,192,188918,1,0,0:0:0:0:
475,192,188918,1,0,0:0:0:0:
329,192,189053,1,0,0:0:0:0:
182,192,189053,1,0,0:0:0:0:
109,192,189120,1,0,0:0:0:0:
475,192,189120,1,0,0:0:0:0:
402,192,189188,1,0,0:0:0:0:
329,192,189188,1,0,0:0:0:0:
256,192,189188,1,0,0:0:0:0:
36,192,189188,1,0,0:0:0:0:
256,192,189323,1,0,0:0:0:0:
329,192,189323,1,0,0:0:0:0:
36,192,189323,1,0,0:0:0:0:
402,192,189323,1,0,0:0:0:0:
475,192,189458,1,0,0:0:0:0:
109,192,189458,1,0,0:0:0:0:
256,192,189458,1,0,0:0:0:0:
402,192,189458,1,0,0:0:0:0:
182,192,189458,1,0,0:0:0:0:
109,192,189593,1,0,0:0:0:0:
329,192,189593,1,0,0:0:0:0:
182,192,189661,1,0,0:0:0:0:
475,192,189661,1,0,0:0:0:0:
329,192,189728,1,0,0:0:0:0:
36,192,189728,1,0,0:0:0:0:
256,192,189728,1,0,0:0:0:0:
402,192,189728,1,0,0:0:0:0:
109,192,189796,1,0,0:0:0:0:
402,192,189864,1,0,0:0:0:0:
182,192,189864,1,0,0:0:0:0:
109,192,189999,1,0,0:0:0:0:
36,192,189999,1,0,0:0:0:0:
329,192,189999,1,0,0:0:0:0:
475,192,189999,1,0,0:0:0:0:
256,192,189999,1,0,0:0:0:0:
256,192,190134,1,0,0:0:0:0:
182,192,190134,1,0,0:0:0:0:
329,192,190201,1,0,0:0:0:0:
402,192,190201,1,0,0:0:0:0:
109,192,190269,1,0,0:0:0:0:
475,192,190269,1,0,0:0:0:0:
36,192,190269,1,0,0:0:0:0:
182,192,190269,1,0,0:0:0:0:
402,192,190404,1,0,0:0:0:0:
256,192,190404,1,0,0:0:0:0:
256,192,190539,1,0,0:0:0:0:
36,192,190539,1,0,0:0:0:0:
475,192,190539,1,0,0:0:0:0:
329,192,190539,1,0,0:0:0:0:
109,192,190539,1,0,0:0:0:0:
182,192,190674,1,0,0:0:0:0:
402,192,190674,1,0,0:0:0:0:
329,192,190742,1,0,0:0:0:0:
109,192,190742,1,0,0:0:0:0:
475,192,190809,1,0,0:0:0:0:
182,192,190809,1,0,0:0:0:0:
36,192,190809,1,0,0:0:0:0:
256,192,190809,1,0,0:0:0:0:
109,192,190945,1,0,0:0:0:0:
329,192,190945,1,0,0:0:0:0:
36,192,191080,1,0,0:0:0:0:
402,192,191080,1,0,0:0:0:0:
256,192,191080,1,0,0:0:0:0:
475,192,191080,1,0,0:0:0:0:
182,192,191080,1,0,0:0:0:0:
109,192,191215,1,0,0:0:0:0:
329,192,191215,1,0,0:0:0:0:
402,192,191282,1,0,0:0:0:0:
182,192,191282,1,0,0:0:0:0:
329,192,191350,1,0,0:0:0:0:
256,192,191350,1,0,0:0:0:0:
475,192,191350,1,0,0:0:0:0:
36,192,191350,1,0,0:0:0:0:
475,192,191485,1,0,0:0:0:0:
256,192,191485,1,0,0:0:0:0:
36,192,191485,1,0,0:0:0:0:
329,192,191485,1,0,0:0:0:0:
256,192,191620,1,0,0:0:0:0:
475,192,191620,1,0,0:0:0:0:
36,192,191620,1,0,0:0:0:0:
402,192,191620,1,0,0:0:0:0:
182,192,191620,1,0,0:0:0:0:
182,192,191755,1,0,0:0:0:0:
402,192,191755,1,0,0:0:0:0:
329,192,191823,1,0,0:0:0:0:
109,192,191823,1,0,0:0:0:0:
475,192,191891,1,0,0:0:0:0:
36,192,191891,1,0,0:0:0:0:
256,192,191891,1,0,0:0:0:0:
182,192,191891,1,0,0:0:0:0:
402,192,191958,1,0,0:0:0:0:
109,192,192026,1,0,0:0:0:0:
329,192,192026,1,0,0:0:0:0:
109,192,192161,1,0,0:0:0:0:
256,192,192161,1,0,0:0:0:0:
36,192,192161,1,0,0:0:0:0:
329,192,192161,1,0,0:0:0:0:
475,192,192161,1,0,0:0:0:0:
475,192,192296,1,0,0:0:0:0:
182,192,192296,1,0,0:0:0:0:
36,192,192296,1,0,0:0:0:0:
402,192,192296,1,0,0:0:0:0:
256,192,192364,1,0,0:0:0:0:
329,192,192364,1,0,0:0:0:0:
475,192,192431,1,0,0:0:0:0:
109,192,192431,1,0,0:0:0:0:
182,192,192431,1,0,0:0:0:0:
402,192,192431,1,0,0:0:0:0:
329,192,192566,1,0,0:0:0:0:
109,192,192566,1,0,0:0:0:0:
329,192,192701,1,0,0:0:0:0:
36,192,192701,1,0,0:0:0:0:
402,192,192701,1,0,0:0:0:0:
475,192,192701,1,0,0:0:0:0:
182,192,192701,1,0,0:0:0:0:
256,192,192837,1,0,0:0:0:0:
109,192,192837,1,0,0:0:0:0:
329,192,192904,1,0,0:0:0:0:
182,192,192904,1,0,0:0:0:0:
256,192,192972,1,0,0:0:0:0:
402,192,192972,1,0,0:0:0:0:
475,192,192972,1,0,0:0:0:0:
36,192,192972,1,0,0:0:0:0:
402,192,193107,1,0,0:0:0:0:
182,192,193107,1,0,0:0:0:0:
109,192,193242,1,0,0:0:0:0:
36,192,193242,1,0,0:0:0:0:
475,192,193242,1,0,0:0:0:0:
329,192,193242,1,0,0:0:0:0:
182,192,193242,1,0,0:0:0:0:
256,192,193377,1,0,0:0:0:0:
402,192,193377,1,0,0:0:0:0:
329,192,193445,1,0,0:0:0:0:
182,192,193445,1,0,0:0:0:0:
475,192,193512,1,0,0:0:0:0:
36,192,193512,1,0,0:0:0:0:
109,192,193512,1,0,0:0:0:0:
402,192,193512,1,0,0:0:0:0:
109,192,193647,1,0,0:0:0:0:
36,192,193647,1,0,0:0:0:0:
402,192,193647,1,0,0:0:0:0:
475,192,193647,1,0,0:0:0:0:
329,192,193715,1,0,0:0:0:0:
256,192,193715,1,0,0:0:0:0:
182,192,193715,1,0,0:0:0:0:
402,192,193782,1,0,0:0:0:0:
475,192,193782,1,0,0:0:0:0:
109,192,193782,1,0,0:0:0:0:
36,192,193782,1,0,0:0:0:0:
329,192,193918,1,0,0:0:0:0:
182,192,193918,1,0,0:0:0:0:
256,192,193985,1,0,0:0:0:0:
109,192,193985,1,0,0:0:0:0:
402,192,194053,1,0,0:0:0:0:
182,192,194053,1,0,0:0:0:0:
36,192,194053,1,0,0:0:0:0:
475,192,194053,1,0,0:0:0:0:
329,192,194120,1,0,0:0:0:0:
256,192,194188,1,0,0:0:0:0:
109,192,194188,1,0,0:0:0:0:
475,192,194323,1,0,0:0:0:0:
182,192,194323,1,0,0:0:0:0:
36,192,194323,1,0,0:0:0:0:
329,192,194323,1,0,0:0:0:0:
256,192,194323,1,0,0:0:0:0:
402,192,194458,1,0,0:0:0:0:
109,192,194458,1,0,0:0:0:0:
329,192,194458,1,0,0:0:0:0:
36,192,194458,1,0,0:0:0:0:
256,192,194593,1,0,0:0:0:0:
109,192,194593,1,0,0:0:0:0:
475,192,194593,1,0,0:0:0:0:
402,192,194593,1,0,0:0:0:0:
36,192,194728,1,0,0:0:0:0:
329,192,194728,1,0,0:0:0:0:
256,192,194864,1,0,0:0:0:0:
36,192,194864,1,0,0:0:0:0:
329,192,194864,1,0,0:0:0:0:
475,192,194864,1,0,0:0:0:0:
182,192,194864,1,0,0:0:0:0:
402,192,194999,1,0,0:0:0:0:
109,192,194999,1,0,0:0:0:0:
182,192,195066,1,0,0:0:0:0:
256,192,195066,1,0,0:0:0:0:
329,192,195134,1,0,0:0:0:0:
402,192,195134,1,0,0:0:0:0:
36,192,195134,1,0,0:0:0:0:
475,192,195134,1,0,0:0:0:0:
182,192,195269,1,0,0:0:0:0:
329,192,195269,1,0,0:0:0:0:
36,192,195404,1,0,0:0:0:0:
182,192,195404,1,0,0:0:0:0:
402,192,195404,1,0,0:0:0:0:
475,192,195404,1,0,0:0:0:0:
256,192,195404,1,0,0:0:0:0:
329,192,195539,1,0,0:0:0:0:
109,192,195539,1,0,0:0:0:0:
109,192,195674,1,0,0:0:0:0:
182,192,195674,1,0,0:0:0:0:
36,192,195674,1,0,0:0:0:0:
475,192,195674,1,0,0:0:0:0:
329,192,195809,1,0,0:0:0:0:
182,192,195809,1,0,0:0:0:0:
475,192,195945,1,0,0:0:0:0:
256,192,195945,1,0,0:0:0:0:
36,192,195945,1,0,0:0:0:0:
329,192,195945,1,0,0:0:0:0:
402,192,195945,1,0,0:0:0:0:
109,192,196080,1,0,0:0:0:0:
402,192,196080,1,0,0:0:0:0:
182,192,196147,1,0,0:0:0:0:
256,192,196147,1,0,0:0:0:0:
475,192,196215,1,0,0:0:0:0:
109,192,196215,1,0,0:0:0:0:
329,192,196215,1,0,0:0:0:0:
36,192,196215,1,0,0:0:0:0:
402,192,196282,1,0,0:0:0:0:
329,192,196350,1,0,0:0:0:0:
182,192,196350,1,0,0:0:0:0:
109,192,196485,1,0,0:0:0:0:
475,192,196485,1,0,0:0:0:0:
36,192,196485,1,0,0:0:0:0:
402,192,196485,1,0,0:0:0:0:
256,192,196485,1,0,0:0:0:0:
329,192,196620,1,0,0:0:0:0:
182,192,196620,1,0,0:0:0:0:
475,192,196620,1,0,0:0:0:0:
36,192,196620,1,0,0:0:0:0:
109,192,196755,1,0,0:0:0:0:
402,192,196755,1,0,0:0:0:0:
256,192,196755,1,0,0:0:0:0:
36,192,196755,1,0,0:0:0:0:
109,192,196891,1,0,0:0:0:0:
329,192,196891,1,0,0:0:0:0:
36,192,197026,1,0,0:0:0:0:
402,192,197026,1,0,0:0:0:0:
182,192,197026,1,0,0:0:0:0:
475,192,197026,1,0,0:0:0:0:
256,192,197026,1,0,0:0:0:0:
109,192,197161,1,0,0:0:0:0:
329,192,197161,1,0,0:0:0:0:
36,192,197161,1,0,0:0:0:0:
256,192,197161,1,0,0:0:0:0:
402,192,197228,1,0,0:0:0:0:
182,192,197228,1,0,0:0:0:0:
475,192,197296,1,0,0:0:0:0:
329,192,197296,1,0,0:0:0:0:
256,192,197296,1,0,0:0:0:0:
36,192,197296,1,0,0:0:0:0:
402,192,197431,1,0,0:0:0:0:
182,192,197431,1,0,0:0:0:0:
256,192,197566,1,0,0:0:0:0:
36,192,197566,1,0,0:0:0:0:
109,192,197566,1,0,0:0:0:0:
329,192,197566,1,0,0:0:0:0:
475,192,197566,1,0,0:0:0:0:
329,192,197701,1,0,0:0:0:0:
182,192,197701,1,0,0:0:0:0:
402,192,197769,1,0,0:0:0:0:
36,192,197769,1,0,0:0:0:0:
256,192,197837,1,0,0:0:0:0:
109,192,197837,1,0,0:0:0:0:
182,192,197837,1,0,0:0:0:0:
475,192,197837,1,0,0:0:0:0:
182,192,197972,1,0,0:0:0:0:
109,192,197972,1,0,0:0:0:0:
475,192,197972,1,0,0:0:0:0:
256,192,197972,1,0,0:0:0:0:
256,192,198107,5,0,0:0:0:0:
109,192,198107,1,0,0:0:0:0:
402,192,198107,1,0,0:0:0:0:
329,192,198107,1,0,0:0:0:0:
36,192,198107,1,0,0:0:0:0:
329,192,198242,1,0,0:0:0:0:
182,192,198242,1,0,0:0:0:0:
182,192,198377,1,0,0:0:0:0:
36,192,198377,1,0,0:0:0:0:
402,192,198377,1,0,0:0:0:0:
475,192,198377,1,0,0:0:0:0:
256,192,198445,1,0,0:0:0:0:
329,192,198512,1,0,0:0:0:0:
109,192,198512,1,0,0:0:0:0:
329,192,198647,1,0,0:0:0:0:
402,192,198647,1,0,0:0:0:0:
36,192,198647,1,0,0:0:0:0:
475,192,198647,1,0,0:0:0:0:
109,192,198681,1,0,0:0:0:0:
182,192,198715,1,0,0:0:0:0:
256,192,198749,1,0,0:0:0:0:
475,192,198782,1,0,0:0:0:0:
109,192,198782,1,0,0:0:0:0:
36,192,198782,1,0,0:0:0:0:
402,192,198816,1,0,0:0:0:0:
329,192,198850,1,0,0:0:0:0:
256,192,198884,1,0,0:0:0:0:
402,192,198918,1,0,0:0:0:0:
475,192,198918,1,0,0:0:0:0:
109,192,198918,1,0,0:0:0:0:
182,192,198918,1,0,0:0:0:0:
36,192,198918,1,0,0:0:0:0:
182,192,199053,1,0,0:0:0:0:
402,192,199053,1,0,0:0:0:0:
329,192,199053,1,0,0:0:0:0:
36,192,199188,1,0,0:0:0:0:
475,192,199188,1,0,0:0:0:0:
256,192,199188,1,0,0:0:0:0:
109,192,199188,1,0,0:0:0:0:
402,192,199188,1,0,0:0:0:0:
329,192,199323,1,0,0:0:0:0:
109,192,199323,1,0,0:0:0:0:
182,192,199323,1,0,0:0:0:0:
475,192,199391,1,0,0:0:0:0:
402,192,199391,1,0,0:0:0:0:
256,192,199458,1,0,0:0:0:0:
36,192,199458,1,0,0:0:0:0:
329,192,199458,1,0,0:0:0:0:
109,192,199458,1,0,0:0:0:0:
475,192,199593,1,0,0:0:0:0:
182,192,199593,1,0,0:0:0:0:
402,192,199593,1,0,0:0:0:0:
109,192,199728,1,0,0:0:0:0:
475,192,199728,1,0,0:0:0:0:
329,192,199728,1,0,0:0:0:0:
256,192,199728,1,0,0:0:0:0:
36,192,199728,1,0,0:0:0:0:
182,192,199864,1,0,0:0:0:0:
402,192,199864,1,0,0:0:0:0:
329,192,199864,1,0,0:0:0:0:
36,192,199931,1,0,0:0:0:0:
109,192,199931,1,0,0:0:0:0:
402,192,199999,1,0,0:0:0:0:
256,192,199999,1,0,0:0:0:0:
475,192,199999,1,0,0:0:0:0:
182,192,199999,1,0,0:0:0:0:
402,192,200134,1,0,0:0:0:0:
256,192,200134,1,0,0:0:0:0:
475,192,200134,1,0,0:0:0:0:
182,192,200134,1,0,0:0:0:0:
109,192,200269,1,0,0:0:0:0:
475,192,200269,1,0,0:0:0:0:
36,192,200269,1,0,0:0:0:0:
256,192,200269,1,0,0:0:0:0:
329,192,200269,1,0,0:0:0:0:
329,192,200404,1,0,0:0:0:0:
182,192,200404,1,0,0:0:0:0:
402,192,200404,1,0,0:0:0:0:
109,192,200472,1,0,0:0:0:0:
256,192,200472,1,0,0:0:0:0:
402,192,200539,1,0,0:0:0:0:
36,192,200539,1,0,0:0:0:0:
182,192,200539,1,0,0:0:0:0:
475,192,200539,1,0,0:0:0:0:
329,192,200607,1,0,0:0:0:0:
256,192,200674,1,0,0:0:0:0:
475,192,200674,1,0,0:0:0:0:
109,192,200674,1,0,0:0:0:0:
36,192,200809,1,0,0:0:0:0:
182,192,200809,1,0,0:0:0:0:
256,192,200809,1,0,0:0:0:0:
329,192,200809,1,0,0:0:0:0:
402,192,200809,1,0,0:0:0:0:
36,192,200945,1,0,0:0:0:0:
109,192,200945,1,0,0:0:0:0:
475,192,200945,1,0,0:0:0:0:
329,192,200945,1,0,0:0:0:0:
256,192,201012,1,0,0:0:0:0:
182,192,201012,1,0,0:0:0:0:
109,192,201080,1,0,0:0:0:0:
402,192,201080,1,0,0:0:0:0:
36,192,201080,1,0,0:0:0:0:
475,192,201080,1,0,0:0:0:0:
402,192,201215,1,0,0:0:0:0:
256,192,201215,1,0,0:0:0:0:
182,192,201215,1,0,0:0:0:0:
109,192,201350,1,0,0:0:0:0:
475,192,201350,1,0,0:0:0:0:
329,192,201350,1,0,0:0:0:0:
256,192,201350,1,0,0:0:0:0:
36,192,201350,1,0,0:0:0:0:
475,192,201485,1,0,0:0:0:0:
182,192,201485,1,0,0:0:0:0:
402,192,201485,1,0,0:0:0:0:
109,192,201553,1,0,0:0:0:0:
329,192,201553,1,0,0:0:0:0:
36,192,201620,1,0,0:0:0:0:
256,192,201620,1,0,0:0:0:0:
182,192,201620,1,0,0:0:0:0:
475,192,201620,1,0,0:0:0:0:
402,192,201755,1,0,0:0:0:0:
329,192,201755,1,0,0:0:0:0:
109,192,201755,1,0,0:0:0:0:
475,192,201891,1,0,0:0:0:0:
36,192,201891,1,0,0:0:0:0:
182,192,201891,1,0,0:0:0:0:
402,192,201891,1,0,0:0:0:0:
256,192,201891,1,0,0:0:0:0:
182,192,202026,1,0,0:0:0:0:
109,192,202026,1,0,0:0:0:0:
329,192,202026,1,0,0:0:0:0:
402,192,202093,1,0,0:0:0:0:
475,192,202093,1,0,0:0:0:0:
109,192,202161,1,0,0:0:0:0:
256,192,202161,1,0,0:0:0:0:
329,192,202161,1,0,0:0:0:0:
36,192,202161,1,0,0:0:0:0:
402,192,202296,1,0,0:0:0:0:
256,192,202296,1,0,0:0:0:0:
475,192,202296,1,0,0:0:0:0:
182,192,202296,1,0,0:0:0:0:
109,192,202364,1,0,0:0:0:0:
36,192,202364,1,0,0:0:0:0:
329,192,202364,1,0,0:0:0:0:
402,192,202431,1,0,0:0:0:0:
182,192,202431,1,0,0:0:0:0:
256,192,202431,1,0,0:0:0:0:
475,192,202431,1,0,0:0:0:0:
36,192,202566,1,0,0:0:0:0:
109,192,202566,1,0,0:0:0:0:
329,192,202566,1,0,0:0:0:0:
256,192,202566,1,0,0:0:0:0:
475,192,202634,1,0,0:0:0:0:
402,192,202634,1,0,0:0:0:0:
109,192,202701,1,0,0:0:0:0:
256,192,202701,1,0,0:0:0:0:
329,192,202701,1,0,0:0:0:0:
36,192,202701,1,0,0:0:0:0:
402,192,202769,1,0,0:0:0:0:
475,192,202837,1,0,0:0:0:0:
109,192,202837,1,0,0:0:0:0:
182,192,202837,1,0,0:0:0:0:
182,192,202972,1,0,0:0:0:0:
402,192,202972,1,0,0:0:0:0:
475,192,202972,1,0,0:0:0:0:
256,192,202972,1,0,0:0:0:0:
36,192,202972,1,0,0:0:0:0:
182,192,203107,1,0,0:0:0:0:
329,192,203107,1,0,0:0:0:0:
475,192,203107,1,0,0:0:0:0:
36,192,203107,1,0,0:0:0:0:
36,192,203242,1,0,0:0:0:0:
402,192,203242,1,0,0:0:0:0:
256,192,203242,1,0,0:0:0:0:
109,192,203242,1,0,0:0:0:0:
475,192,203377,1,0,0:0:0:0:
182,192,203377,1,0,0:0:0:0:
329,192,203377,1,0,0:0:0:0:
109,192,203512,1,0,0:0:0:0:
475,192,203512,1,0,0:0:0:0:
36,192,203512,1,0,0:0:0:0:
402,192,203512,1,0,0:0:0:0:
256,192,203512,1,0,0:0:0:0:
109,192,203647,1,0,0:0:0:0:
182,192,203647,1,0,0:0:0:0:
329,192,203647,1,0,0:0:0:0:
402,192,203715,1,0,0:0:0:0:
256,192,203715,1,0,0:0:0:0:
329,192,203782,1,0,0:0:0:0:
36,192,203782,1,0,0:0:0:0:
475,192,203782,1,0,0:0:0:0:
109,192,203782,1,0,0:0:0:0:
182,192,203918,1,0,0:0:0:0:
256,192,203918,1,0,0:0:0:0:
402,192,203918,1,0,0:0:0:0:
109,192,204053,1,0,0:0:0:0:
256,192,204053,1,0,0:0:0:0:
475,192,204053,1,0,0:0:0:0:
329,192,204053,1,0,0:0:0:0:
36,192,204053,1,0,0:0:0:0:
182,192,204188,1,0,0:0:0:0:
329,192,204188,1,0,0:0:0:0:
402,192,204188,1,0,0:0:0:0:
109,192,204255,1,0,0:0:0:0:
256,192,204255,1,0,0:0:0:0:
36,192,204323,1,0,0:0:0:0:
402,192,204323,1,0,0:0:0:0:
182,192,204323,1,0,0:0:0:0:
475,192,204323,1,0,0:0:0:0:
256,192,204458,1,0,0:0:0:0:
109,192,204458,1,0,0:0:0:0:
329,192,204458,1,0,0:0:0:0:
402,192,204593,1,0,0:0:0:0:
36,192,204593,1,0,0:0:0:0:
475,192,204593,1,0,0:0:0:0:
182,192,204593,1,0,0:0:0:0:
256,192,204593,1,0,0:0:0:0:
329,192,204728,1,0,0:0:0:0:
109,192,204728,1,0,0:0:0:0:
182,192,204728,1,0,0:0:0:0:
402,192,204796,1,0,0:0:0:0:
256,192,204796,1,0,0:0:0:0:
36,192,204864,1,0,0:0:0:0:
475,192,204864,1,0,0:0:0:0:
329,192,204864,1,0,0:0:0:0:
109,192,204864,1,0,0:0:0:0:
182,192,204931,1,0,0:0:0:0:
402,192,204999,1,0,0:0:0:0:
256,192,204999,1,0,0:0:0:0:
109,192,204999,1,0,0:0:0:0:
182,192,205134,1,0,0:0:0:0:
475,192,205134,1,0,0:0:0:0:
256,192,205134,1,0,0:0:0:0:
329,192,205134,1,0,0:0:0:0:
36,192,205134,1,0,0:0:0:0:
36,192,205269,1,0,0:0:0:0:
256,192,205269,1,0,0:0:0:0:
109,192,205269,1,0,0:0:0:0:
329,192,205269,1,0,0:0:0:0:
402,192,205337,1,0,0:0:0:0:
475,192,205337,1,0,0:0:0:0:
109,192,205404,1,0,0:0:0:0:
182,192,205404,1,0,0:0:0:0:
36,192,205404,1,0,0:0:0:0:
329,192,205404,1,0,0:0:0:0:
256,192,205539,1,0,0:0:0:0:
182,192,205539,1,0,0:0:0:0:
402,192,205539,1,0,0:0:0:0:
475,192,205674,1,0,0:0:0:0:
36,192,205674,1,0,0:0:0:0:
109,192,205674,1,0,0:0:0:0:
256,192,205674,1,0,0:0:0:0:
329,192,205674,1,0,0:0:0:0:
402,192,205809,1,0,0:0:0:0:
182,192,205809,1,0,0:0:0:0:
256,192,205809,1,0,0:0:0:0:
475,192,205809,1,0,0:0:0:0:
36,192,205877,1,0,0:0:0:0:
109,192,205877,1,0,0:0:0:0:
475,192,205945,1,0,0:0:0:0:
402,192,205945,1,0,0:0:0:0:
329,192,205945,1,0,0:0:0:0:
182,192,205945,1,0,0:0:0:0:
329,192,206080,1,0,0:0:0:0:
256,192,206080,1,0,0:0:0:0:
109,192,206080,1,0,0:0:0:0:
256,192,206215,1,0,0:0:0:0:
36,192,206215,1,0,0:0:0:0:
402,192,206215,1,0,0:0:0:0:
475,192,206215,1,0,0:0:0:0:
182,192,206215,1,0,0:0:0:0:
402,192,206350,1,0,0:0:0:0:
182,192,206350,1,0,0:0:0:0:
329,192,206350,1,0,0:0:0:0:
256,192,206418,1,0,0:0:0:0:
109,192,206418,1,0,0:0:0:0:
182,192,206485,1,0,0:0:0:0:
475,192,206485,1,0,0:0:0:0:
36,192,206485,1,0,0:0:0:0:
329,192,206485,1,0,0:0:0:0:
329,192,206620,1,0,0:0:0:0:
475,192,206620,1,0,0:0:0:0:
36,192,206620,1,0,0:0:0:0:
182,192,206620,1,0,0:0:0:0:
256,192,206755,1,0,0:0:0:0:
36,192,206755,1,0,0:0:0:0:
402,192,206755,1,0,0:0:0:0:
475,192,206755,1,0,0:0:0:0:
109,192,206755,1,0,0:0:0:0:
109,192,206891,1,0,0:0:0:0:
329,192,206891,1,0,0:0:0:0:
182,192,206891,1,0,0:0:0:0:
402,192,206958,1,0,0:0:0:0:
256,192,206958,1,0,0:0:0:0:
329,192,207026,1,0,0:0:0:0:
109,192,207026,1,0,0:0:0:0:
475,192,207026,1,0,0:0:0:0:
36,192,207026,1,0,0:0:0:0:
182,192,207093,1,0,0:0:0:0:
329,192,207161,1,0,0:0:0:0:
256,192,207161,1,0,0:0:0:0:
402,192,207161,1,0,0:0:0:0:
475,192,207296,1,0,0:0:0:0:
256,192,207296,1,0,0:0:0:0:
402,192,207296,1,0,0:0:0:0:
36,192,207296,1,0,0:0:0:0:
182,192,207296,1,0,0:0:0:0:
256,192,207431,1,0,0:0:0:0:
329,192,207431,1,0,0:0:0:0:
109,192,207431,1,0,0:0:0:0:
182,192,207499,1,0,0:0:0:0:
402,192,207499,1,0,0:0:0:0:
36,192,207566,5,0,0:0:0:0:
475,192,207566,1,0,0:0:0:0:
109,192,207566,1,0,0:0:0:0:
329,192,207566,1,0,0:0:0:0:
182,192,207701,1,0,0:0:0:0:
402,192,207701,1,0,0:0:0:0:
329,192,207701,1,0,0:0:0:0:
182,192,207837,1,0,0:0:0:0:
256,192,207837,1,0,0:0:0:0:
109,192,207837,1,0,0:0:0:0:
36,192,207837,1,0,0:0:0:0:
475,192,207837,1,0,0:0:0:0:
256,192,207972,1,0,0:0:0:0:
329,192,207972,1,0,0:0:0:0:
402,192,207972,1,0,0:0:0:0:
109,192,208039,1,0,0:0:0:0:
36,192,208039,1,0,0:0:0:0:
256,192,208107,1,0,0:0:0:0:
475,192,208107,1,0,0:0:0:0:
402,192,208107,1,0,0:0:0:0:
182,192,208107,1,0,0:0:0:0:
329,192,208242,1,0,0:0:0:0:
182,192,208242,1,0,0:0:0:0:
109,192,208242,1,0,0:0:0:0:
402,192,208377,1,0,0:0:0:0:
475,192,208377,1,0,0:0:0:0:
256,192,208377,1,0,0:0:0:0:
109,192,208377,1,0,0:0:0:0:
36,192,208377,1,0,0:0:0:0:
109,192,208512,1,0,0:0:0:0:
329,192,208512,1,0,0:0:0:0:
182,192,208512,1,0,0:0:0:0:
475,192,208580,1,0,0:0:0:0:
402,192,208580,1,0,0:0:0:0:
36,192,208647,1,0,0:0:0:0:
329,192,208647,1,0,0:0:0:0:
109,192,208647,1,0,0:0:0:0:
256,192,208647,1,0,0:0:0:0:
36,192,208782,1,0,0:0:0:0:
329,192,208782,1,0,0:0:0:0:
256,192,208782,1,0,0:0:0:0:
109,192,208782,1,0,0:0:0:0:
256,192,208918,1,0,0:0:0:0:
36,192,208918,1,0,0:0:0:0:
402,192,208918,1,0,0:0:0:0:
475,192,208918,1,0,0:0:0:0:
182,192,208918,1,0,0:0:0:0:
109,192,209053,1,0,0:0:0:0:
402,192,209053,1,0,0:0:0:0:
256,192,209053,1,0,0:0:0:0:
182,192,209120,1,0,0:0:0:0:
329,192,209120,1,0,0:0:0:0:
402,192,209188,1,0,0:0:0:0:
36,192,209188,1,0,0:0:0:0:
475,192,209188,1,0,0:0:0:0:
109,192,209188,1,0,0:0:0:0:
256,192,209255,1,0,0:0:0:0:
402,192,209323,1,0,0:0:0:0:
182,192,209323,1,0,0:0:0:0:
329,192,209323,1,0,0:0:0:0:
329,192,209458,1,0,0:0:0:0:
109,192,209458,1,0,0:0:0:0:
36,192,209458,1,0,0:0:0:0:
256,192,209458,1,0,0:0:0:0:
475,192,209458,1,0,0:0:0:0:
475,192,209593,1,0,0:0:0:0:
182,192,209593,1,0,0:0:0:0:
109,192,209593,1,0,0:0:0:0:
402,192,209593,1,0,0:0:0:0:
256,192,209661,1,0,0:0:0:0:
329,192,209661,1,0,0:0:0:0:
475,192,209728,1,0,0:0:0:0:
36,192,209728,1,0,0:0:0:0:
182,192,209728,1,0,0:0:0:0:
402,192,209728,1,0,0:0:0:0:
402,192,209864,1,0,0:0:0:0:
256,192,209864,1,0,0:0:0:0:
109,192,209864,1,0,0:0:0:0:
475,192,209999,1,0,0:0:0:0:
329,192,209999,1,0,0:0:0:0:
182,192,209999,1,0,0:0:0:0:
256,192,209999,1,0,0:0:0:0:
36,192,209999,1,0,0:0:0:0:
109,192,210134,1,0,0:0:0:0:
36,192,210134,1,0,0:0:0:0:
329,192,210134,1,0,0:0:0:0:
402,192,210201,1,0,0:0:0:0:
182,192,210201,1,0,0:0:0:0:
256,192,210269,1,0,0:0:0:0:
475,192,210269,1,0,0:0:0:0:
329,192,210269,1,0,0:0:0:0:
36,192,210269,1,0,0:0:0:0:
402,192,210404,1,0,0:0:0:0:
182,192,210404,1,0,0:0:0:0:
109,192,210404,1,0,0:0:0:0:
329,192,210539,1,0,0:0:0:0:
402,192,210539,1,0,0:0:0:0:
36,192,210539,1,0,0:0:0:0:
109,192,210539,1,0,0:0:0:0:
256,192,210539,1,0,0:0:0:0:
475,192,210674,1,0,0:0:0:0:
36,192,210674,1,0,0:0:0:0:
256,192,210674,1,0,0:0:0:0:
109,192,210742,1,0,0:0:0:0:
329,192,210742,1,0,0:0:0:0:
475,192,210809,1,0,0:0:0:0:
182,192,210809,1,0,0:0:0:0:
256,192,210809,1,0,0:0:0:0:
402,192,210809,1,0,0:0:0:0:
109,192,210945,1,0,0:0:0:0:
36,192,210945,1,0,0:0:0:0:
256,192,210945,1,0,0:0:0:0:
329,192,210945,1,0,0:0:0:0:
182,192,211012,1,0,0:0:0:0:
475,192,211012,1,0,0:0:0:0:
402,192,211012,1,0,0:0:0:0:
109,192,211080,1,0,0:0:0:0:
36,192,211080,1,0,0:0:0:0:
256,192,211080,1,0,0:0:0:0:
329,192,211080,1,0,0:0:0:0:
402,192,211215,1,0,0:0:0:0:
182,192,211215,1,0,0:0:0:0:
256,192,211215,1,0,0:0:0:0:
329,192,211282,1,0,0:0:0:0:
109,192,211282,1,0,0:0:0:0:
402,192,211350,1,0,0:0:0:0:
475,192,211350,1,0,0:0:0:0:
182,192,211350,1,0,0:0:0:0:
36,192,211350,1,0,0:0:0:0:
256,192,211418,1,0,0:0:0:0:
109,192,211485,1,0,0:0:0:0:
329,192,211485,1,0,0:0:0:0:
402,192,211485,1,0,0:0:0:0:
475,192,211620,1,0,0:0:0:0:
36,192,211620,1,0,0:0:0:0:
329,192,211620,1,0,0:0:0:0:
182,192,211620,1,0,0:0:0:0:
256,192,211620,1,0,0:0:0:0:
256,192,211755,1,0,0:0:0:0:
402,192,211755,1,0,0:0:0:0:
109,192,211755,1,0,0:0:0:0:
475,192,211755,1,0,0:0:0:0:
329,192,211891,1,0,0:0:0:0:
36,192,211891,1,0,0:0:0:0:
475,192,211891,1,0,0:0:0:0:
182,192,211891,1,0,0:0:0:0:
402,192,212026,1,0,0:0:0:0:
182,192,212026,1,0,0:0:0:0:
109,192,212026,1,0,0:0:0:0:
329,192,212161,1,0,0:0:0:0:
256,192,212161,1,0,0:0:0:0:
475,192,212161,1,0,0:0:0:0:
109,192,212161,1,0,0:0:0:0:
36,192,212161,1,0,0:0:0:0:
182,192,212296,1,0,0:0:0:0:
402,192,212296,1,0,0:0:0:0:
329,192,212296,1,0,0:0:0:0:
256,192,212364,1,0,0:0:0:0:
109,192,212364,1,0,0:0:0:0:
402,192,212431,1,0,0:0:0:0:
475,192,212431,1,0,0:0:0:0:
36,192,212431,1,0,0:0:0:0:
182,192,212431,1,0,0:0:0:0:
109,192,212566,1,0,0:0:0:0:
329,192,212566,1,0,0:0:0:0:
256,192,212566,1,0,0:0:0:0:
402,192,212701,1,0,0:0:0:0:
475,192,212701,1,0,0:0:0:0:
256,192,212701,1,0,0:0:0:0:
36,192,212701,1,0,0:0:0:0:
182,192,212701,1,0,0:0:0:0:
402,192,212837,1,0,0:0:0:0:
182,192,212837,1,0,0:0:0:0:
109,192,212837,1,0,0:0:0:0:
329,192,212972,1,0,0:0:0:0:
475,192,212972,1,0,0:0:0:0:
256,192,212972,1,0,0:0:0:0:
36,192,212972,1,0,0:0:0:0:
109,192,213107,1,0,0:0:0:0:
402,192,213107,1,0,0:0:0:0:
329,192,213107,1,0,0:0:0:0:
36,192,213242,1,0,0:0:0:0:
182,192,213242,1,0,0:0:0:0:
256,192,213242,1,0,0:0:0:0:
402,192,213242,1,0,0:0:0:0:
475,192,213242,1,0,0:0:0:0:
109,192,213377,1,0,0:0:0:0:
329,192,213377,1,0,0:0:0:0:
182,192,213377,1,0,0:0:0:0:
256,192,213445,1,0,0:0:0:0:
402,192,213445,1,0,0:0:0:0:
36,192,213512,1,0,0:0:0:0:
329,192,213512,1,0,0:0:0:0:
109,192,213512,1,0,0:0:0:0:
475,192,213512,1,0,0:0:0:0:
182,192,213580,1,0,0:0:0:0:
402,192,213647,1,0,0:0:0:0:
109,192,213647,1,0,0:0:0:0:
256,192,213647,1,0,0:0:0:0:
36,192,213782,1,0,0:0:0:0:
475,192,213782,1,0,0:0:0:0:
182,192,213782,1,0,0:0:0:0:
256,192,213782,1,0,0:0:0:0:
329,192,213782,1,0,0:0:0:0:
182,192,213918,1,0,0:0:0:0:
329,192,213918,1,0,0:0:0:0:
475,192,213918,1,0,0:0:0:0:
36,192,213918,1,0,0:0:0:0:
36,192,214053,1,0,0:0:0:0:
402,192,214053,1,0,0:0:0:0:
109,192,214053,1,0,0:0:0:0:
256,192,214053,1,0,0:0:0:0:
402,192,214188,1,0,0:0:0:0:
329,192,214188,1,0,0:0:0:0:
182,192,214188,1,0,0:0:0:0:
475,192,214323,1,0,0:0:0:0:
256,192,214323,1,0,0:0:0:0:
109,192,214323,1,0,0:0:0:0:
329,192,214323,1,0,0:0:0:0:
36,192,214323,1,0,0:0:0:0:
109,192,214458,1,0,0:0:0:0:
329,192,214458,1,0,0:0:0:0:
256,192,214458,1,0,0:0:0:0:
36,192,214458,1,0,0:0:0:0:
402,192,214526,1,0,0:0:0:0:
475,192,214526,1,0,0:0:0:0:
109,192,214593,1,0,0:0:0:0:
329,192,214593,1,0,0:0:0:0:
182,192,214593,1,0,0:0:0:0:
36,192,214593,1,0,0:0:0:0:
402,192,214728,1,0,0:0:0:0:
256,192,214728,1,0,0:0:0:0:
182,192,214728,1,0,0:0:0:0:
475,192,214864,1,0,0:0:0:0:
256,192,214864,1,0,0:0:0:0:
329,192,214864,1,0,0:0:0:0:
109,192,214864,1,0,0:0:0:0:
36,192,214864,1,0,0:0:0:0:
182,192,214999,1,0,0:0:0:0:
329,192,214999,1,0,0:0:0:0:
109,192,214999,1,0,0:0:0:0:
402,192,215066,1,0,0:0:0:0:
256,192,215066,1,0,0:0:0:0:
182,192,215134,1,0,0:0:0:0:
329,192,215134,1,0,0:0:0:0:
36,192,215134,1,0,0:0:0:0:
475,192,215134,1,0,0:0:0:0:
475,192,215269,1,0,0:0:0:0:
182,192,215269,1,0,0:0:0:0:
329,192,215269,1,0,0:0:0:0:
36,192,215269,1,0,0:0:0:0:
36,192,215404,1,0,0:0:0:0:
402,192,215404,1,0,0:0:0:0:
475,192,215404,1,0,0:0:0:0:
256,192,215404,1,0,0:0:0:0:
109,192,215404,1,0,0:0:0:0:
182,192,215539,1,0,0:0:0:0:
329,192,215539,1,0,0:0:0:0:
109,192,215539,1,0,0:0:0:0:
402,192,215674,1,0,0:0:0:0:
256,192,215674,1,0,0:0:0:0:
36,192,215674,1,0,0:0:0:0:
475,192,215674,1,0,0:0:0:0:
109,192,215742,1,0,0:0:0:0:
182,192,215809,1,0,0:0:0:0:
402,192,215809,1,0,0:0:0:0:
329,192,215809,1,0,0:0:0:0:
109,192,215945,1,0,0:0:0:0:
475,192,215945,1,0,0:0:0:0:
402,192,215945,1,0,0:0:0:0:
36,192,215945,1,0,0:0:0:0:
256,192,215945,1,0,0:0:0:0:
329,192,216012,1,0,0:0:0:0:
182,192,216012,1,0,0:0:0:0:
36,192,216080,1,0,0:0:0:0:
475,192,216080,1,0,0:0:0:0:
256,192,216080,1,0,0:0:0:0:
402,192,216114,1,0,0:0:0:0:
109,192,216114,1,0,0:0:0:0:
182,192,216147,1,0,0:0:0:0:
329,192,216147,1,0,0:0:0:0:
256,192,216181,1,0,0:0:0:0:
109,192,216215,1,0,0:0:0:0:
402,192,216215,1,0,0:0:0:0:
475,192,216215,1,0,0:0:0:0:
36,192,216215,1,0,0:0:0:0:
182,192,216350,1,0,0:0:0:0:
329,192,216350,1,0,0:0:0:0:
256,192,216485,1,0,0:0:0:0:
36,192,216485,1,0,0:0:0:0:
109,192,216485,1,0,0:0:0:0:
329,192,216620,1,0,0:0:0:0:
475,192,216620,1,0,0:0:0:0:
182,192,216620,1,0,0:0:0:0:
109,192,216755,1,0,0:0:0:0:
36,192,216755,1,0,0:0:0:0:
402,192,216755,1,0,0:0:0:0:
182,192,216823,1,0,0:0:0:0:
329,192,216891,1,0,0:0:0:0:
475,192,216891,1,0,0:0:0:0:
182,192,216958,1,0,0:0:0:0:
36,192,217026,1,0,0:0:0:0:
402,192,217026,1,0,0:0:0:0:
256,192,217026,1,0,0:0:0:0:
475,192,217026,1,0,0:0:0:0:
329,192,217161,1,0,0:0:0:0:
109,192,217161,1,0,0:0:0:0:
182,192,217296,1,0,0:0:0:0:
256,192,217296,1,0,0:0:0:0:
36,192,217296,1,0,0:0:0:0:
109,192,217431,1,0,0:0:0:0:
182,192,217431,1,0,0:0:0:0:
475,192,217431,1,0,0:0:0:0:
329,192,217431,1,0,0:0:0:0:
109,192,217566,1,0,0:0:0:0:
36,192,217566,1,0,0:0:0:0:
402,192,217566,1,0,0:0:0:0:
182,192,217634,1,0,0:0:0:0:
329,192,217701,1,0,0:0:0:0:
475,192,217701,1,0,0:0:0:0:
182,192,217769,1,0,0:0:0:0:
36,192,217837,1,0,0:0:0:0:
402,192,217837,1,0,0:0:0:0:
256,192,217837,1,0,0:0:0:0:
475,192,217837,1,0,0:0:0:0:
182,192,217972,1,0,0:0:0:0:
329,192,217972,1,0,0:0:0:0:
256,192,218107,1,0,0:0:0:0:
36,192,218107,1,0,0:0:0:0:
109,192,218107,1,0,0:0:0:0:
36,192,218242,1,0,0:0:0:0:
475,192,218242,1,0,0:0:0:0:
329,192,218242,1,0,0:0:0:0:
182,192,218242,1,0,0:0:0:0:
109,192,218377,1,0,0:0:0:0:
329,192,218377,1,0,0:0:0:0:
182,192,218377,1,0,0:0:0:0:
475,192,218377,1,0,0:0:0:0:
475,192,218512,1,0,0:0:0:0:
256,192,218512,1,0,0:0:0:0:
402,192,218512,1,0,0:0:0:0:
329,192,218647,1,0,0:0:0:0:
182,192,218647,1,0,0:0:0:0:
36,192,218647,1,0,0:0:0:0:
329,192,218782,1,0,0:0:0:0:
475,192,218782,1,0,0:0:0:0:
256,192,218782,1,0,0:0:0:0:
402,192,218918,1,0,0:0:0:0:
36,192,218918,1,0,0:0:0:0:
109,192,218918,1,0,0:0:0:0:
182,192,218985,1,0,0:0:0:0:
475,192,219053,1,0,0:0:0:0:
329,192,219053,1,0,0:0:0:0:
182,192,219120,1,0,0:0:0:0:
256,192,219188,1,0,0:0:0:0:
36,192,219188,1,0,0:0:0:0:
402,192,219188,1,0,0:0:0:0:
475,192,219188,1,0,0:0:0:0:
329,192,219323,1,0,0:0:0:0:
109,192,219323,1,0,0:0:0:0:
182,192,219458,1,0,0:0:0:0:
36,192,219458,1,0,0:0:0:0:
402,192,219458,1,0,0:0:0:0:
329,192,219593,1,0,0:0:0:0:
109,192,219593,1,0,0:0:0:0:
36,192,219593,1,0,0:0:0:0:
256,192,219593,1,0,0:0:0:0:
182,192,219661,1,0,0:0:0:0:
475,192,219661,1,0,0:0:0:0:
402,192,219661,1,0,0:0:0:0:
329,192,219728,1,0,0:0:0:0:
109,192,219728,1,0,0:0:0:0:
36,192,219728,1,0,0:0:0:0:
256,192,219796,1,0,0:0:0:0:
475,192,219864,1,0,0:0:0:0:
182,192,219864,1,0,0:0:0:0:
402,192,219864,1,0,0:0:0:0:
329,192,219931,1,0,0:0:0:0:
109,192,219999,1,0,0:0:0:0:
36,192,219999,1,0,0:0:0:0:
256,192,219999,1,0,0:0:0:0:
475,192,219999,1,0,0:0:0:0:
329,192,220134,1,0,0:0:0:0:
182,192,220134,1,0,0:0:0:0:
109,192,220269,1,0,0:0:0:0:
256,192,220269,1,0,0:0:0:0:
36,192,220269,1,0,0:0:0:0:
109,192,220404,1,0,0:0:0:0:
475,192,220404,1,0,0:0:0:0:
402,192,220404,1,0,0:0:0:0:
182,192,220404,1,0,0:0:0:0:
329,192,220472,1,0,0:0:0:0:
256,192,220472,1,0,0:0:0:0:
475,192,220539,1,0,0:0:0:0:
402,192,220539,1,0,0:0:0:0:
36,192,220539,1,0,0:0:0:0:
182,192,220539,1,0,0:0:0:0:
329,192,220674,1,0,0:0:0:0:
109,192,220674,1,0,0:0:0:0:
36,192,220809,1,0,0:0:0:0:
182,192,220809,1,0,0:0:0:0:
256,192,220809,1,0,0:0:0:0:
475,192,220945,1,0,0:0:0:0:
329,192,220945,1,0,0:0:0:0:
109,192,220945,1,0,0:0:0:0:
402,192,221080,1,0,0:0:0:0:
36,192,221080,1,0,0:0:0:0:
256,192,221080,1,0,0:0:0:0:
182,192,221147,1,0,0:0:0:0:
329,192,221215,1,0,0:0:0:0:
475,192,221215,1,0,0:0:0:0:
182,192,221282,1,0,0:0:0:0:
36,192,221350,1,0,0:0:0:0:
402,192,221350,1,0,0:0:0:0:
475,192,221350,1,0,0:0:0:0:
256,192,221350,1,0,0:0:0:0:
182,192,221485,1,0,0:0:0:0:
329,192,221485,1,0,0:0:0:0:
36,192,221620,1,0,0:0:0:0:
256,192,221620,1,0,0:0:0:0:
109,192,221620,1,0,0:0:0:0:
475,192,221755,1,0,0:0:0:0:
182,192,221755,1,0,0:0:0:0:
329,192,221755,1,0,0:0:0:0:
256,192,221891,1,0,0:0:0:0:
36,192,221891,1,0,0:0:0:0:
402,192,221891,1,0,0:0:0:0:
182,192,221958,1,0,0:0:0:0:
475,192,222026,1,0,0:0:0:0:
329,192,222026,1,0,0:0:0:0:
182,192,222093,1,0,0:0:0:0:
475,192,222161,1,0,0:0:0:0:
256,192,222161,1,0,0:0:0:0:
402,192,222161,1,0,0:0:0:0:
36,192,222161,1,0,0:0:0:0:
329,192,222296,1,0,0:0:0:0:
182,192,222296,1,0,0:0:0:0:
109,192,222431,1,0,0:0:0:0:
36,192,222431,1,0,0:0:0:0:
256,192,222431,1,0,0:0:0:0:
182,192,222566,1,0,0:0:0:0:
329,192,222566,1,0,0:0:0:0:
36,192,222566,1,0,0:0:0:0:
475,192,222566,1,0,0:0:0:0:
329,192,222701,1,0,0:0:0:0:
109,192,222701,1,0,0:0:0:0:
182,192,222701,1,0,0:0:0:0:
475,192,222701,1,0,0:0:0:0:
402,192,222837,1,0,0:0:0:0:
475,192,222837,1,0,0:0:0:0:
256,192,222837,1,0,0:0:0:0:
182,192,222972,1,0,0:0:0:0:
109,192,222972,1,0,0:0:0:0:
329,192,222972,1,0,0:0:0:0:
36,192,223107,1,0,0:0:0:0:
329,192,223107,1,0,0:0:0:0:
475,192,223107,1,0,0:0:0:0:
109,192,223107,1,0,0:0:0:0:
402,192,223242,1,0,0:0:0:0:
256,192,223242,1,0,0:0:0:0:
36,192,223242,1,0,0:0:0:0:
182,192,223309,1,0,0:0:0:0:
329,192,223377,1,0,0:0:0:0:
475,192,223377,1,0,0:0:0:0:
182,192,223445,1,0,0:0:0:0:
36,192,223512,1,0,0:0:0:0:
256,192,223512,1,0,0:0:0:0:
475,192,223512,1,0,0:0:0:0:
402,192,223512,1,0,0:0:0:0:
182,192,223647,1,0,0:0:0:0:
329,192,223647,1,0,0:0:0:0:
36,192,223782,1,0,0:0:0:0:
256,192,223782,1,0,0:0:0:0:
109,192,223782,1,0,0:0:0:0:
182,192,223918,1,0,0:0:0:0:
329,192,223918,1,0,0:0:0:0:
475,192,223918,1,0,0:0:0:0:
109,192,223918,1,0,0:0:0:0:
36,192,224053,1,0,0:0:0:0:
256,192,224053,1,0,0:0:0:0:
402,192,224053,1,0,0:0:0:0:
182,192,224120,1,0,0:0:0:0:
475,192,224188,1,0,0:0:0:0:
329,192,224188,1,0,0:0:0:0:
182,192,224255,1,0,0:0:0:0:
36,192,224323,1,0,0:0:0:0:
402,192,224323,1,0,0:0:0:0:
256,192,224323,1,0,0:0:0:0:
475,192,224323,1,0,0:0:0:0:
182,192,224458,1,0,0:0:0:0:
329,192,224458,1,0,0:0:0:0:
109,192,224593,1,0,0:0:0:0:
256,192,224593,1,0,0:0:0:0:
36,192,224593,1,0,0:0:0:0:
475,192,224728,1,0,0:0:0:0:
182,192,224728,1,0,0:0:0:0:
402,192,224728,1,0,0:0:0:0:
109,192,224796,1,0,0:0:0:0:
329,192,224796,1,0,0:0:0:0:
475,192,224864,1,0,0:0:0:0:
256,192,224864,1,0,0:0:0:0:
36,192,224864,1,0,0:0:0:0:
182,192,224864,1,0,0:0:0:0:
402,192,224999,1,0,0:0:0:0:
329,192,224999,1,0,0:0:0:0:
109,192,225134,1,0,0:0:0:0:
256,192,225134,1,0,0:0:0:0:
36,192,225134,1,0,0:0:0:0:
182,192,225269,1,0,0:0:0:0:
475,192,225269,1,0,0:0:0:0:
329,192,225269,1,0,0:0:0:0:
402,192,225404,1,0,0:0:0:0:
109,192,225404,1,0,0:0:0:0:
36,192,225404,1,0,0:0:0:0:
329,192,225472,1,0,0:0:0:0:
475,192,225539,1,0,0:0:0:0:
182,192,225539,1,0,0:0:0:0:
329,192,225607,1,0,0:0:0:0:
36,192,225674,1,0,0:0:0:0:
475,192,225674,1,0,0:0:0:0:
109,192,225674,1,0,0:0:0:0:
256,192,225674,1,0,0:0:0:0:
329,192,225809,1,0,0:0:0:0:
182,192,225809,1,0,0:0:0:0:
36,192,225945,1,0,0:0:0:0:
402,192,225945,1,0,0:0:0:0:
256,192,225945,1,0,0:0:0:0:
475,192,226080,1,0,0:0:0:0:
329,192,226080,1,0,0:0:0:0:
109,192,226080,1,0,0:0:0:0:
182,192,226080,1,0,0:0:0:0:
402,192,226215,1,0,0:0:0:0:
36,192,226215,1,0,0:0:0:0:
109,192,226215,1,0,0:0:0:0:
329,192,226282,1,0,0:0:0:0:
182,192,226350,1,0,0:0:0:0:
475,192,226350,1,0,0:0:0:0:
329,192,226418,1,0,0:0:0:0:
109,192,226485,1,0,0:0:0:0:
256,192,226485,1,0,0:0:0:0:
475,192,226485,1,0,0:0:0:0:
36,192,226485,1,0,0:0:0:0:
402,192,226620,1,0,0:0:0:0:
329,192,226620,1,0,0:0:0:0:
36,192,226755,1,0,0:0:0:0:
109,192,226755,1,0,0:0:0:0:
256,192,226755,1,0,0:0:0:0:
182,192,226891,1,0,0:0:0:0:
402,192,226891,1,0,0:0:0:0:
475,192,226891,1,0,0:0:0:0:
36,192,226891,1,0,0:0:0:0:
109,192,227026,1,0,0:0:0:0:
402,192,227026,1,0,0:0:0:0:
182,192,227026,1,0,0:0:0:0:
475,192,227026,1,0,0:0:0:0:
256,192,227161,1,0,0:0:0:0:
475,192,227161,1,0,0:0:0:0:
329,192,227161,1,0,0:0:0:0:
36,192,227296,1,0,0:0:0:0:
182,192,227296,1,0,0:0:0:0:
256,192,227296,1,0,0:0:0:0:
475,192,227431,1,0,0:0:0:0:
329,192,227431,1,0,0:0:0:0:
182,192,227431,1,0,0:0:0:0:
109,192,227566,1,0,0:0:0:0:
36,192,227566,1,0,0:0:0:0:
402,192,227566,1,0,0:0:0:0:
329,192,227634,1,0,0:0:0:0:
475,192,227701,1,0,0:0:0:0:
182,192,227701,1,0,0:0:0:0:
329,192,227769,1,0,0:0:0:0:
475,192,227837,1,0,0:0:0:0:
36,192,227837,1,0,0:0:0:0:
109,192,227837,1,0,0:0:0:0:
256,192,227837,1,0,0:0:0:0:
402,192,227972,1,0,0:0:0:0:
182,192,227972,1,0,0:0:0:0:
36,192,228107,1,0,0:0:0:0:
109,192,228107,1,0,0:0:0:0:
329,192,228107,1,0,0:0:0:0:
256,192,228242,1,0,0:0:0:0:
475,192,228242,1,0,0:0:0:0:
182,192,228242,1,0,0:0:0:0:
402,192,228242,1,0,0:0:0:0:
329,192,228309,1,0,0:0:0:0:
109,192,228309,1,0,0:0:0:0:
36,192,228309,1,0,0:0:0:0:
182,192,228377,1,0,0:0:0:0:
475,192,228377,1,0,0:0:0:0:
402,192,228377,1,0,0:0:0:0:
256,192,228445,1,0,0:0:0:0:
109,192,228512,1,0,0:0:0:0:
329,192,228512,1,0,0:0:0:0:
182,192,228580,1,0,0:0:0:0:
256,192,228647,1,0,0:0:0:0:
329,192,228647,1,0,0:0:0:0:
475,192,228647,1,0,0:0:0:0:
36,192,228647,1,0,0:0:0:0:
109,192,228782,1,0,0:0:0:0:
402,192,228782,1,0,0:0:0:0:
36,192,228918,1,0,0:0:0:0:
182,192,228918,1,0,0:0:0:0:
329,192,228918,1,0,0:0:0:0:
402,192,229053,1,0,0:0:0:0:
109,192,229053,1,0,0:0:0:0:
36,192,229053,1,0,0:0:0:0:
475,192,229053,1,0,0:0:0:0:
182,192,229120,1,0,0:0:0:0:
256,192,229120,1,0,0:0:0:0:
36,192,229188,1,0,0:0:0:0:
475,192,229188,1,0,0:0:0:0:
109,192,229188,1,0,0:0:0:0:
329,192,229188,1,0,0:0:0:0:
182,192,229323,1,0,0:0:0:0:
402,192,229323,1,0,0:0:0:0:
256,192,229458,1,0,0:0:0:0:
109,192,229458,1,0,0:0:0:0:
36,192,229458,1,0,0:0:0:0:
182,192,229593,1,0,0:0:0:0:
475,192,229593,1,0,0:0:0:0:
329,192,229593,1,0,0:0:0:0:
256,192,229728,1,0,0:0:0:0:
109,192,229728,1,0,0:0:0:0:
36,192,229728,1,0,0:0:0:0:
329,192,229796,1,0,0:0:0:0:
182,192,229864,1,0,0:0:0:0:
475,192,229864,1,0,0:0:0:0:
329,192,229931,1,0,0:0:0:0:
256,192,229999,1,0,0:0:0:0:
475,192,229999,1,0,0:0:0:0:
36,192,229999,1,0,0:0:0:0:
402,192,229999,1,0,0:0:0:0:
329,192,230134,1,0,0:0:0:0:
182,192,230134,1,0,0:0:0:0:
402,192,230269,1,0,0:0:0:0:
256,192,230269,1,0,0:0:0:0:
36,192,230269,1,0,0:0:0:0:
475,192,230404,1,0,0:0:0:0:
182,192,230404,1,0,0:0:0:0:
329,192,230404,1,0,0:0:0:0:
36,192,230539,1,0,0:0:0:0:
109,192,230539,1,0,0:0:0:0:
256,192,230539,1,0,0:0:0:0:
329,192,230607,1,0,0:0:0:0:
182,192,230674,1,0,0:0:0:0:
475,192,230674,1,0,0:0:0:0:
329,192,230742,1,0,0:0:0:0:
475,192,230809,1,0,0:0:0:0:
36,192,230809,1,0,0:0:0:0:
402,192,230809,1,0,0:0:0:0:
256,192,230809,1,0,0:0:0:0:
329,192,230945,1,0,0:0:0:0:
182,192,230945,1,0,0:0:0:0:
256,192,231080,1,0,0:0:0:0:
36,192,231080,1,0,0:0:0:0:
109,192,231080,1,0,0:0:0:0:
36,192,231215,1,0,0:0:0:0:
182,192,231215,1,0,0:0:0:0:
329,192,231215,1,0,0:0:0:0:
475,192,231215,1,0,0:0:0:0:
402,192,231350,1,0,0:0:0:0:
475,192,231350,1,0,0:0:0:0:
402,192,231485,1,0,0:0:0:0:
475,192,231485,1,0,0:0:0:0:
109,192,231620,1,0,0:0:0:0:
402,192,231755,1,0,0:0:0:0:
475,192,231755,1,0,0:0:0:0:
182,192,231891,1,0,0:0:0:0:
329,192,231958,1,0,0:0:0:0:
182,192,232026,1,0,0:0:0:0:
329,192,232093,1,0,0:0:0:0:
475,192,232161,1,0,0:0:0:0:
402,192,232161,1,0,0:0:0:0:
109,192,232296,1,0,0:0:0:0:
182,192,232431,1,0,0:0:0:0:
475,192,232566,1,0,0:0:0:0:
402,192,232566,1,0,0:0:0:0:
36,192,232634,1,0,0:0:0:0:
182,192,232701,1,0,0:0:0:0:
329,192,232769,1,0,0:0:0:0:
182,192,232837,1,0,0:0:0:0:
329,192,232904,1,0,0:0:0:0:
475,192,232972,1,0,0:0:0:0:
402,192,232972,1,0,0:0:0:0:
36,192,233107,1,0,0:0:0:0:
329,192,233107,1,0,0:0:0:0:
182,192,233107,1,0,0:0:0:0:
36,192,233174,1,0,0:0:0:0:
256,192,233242,1,0,0:0:0:0:
329,192,233377,1,0,0:0:0:0:
182,192,233377,1,0,0:0:0:0:
182,192,233445,1,0,0:0:0:0:
329,192,233445,1,0,0:0:0:0:
402,192,233512,1,0,0:0:0:0:
475,192,233512,1,0,0:0:0:0:
256,192,233512,1,0,0:0:0:0:
109,192,233512,1,0,0:0:0:0:
36,192,233512,1,0,0:0:0:0:
329,192,233647,1,0,0:0:0:0:
182,192,233647,1,0,0:0:0:0:
36,192,233647,1,0,0:0:0:0:
256,192,233782,1,0,0:0:0:0:
109,192,233782,1,0,0:0:0:0:
402,192,233782,1,0,0:0:0:0:
475,192,233782,1,0,0:0:0:0:
475,192,233918,1,0,0:0:0:0:
256,192,233918,1,0,0:0:0:0:
182,192,233918,1,0,0:0:0:0:
36,192,233918,1,0,0:0:0:0:
329,192,233918,1,0,0:0:0:0:
402,192,233985,1,0,0:0:0:0:
109,192,234053,1,0,0:0:0:0:
182,192,234053,1,0,0:0:0:0:
329,192,234120,1,0,0:0:0:0:
475,192,234188,1,0,0:0:0:0:
402,192,234188,1,0,0:0:0:0:
36,192,234188,1,0,0:0:0:0:
256,192,234188,1,0,0:0:0:0:
109,192,234188,1,0,0:0:0:0:
329,192,234323,1,0,0:0:0:0:
182,192,234323,1,0,0:0:0:0:
36,192,234391,1,0,0:0:0:0:
329,192,234458,1,0,0:0:0:0:
109,192,234458,1,0,0:0:0:0:
475,192,234458,1,0,0:0:0:0:
256,192,234526,1,0,0:0:0:0:
402,192,234593,1,0,0:0:0:0:
475,192,234593,1,0,0:0:0:0:
182,192,234593,1,0,0:0:0:0:
36,192,234593,1,0,0:0:0:0:
329,192,234661,1,0,0:0:0:0:
402,192,234728,1,0,0:0:0:0:
475,192,234728,1,0,0:0:0:0:
182,192,234728,1,0,0:0:0:0:
36,192,234728,1,0,0:0:0:0:
329,192,234796,1,0,0:0:0:0:
475,192,234864,1,0,0:0:0:0:
402,192,234864,1,0,0:0:0:0:
256,192,234864,1,0,0:0:0:0:
36,192,234864,1,0,0:0:0:0:
109,192,234864,1,0,0:0:0:0:
109,192,234999,1,0,0:0:0:0:
329,192,234999,1,0,0:0:0:0:
182,192,234999,1,0,0:0:0:0:
402,192,235066,1,0,0:0:0:0:
256,192,235134,1,0,0:0:0:0:
36,192,235134,1,0,0:0:0:0:
402,192,235201,1,0,0:0:0:0:
109,192,235269,1,0,0:0:0:0:
182,192,235269,1,0,0:0:0:0:
329,192,235269,1,0,0:0:0:0:
475,192,235269,1,0,0:0:0:0:
36,192,235269,1,0,0:0:0:0:
109,192,235404,1,0,0:0:0:0:
256,192,235404,1,0,0:0:0:0:
329,192,235472,1,0,0:0:0:0:
402,192,235539,1,0,0:0:0:0:
475,192,235539,1,0,0:0:0:0:
182,192,235539,1,0,0:0:0:0:
36,192,235539,1,0,0:0:0:0:
256,192,235674,1,0,0:0:0:0:
329,192,235674,1,0,0:0:0:0:
109,192,235674,1,0,0:0:0:0:
36,192,235674,1,0,0:0:0:0:
475,192,235742,1,0,0:0:0:0:
402,192,235809,1,0,0:0:0:0:
109,192,235809,1,0,0:0:0:0:
182,192,235809,1,0,0:0:0:0:
256,192,235877,1,0,0:0:0:0:
109,192,235945,1,0,0:0:0:0:
36,192,235945,1,0,0:0:0:0:
329,192,235945,1,0,0:0:0:0:
475,192,235945,1,0,0:0:0:0:
402,192,236012,1,0,0:0:0:0:
256,192,236012,1,0,0:0:0:0:
182,192,236012,1,0,0:0:0:0:
109,192,236080,1,0,0:0:0:0:
36,192,236080,1,0,0:0:0:0:
475,192,236080,1,0,0:0:0:0:
329,192,236080,1,0,0:0:0:0:
402,192,236215,1,0,0:0:0:0:
182,192,236215,1,0,0:0:0:0:
256,192,236282,1,0,0:0:0:0:
109,192,236350,1,0,0:0:0:0:
402,192,236350,1,0,0:0:0:0:
475,192,236350,1,0,0:0:0:0:
36,192,236350,1,0,0:0:0:0:
182,192,236418,1,0,0:0:0:0:
36,192,236485,1,0,0:0:0:0:
256,192,236485,1,0,0:0:0:0:
475,192,236485,1,0,0:0:0:0:
329,192,236485,1,0,0:0:0:0:
182,192,236620,1,0,0:0:0:0:
109,192,236620,1,0,0:0:0:0:
475,192,236620,1,0,0:0:0:0:
402,192,236620,1,0,0:0:0:0:
256,192,236688,1,0,0:0:0:0:
329,192,236755,1,0,0:0:0:0:
402,192,236755,1,0,0:0:0:0:
36,192,236755,1,0,0:0:0:0:
109,192,236755,1,0,0:0:0:0:
182,192,236823,1,0,0:0:0:0:
402,192,236891,1,0,0:0:0:0:
36,192,236891,1,0,0:0:0:0:
256,192,236891,1,0,0:0:0:0:
475,192,236891,1,0,0:0:0:0:
329,192,236958,1,0,0:0:0:0:
109,192,236958,1,0,0:0:0:0:
402,192,237026,1,0,0:0:0:0:
475,192,237026,1,0,0:0:0:0:
182,192,237026,1,0,0:0:0:0:
256,192,237026,1,0,0:0:0:0:
36,192,237161,1,0,0:0:0:0:
329,192,237161,1,0,0:0:0:0:
109,192,237161,1,0,0:0:0:0:
256,192,237228,1,0,0:0:0:0:
475,192,237296,1,0,0:0:0:0:
36,192,237296,1,0,0:0:0:0:
182,192,237296,1,0,0:0:0:0:
402,192,237296,1,0,0:0:0:0:
329,192,237364,1,0,0:0:0:0:
402,192,237431,1,0,0:0:0:0:
36,192,237431,1,0,0:0:0:0:
256,192,237431,1,0,0:0:0:0:
109,192,237431,1,0,0:0:0:0:
329,192,237566,1,0,0:0:0:0:
182,192,237566,1,0,0:0:0:0:
109,192,237701,1,0,0:0:0:0:
36,192,237701,1,0,0:0:0:0:
256,192,237701,1,0,0:0:0:0:
475,192,237701,1,0,0:0:0:0:
402,192,237701,1,0,0:0:0:0:
329,192,237837,1,0,0:0:0:0:
475,192,237837,1,0,0:0:0:0:
182,192,237837,1,0,0:0:0:0:
36,192,237837,1,0,0:0:0:0:
109,192,237837,1,0,0:0:0:0:
402,192,237972,1,0,0:0:0:0:
256,192,237972,1,0,0:0:0:0:
182,192,237972,1,0,0:0:0:0:
36,192,238107,1,0,0:0:0:0:
109,192,238107,1,0,0:0:0:0:
329,192,238107,1,0,0:0:0:0:
475,192,238107,1,0,0:0:0:0:
402,192,238242,1,0,0:0:0:0:
182,192,238242,1,0,0:0:0:0:
256,192,238242,1,0,0:0:0:0:
36,192,238242,1,0,0:0:0:0:
475,192,238242,1,0,0:0:0:0:
329,192,238309,1,0,0:0:0:0:
109,192,238377,1,0,0:0:0:0:
182,192,238377,1,0,0:0:0:0:
329,192,238445,1,0,0:0:0:0:
36,192,238512,1,0,0:0:0:0:
109,192,238512,1,0,0:0:0:0:
402,192,238512,1,0,0:0:0:0:
256,192,238512,1,0,0:0:0:0:
475,192,238512,1,0,0:0:0:0:
475,192,238647,1,0,0:0:0:0:
256,192,238647,1,0,0:0:0:0:
182,192,238647,1,0,0:0:0:0:
329,192,238647,1,0,0:0:0:0:
36,192,238715,1,0,0:0:0:0:
402,192,238782,1,0,0:0:0:0:
256,192,238782,1,0,0:0:0:0:
109,192,238782,1,0,0:0:0:0:
475,192,238850,1,0,0:0:0:0:
329,192,238918,1,0,0:0:0:0:
402,192,238918,1,0,0:0:0:0:
36,192,238918,1,0,0:0:0:0:
182,192,238918,1,0,0:0:0:0:
402,192,239053,1,0,0:0:0:0:
329,192,239053,1,0,0:0:0:0:
36,192,239053,1,0,0:0:0:0:
182,192,239053,1,0,0:0:0:0:
109,192,239188,1,0,0:0:0:0:
329,192,239188,1,0,0:0:0:0:
36,192,239188,1,0,0:0:0:0:
475,192,239188,1,0,0:0:0:0:
256,192,239188,1,0,0:0:0:0:
256,192,239323,1,0,0:0:0:0:
402,192,239323,1,0,0:0:0:0:
182,192,239323,1,0,0:0:0:0:
109,192,239391,1,0,0:0:0:0:
475,192,239458,1,0,0:0:0:0:
329,192,239458,1,0,0:0:0:0:
109,192,239526,1,0,0:0:0:0:
402,192,239593,1,0,0:0:0:0:
256,192,239593,1,0,0:0:0:0:
475,192,239593,1,0,0:0:0:0:
36,192,239593,1,0,0:0:0:0:
182,192,239593,1,0,0:0:0:0:
329,192,239728,1,0,0:0:0:0:
109,192,239728,1,0,0:0:0:0:
182,192,239796,1,0,0:0:0:0:
256,192,239864,1,0,0:0:0:0:
329,192,239864,1,0,0:0:0:0:
475,192,239864,1,0,0:0:0:0:
109,192,239931,1,0,0:0:0:0:
475,192,239999,1,0,0:0:0:0:
36,192,239999,1,0,0:0:0:0:
256,192,239999,1,0,0:0:0:0:
402,192,239999,1,0,0:0:0:0:
182,192,240066,1,0,0:0:0:0:
109,192,240134,1,0,0:0:0:0:
402,192,240134,1,0,0:0:0:0:
329,192,240134,1,0,0:0:0:0:
256,192,240201,1,0,0:0:0:0:
36,192,240269,1,0,0:0:0:0:
402,192,240269,1,0,0:0:0:0:
182,192,240269,1,0,0:0:0:0:
475,192,240269,1,0,0:0:0:0:
329,192,240337,1,0,0:0:0:0:
109,192,240337,1,0,0:0:0:0:
256,192,240337,1,0,0:0:0:0:
402,192,240404,1,0,0:0:0:0:
36,192,240404,1,0,0:0:0:0:
182,192,240404,1,0,0:0:0:0:
475,192,240404,1,0,0:0:0:0:
329,192,240472,1,0,0:0:0:0:
109,192,240539,1,0,0:0:0:0:
256,192,240539,1,0,0:0:0:0:
402,192,240607,1,0,0:0:0:0:
475,192,240674,1,0,0:0:0:0:
256,192,240674,1,0,0:0:0:0:
329,192,240674,1,0,0:0:0:0:
182,192,240674,1,0,0:0:0:0:
36,192,240674,1,0,0:0:0:0:
402,192,240809,1,0,0:0:0:0:
109,192,240809,1,0,0:0:0:0:
256,192,240877,1,0,0:0:0:0:
475,192,240945,1,0,0:0:0:0:
109,192,240945,1,0,0:0:0:0:
329,192,240945,1,0,0:0:0:0:
36,192,240945,1,0,0:0:0:0:
182,192,241012,1,0,0:0:0:0:
36,192,241080,1,0,0:0:0:0:
475,192,241080,1,0,0:0:0:0:
256,192,241080,1,0,0:0:0:0:
402,192,241080,1,0,0:0:0:0:
256,192,241215,1,0,0:0:0:0:
36,192,241215,1,0,0:0:0:0:
475,192,241215,1,0,0:0:0:0:
402,192,241215,1,0,0:0:0:0:
329,192,241350,1,0,0:0:0:0:
402,192,241350,1,0,0:0:0:0:
109,192,241350,1,0,0:0:0:0:
182,192,241350,1,0,0:0:0:0:
256,192,241485,1,0,0:0:0:0:
475,192,241485,1,0,0:0:0:0:
36,192,241485,1,0,0:0:0:0:
109,192,241485,1,0,0:0:0:0:
109,192,241620,1,0,0:0:0:0:
36,192,241620,1,0,0:0:0:0:
475,192,241620,1,0,0:0:0:0:
256,192,241620,1,0,0:0:0:0:
329,192,241755,1,0,0:0:0:0:
402,192,241755,1,0,0:0:0:0:
109,192,241755,1,0,0:0:0:0:
182,192,241755,1,0,0:0:0:0:
329,192,241891,1,0,0:0:0:0:
36,192,241891,1,0,0:0:0:0:
109,192,241958,1,0,0:0:0:0:
402,192,242026,1,0,0:0:0:0:
475,192,242026,1,0,0:0:0:0:
182,192,242026,1,0,0:0:0:0:
256,192,242026,1,0,0:0:0:0:
109,192,242093,1,0,0:0:0:0:
36,192,242093,1,0,0:0:0:0:
329,192,242093,1,0,0:0:0:0:
402,192,242161,1,0,0:0:0:0:
475,192,242161,1,0,0:0:0:0:
182,192,242161,1,0,0:0:0:0:
256,192,242161,1,0,0:0:0:0:
109,192,242296,1,0,0:0:0:0:
329,192,242296,1,0,0:0:0:0:
256,192,242296,1,0,0:0:0:0:
402,192,242431,1,0,0:0:0:0:
475,192,242431,1,0,0:0:0:0:
182,192,242431,1,0,0:0:0:0:
36,192,242431,1,0,0:0:0:0:
256,192,242566,1,0,0:0:0:0:
475,192,242566,1,0,0:0:0:0:
109,192,242566,1,0,0:0:0:0:
36,192,242566,1,0,0:0:0:0:
329,192,242566,1,0,0:0:0:0:
182,192,242634,1,0,0:0:0:0:
402,192,242701,1,0,0:0:0:0:
109,192,242701,1,0,0:0:0:0:
329,192,242769,1,0,0:0:0:0:
402,192,242837,1,0,0:0:0:0:
475,192,242837,1,0,0:0:0:0:
256,192,242837,1,0,0:0:0:0:
36,192,242837,1,0,0:0:0:0:
182,192,242837,1,0,0:0:0:0:
109,192,242972,1,0,0:0:0:0:
329,192,242972,1,0,0:0:0:0:
182,192,243039,1,0,0:0:0:0:
36,192,243107,1,0,0:0:0:0:
475,192,243107,1,0,0:0:0:0:
402,192,243107,1,0,0:0:0:0:
256,192,243174,1,0,0:0:0:0:
475,192,243242,1,0,0:0:0:0:
109,192,243242,1,0,0:0:0:0:
329,192,243242,1,0,0:0:0:0:
36,192,243242,1,0,0:0:0:0:
182,192,243309,1,0,0:0:0:0:
329,192,243377,1,0,0:0:0:0:
36,192,243377,1,0,0:0:0:0:
475,192,243377,1,0,0:0:0:0:
109,192,243377,1,0,0:0:0:0:
182,192,243445,1,0,0:0:0:0:
402,192,243512,1,0,0:0:0:0:
36,192,243512,1,0,0:0:0:0:
475,192,243512,1,0,0:0:0:0:
109,192,243512,1,0,0:0:0:0:
256,192,243512,1,0,0:0:0:0:
402,192,243647,1,0,0:0:0:0:
182,192,243647,1,0,0:0:0:0:
329,192,243647,1,0,0:0:0:0:
109,192,243715,1,0,0:0:0:0:
256,192,243782,1,0,0:0:0:0:
329,192,243782,1,0,0:0:0:0:
182,192,243850,1,0,0:0:0:0:
475,192,243918,1,0,0:0:0:0:
402,192,243918,1,0,0:0:0:0:
256,192,243918,1,0,0:0:0:0:
109,192,243918,1,0,0:0:0:0:
36,192,243918,1,0,0:0:0:0:
182,192,244053,1,0,0:0:0:0:
329,192,244053,1,0,0:0:0:0:
36,192,244120,1,0,0:0:0:0:
329,192,244188,1,0,0:0:0:0:
256,192,244188,1,0,0:0:0:0:
475,192,244188,1,0,0:0:0:0:
109,192,244188,1,0,0:0:0:0:
402,192,244323,1,0,0:0:0:0:
182,192,244323,1,0,0:0:0:0:
36,192,244323,1,0,0:0:0:0:
475,192,244323,1,0,0:0:0:0:
329,192,244391,1,0,0:0:0:0:
109,192,244458,1,0,0:0:0:0:
402,192,244458,1,0,0:0:0:0:
182,192,244458,1,0,0:0:0:0:
256,192,244526,1,0,0:0:0:0:
36,192,244593,1,0,0:0:0:0:
329,192,244593,1,0,0:0:0:0:
109,192,244593,1,0,0:0:0:0:
475,192,244593,1,0,0:0:0:0:
182,192,244661,1,0,0:0:0:0:
402,192,244661,1,0,0:0:0:0:
256,192,244661,1,0,0:0:0:0:
36,192,244728,1,0,0:0:0:0:
475,192,244728,1,0,0:0:0:0:
109,192,244728,1,0,0:0:0:0:
329,192,244728,1,0,0:0:0:0:
182,192,244864,1,0,0:0:0:0:
402,192,244864,1,0,0:0:0:0:
256,192,244931,1,0,0:0:0:0:
402,192,244999,1,0,0:0:0:0:
109,192,244999,1,0,0:0:0:0:
36,192,244999,1,0,0:0:0:0:
475,192,244999,1,0,0:0:0:0:
329,192,245066,1,0,0:0:0:0:
256,192,245134,1,0,0:0:0:0:
475,192,245134,1,0,0:0:0:0:
36,192,245134,1,0,0:0:0:0:
182,192,245134,1,0,0:0:0:0:
329,192,245269,1,0,0:0:0:0:
109,192,245269,1,0,0:0:0:0:
36,192,245269,1,0,0:0:0:0:
402,192,245269,1,0,0:0:0:0:
256,192,245337,1,0,0:0:0:0:
182,192,245404,1,0,0:0:0:0:
402,192,245404,1,0,0:0:0:0:
475,192,245404,1,0,0:0:0:0:
109,192,245404,1,0,0:0:0:0:
329,192,245472,1,0,0:0:0:0:
36,192,245539,1,0,0:0:0:0:
256,192,245539,1,0,0:0:0:0:
109,192,245539,1,0,0:0:0:0:
475,192,245539,1,0,0:0:0:0:
402,192,245607,1,0,0:0:0:0:
182,192,245607,1,0,0:0:0:0:
329,192,245674,1,0,0:0:0:0:
36,192,245674,1,0,0:0:0:0:
109,192,245674,1,0,0:0:0:0:
256,192,245674,1,0,0:0:0:0:
475,192,245809,1,0,0:0:0:0:
402,192,245809,1,0,0:0:0:0:
182,192,245809,1,0,0:0:0:0:
256,192,245877,1,0,0:0:0:0:
36,192,245945,1,0,0:0:0:0:
475,192,245945,1,0,0:0:0:0:
329,192,245945,1,0,0:0:0:0:
109,192,245945,1,0,0:0:0:0:
182,192,246012,1,0,0:0:0:0:
402,192,246080,1,0,0:0:0:0:
475,192,246080,1,0,0:0:0:0:
256,192,246080,1,0,0:0:0:0:
109,192,246080,1,0,0:0:0:0:
182,192,246215,1,0,0:0:0:0:
329,192,246215,1,0,0:0:0:0:
402,192,246350,1,0,0:0:0:0:
475,192,246350,1,0,0:0:0:0:
36,192,246350,1,0,0:0:0:0:
256,192,246350,1,0,0:0:0:0:
109,192,246350,1,0,0:0:0:0:
402,192,246485,1,0,0:0:0:0:
475,192,246485,1,0,0:0:0:0:
329,192,246485,1,0,0:0:0:0:
182,192,246485,1,0,0:0:0:0:
36,192,246485,1,0,0:0:0:0:
329,192,246620,1,0,0:0:0:0:
256,192,246620,1,0,0:0:0:0:
109,192,246620,1,0,0:0:0:0:
475,192,246755,1,0,0:0:0:0:
36,192,246755,1,0,0:0:0:0:
182,192,246755,1,0,0:0:0:0:
402,192,246755,1,0,0:0:0:0:
329,192,246891,1,0,0:0:0:0:
475,192,246891,1,0,0:0:0:0:
256,192,246891,1,0,0:0:0:0:
36,192,246891,1,0,0:0:0:0:
109,192,246891,1,0,0:0:0:0:
402,192,246958,1,0,0:0:0:0:
182,192,247026,1,0,0:0:0:0:
329,192,247026,1,0,0:0:0:0:
109,192,247093,1,0,0:0:0:0:
475,192,247161,1,0,0:0:0:0:
182,192,247161,1,0,0:0:0:0:
402,192,247161,1,0,0:0:0:0:
36,192,247161,1,0,0:0:0:0:
256,192,247161,1,0,0:0:0:0:
402,192,247296,1,0,0:0:0:0:
36,192,247296,1,0,0:0:0:0:
109,192,247296,1,0,0:0:0:0:
329,192,247296,1,0,0:0:0:0:
182,192,247364,1,0,0:0:0:0:
402,192,247431,1,0,0:0:0:0:
475,192,247431,1,0,0:0:0:0:
256,192,247431,1,0,0:0:0:0:
36,192,247499,1,0,0:0:0:0:
109,192,247566,1,0,0:0:0:0:
475,192,247566,1,0,0:0:0:0:
329,192,247566,1,0,0:0:0:0:
182,192,247566,1,0,0:0:0:0:
329,192,247701,1,0,0:0:0:0:
475,192,247701,1,0,0:0:0:0:
109,192,247701,1,0,0:0:0:0:
182,192,247701,1,0,0:0:0:0:
402,192,247837,1,0,0:0:0:0:
475,192,247837,1,0,0:0:0:0:
256,192,247837,1,0,0:0:0:0:
36,192,247837,1,0,0:0:0:0:
182,192,247837,1,0,0:0:0:0:
329,192,247972,1,0,0:0:0:0:
256,192,247972,1,0,0:0:0:0:
109,192,247972,1,0,0:0:0:0:
402,192,248039,1,0,0:0:0:0:
36,192,248107,1,0,0:0:0:0:
182,192,248107,1,0,0:0:0:0:
402,192,248174,1,0,0:0:0:0:
109,192,248242,1,0,0:0:0:0:
36,192,248242,1,0,0:0:0:0:
329,192,248242,1,0,0:0:0:0:
475,192,248242,1,0,0:0:0:0:
256,192,248242,1,0,0:0:0:0:
402,192,248377,1,0,0:0:0:0:
182,192,248377,1,0,0:0:0:0:
256,192,248445,1,0,0:0:0:0:
36,192,248512,1,0,0:0:0:0:
475,192,248512,1,0,0:0:0:0:
109,192,248512,1,0,0:0:0:0:
182,192,248580,1,0,0:0:0:0:
256,192,248647,1,0,0:0:0:0:
329,192,248647,1,0,0:0:0:0:
36,192,248647,1,0,0:0:0:0:
402,192,248647,1,0,0:0:0:0:
109,192,248715,1,0,0:0:0:0:
182,192,248782,1,0,0:0:0:0:
475,192,248782,1,0,0:0:0:0:
256,192,248782,1,0,0:0:0:0:
329,192,248850,1,0,0:0:0:0:
402,192,248918,1,0,0:0:0:0:
475,192,248918,1,0,0:0:0:0:
36,192,248918,1,0,0:0:0:0:
182,192,248918,1,0,0:0:0:0:
329,192,248985,1,0,0:0:0:0:
256,192,248985,1,0,0:0:0:0:
109,192,248985,1,0,0:0:0:0:
475,192,249053,1,0,0:0:0:0:
402,192,249053,1,0,0:0:0:0:
36,192,249053,1,0,0:0:0:0:
182,192,249053,1,0,0:0:0:0:
256,192,249120,1,0,0:0:0:0:
329,192,249188,1,0,0:0:0:0:
109,192,249188,1,0,0:0:0:0:
182,192,249255,1,0,0:0:0:0:
256,192,249323,1,0,0:0:0:0:
109,192,249323,1,0,0:0:0:0:
475,192,249323,1,0,0:0:0:0:
36,192,249323,1,0,0:0:0:0:
402,192,249323,1,0,0:0:0:0:
329,192,249458,1,0,0:0:0:0:
182,192,249458,1,0,0:0:0:0:
402,192,249526,1,0,0:0:0:0:
475,192,249593,1,0,0:0:0:0:
182,192,249593,1,0,0:0:0:0:
36,192,249593,1,0,0:0:0:0:
256,192,249593,1,0,0:0:0:0:
402,192,249661,1,0,0:0:0:0:
256,192,249728,1,0,0:0:0:0:
329,192,249728,1,0,0:0:0:0:
109,192,249728,1,0,0:0:0:0:
36,192,249728,1,0,0:0:0:0:
256,192,249864,1,0,0:0:0:0:
329,192,249864,1,0,0:0:0:0:
36,192,249864,1,0,0:0:0:0:
109,192,249864,1,0,0:0:0:0:
329,192,249999,1,0,0:0:0:0:
475,192,249999,1,0,0:0:0:0:
182,192,249999,1,0,0:0:0:0:
36,192,249999,1,0,0:0:0:0:
402,192,250134,1,0,0:0:0:0:
475,192,250134,1,0,0:0:0:0:
182,192,250134,1,0,0:0:0:0:
256,192,250134,1,0,0:0:0:0:
475,192,250269,1,0,0:0:0:0:
402,192,250269,1,0,0:0:0:0:
256,192,250269,1,0,0:0:0:0:
182,192,250269,1,0,0:0:0:0:
329,192,250404,1,0,0:0:0:0:
475,192,250404,1,0,0:0:0:0:
182,192,250404,1,0,0:0:0:0:
36,192,250404,1,0,0:0:0:0:
402,192,250539,1,0,0:0:0:0:
109,192,250539,1,0,0:0:0:0:
256,192,250607,1,0,0:0:0:0:
36,192,250674,1,0,0:0:0:0:
109,192,250674,1,0,0:0:0:0:
402,192,250674,1,0,0:0:0:0:
475,192,250674,1,0,0:0:0:0:
182,192,250742,1,0,0:0:0:0:
329,192,250742,1,0,0:0:0:0:
402,192,250809,1,0,0:0:0:0:
475,192,250809,1,0,0:0:0:0:
256,192,250809,1,0,0:0:0:0:
36,192,250809,1,0,0:0:0:0:
109,192,250809,1,0,0:0:0:0:
36,192,250945,1,0,0:0:0:0:
329,192,250945,1,0,0:0:0:0:
182,192,250945,1,0,0:0:0:0:
402,192,251080,1,0,0:0:0:0:
475,192,251080,1,0,0:0:0:0:
109,192,251080,1,0,0:0:0:0:
256,192,251080,1,0,0:0:0:0:
109,192,251215,1,0,0:0:0:0:
256,192,251215,1,0,0:0:0:0:
475,192,251215,1,0,0:0:0:0:
36,192,251215,1,0,0:0:0:0:
329,192,251215,1,0,0:0:0:0:
182,192,251282,1,0,0:0:0:0:
329,192,251350,1,0,0:0:0:0:
402,192,251350,1,0,0:0:0:0:
182,192,251418,1,0,0:0:0:0:
402,192,251485,1,0,0:0:0:0:
475,192,251485,1,0,0:0:0:0:
256,192,251485,1,0,0:0:0:0:
109,192,251485,1,0,0:0:0:0:
36,192,251485,1,0,0:0:0:0:
329,192,251620,1,0,0:0:0:0:
182,192,251620,1,0,0:0:0:0:
402,192,251688,1,0,0:0:0:0:
475,192,251755,1,0,0:0:0:0:
36,192,251755,1,0,0:0:0:0:
182,192,251755,1,0,0:0:0:0:
256,192,251823,1,0,0:0:0:0:
475,192,251891,1,0,0:0:0:0:
329,192,251891,1,0,0:0:0:0:
109,192,251891,1,0,0:0:0:0:
36,192,251891,1,0,0:0:0:0:
182,192,251958,1,0,0:0:0:0:
475,192,252026,1,0,0:0:0:0:
329,192,252026,1,0,0:0:0:0:
109,192,252026,1,0,0:0:0:0:
36,192,252026,1,0,0:0:0:0:
182,192,252093,1,0,0:0:0:0:
36,192,252161,1,0,0:0:0:0:
402,192,252161,1,0,0:0:0:0:
109,192,252161,1,0,0:0:0:0:
475,192,252161,1,0,0:0:0:0:
256,192,252161,1,0,0:0:0:0:
402,192,252296,1,0,0:0:0:0:
329,192,252296,1,0,0:0:0:0:
182,192,252296,1,0,0:0:0:0:
109,192,252364,1,0,0:0:0:0:
329,192,252431,1,0,0:0:0:0:
256,192,252431,1,0,0:0:0:0:
109,192,252499,1,0,0:0:0:0:
402,192,252566,1,0,0:0:0:0:
475,192,252566,1,0,0:0:0:0:
256,192,252566,1,0,0:0:0:0:
182,192,252566,1,0,0:0:0:0:
36,192,252566,1,0,0:0:0:0:
329,192,252701,1,0,0:0:0:0:
109,192,252701,1,0,0:0:0:0:
402,192,252769,1,0,0:0:0:0:
256,192,252837,1,0,0:0:0:0:
36,192,252837,1,0,0:0:0:0:
109,192,252837,1,0,0:0:0:0:
475,192,252837,1,0,0:0:0:0:
36,192,252972,1,0,0:0:0:0:
402,192,252972,1,0,0:0:0:0:
475,192,252972,1,0,0:0:0:0:
182,192,252972,1,0,0:0:0:0:
329,192,253039,1,0,0:0:0:0:
402,192,253107,1,0,0:0:0:0:
109,192,253107,1,0,0:0:0:0:
182,192,253107,1,0,0:0:0:0:
256,192,253174,1,0,0:0:0:0:
329,192,253242,1,0,0:0:0:0:
475,192,253242,1,0,0:0:0:0:
36,192,253242,1,0,0:0:0:0:
109,192,253242,1,0,0:0:0:0:
402,192,253309,1,0,0:0:0:0:
182,192,253309,1,0,0:0:0:0:
256,192,253309,1,0,0:0:0:0:
109,192,253377,1,0,0:0:0:0:
36,192,253377,1,0,0:0:0:0:
329,192,253377,1,0,0:0:0:0:
475,192,253377,1,0,0:0:0:0:
402,192,253512,1,0,0:0:0:0:
182,192,253512,1,0,0:0:0:0:
329,192,253580,1,0,0:0:0:0:
475,192,253647,1,0,0:0:0:0:
256,192,253647,1,0,0:0:0:0:
182,192,253647,1,0,0:0:0:0:
36,192,253647,1,0,0:0:0:0:
402,192,253715,1,0,0:0:0:0:
329,192,253782,1,0,0:0:0:0:
256,192,253782,1,0,0:0:0:0:
109,192,253782,1,0,0:0:0:0:
36,192,253782,1,0,0:0:0:0:
475,192,253918,1,0,0:0:0:0:
109,192,253918,1,0,0:0:0:0:
182,192,253918,1,0,0:0:0:0:
402,192,253918,1,0,0:0:0:0:
256,192,253985,1,0,0:0:0:0:
402,192,254053,1,0,0:0:0:0:
329,192,254053,1,0,0:0:0:0:
109,192,254053,1,0,0:0:0:0:
36,192,254053,1,0,0:0:0:0:
256,192,254120,1,0,0:0:0:0:
475,192,254188,1,0,0:0:0:0:
36,192,254188,1,0,0:0:0:0:
402,192,254188,1,0,0:0:0:0:
182,192,254188,1,0,0:0:0:0:
109,192,254255,1,0,0:0:0:0:
329,192,254255,1,0,0:0:0:0:
402,192,254323,1,0,0:0:0:0:
475,192,254323,1,0,0:0:0:0:
256,192,254323,1,0,0:0:0:0:
182,192,254323,1,0,0:0:0:0:
329,192,254458,1,0,0:0:0:0:
36,192,254458,1,0,0:0:0:0:
109,192,254458,1,0,0:0:0:0:
402,192,254526,1,0,0:0:0:0:
182,192,254593,1,0,0:0:0:0:
109,192,254593,1,0,0:0:0:0:
256,192,254593,1,0,0:0:0:0:
475,192,254593,1,0,0:0:0:0:
329,192,254661,1,0,0:0:0:0:
36,192,254728,1,0,0:0:0:0:
475,192,254728,1,0,0:0:0:0:
182,192,254728,1,0,0:0:0:0:
402,192,254728,1,0,0:0:0:0:
109,192,254864,1,0,0:0:0:0:
329,192,254864,1,0,0:0:0:0:
475,192,254999,1,0,0:0:0:0:
402,192,254999,1,0,0:0:0:0:
256,192,254999,1,0,0:0:0:0:
36,192,254999,1,0,0:0:0:0:
182,192,254999,1,0,0:0:0:0:
109,192,255134,1,0,0:0:0:0:
36,192,255134,1,0,0:0:0:0:
256,192,255134,1,0,0:0:0:0:
329,192,255134,1,0,0:0:0:0:
475,192,255134,1,0,0:0:0:0:
402,192,255269,1,0,0:0:0:0:
329,192,255269,1,0,0:0:0:0:
182,192,255269,1,0,0:0:0:0:
36,192,255404,1,0,0:0:0:0:
475,192,255404,1,0,0:0:0:0:
256,192,255404,1,0,0:0:0:0:
109,192,255404,1,0,0:0:0:0:
475,192,255539,1,0,0:0:0:0:
256,192,255539,1,0,0:0:0:0:
402,192,255539,1,0,0:0:0:0:
182,192,255539,1,0,0:0:0:0:
36,192,255539,1,0,0:0:0:0:
329,192,255607,1,0,0:0:0:0:
182,192,255674,1,0,0:0:0:0:
109,192,255674,1,0,0:0:0:0:
329,192,255742,1,0,0:0:0:0:
475,192,255809,1,0,0:0:0:0:
402,192,255809,1,0,0:0:0:0:
36,192,255809,1,0,0:0:0:0:
256,192,255809,1,0,0:0:0:0:
109,192,255809,1,0,0:0:0:0:
475,192,255945,1,0,0:0:0:0:
329,192,255945,1,0,0:0:0:0:
36,192,255945,1,0,0:0:0:0:
182,192,255945,1,0,0:0:0:0:
256,192,256012,1,0,0:0:0:0:
475,192,256080,1,0,0:0:0:0:
402,192,256080,1,0,0:0:0:0:
109,192,256080,1,0,0:0:0:0:
329,192,256147,1,0,0:0:0:0:
256,192,256215,1,0,0:0:0:0:
402,192,256215,1,0,0:0:0:0:
36,192,256215,1,0,0:0:0:0:
182,192,256215,1,0,0:0:0:0:
256,192,256350,1,0,0:0:0:0:
402,192,256350,1,0,0:0:0:0:
36,192,256350,1,0,0:0:0:0:
182,192,256350,1,0,0:0:0:0:
109,192,256485,1,0,0:0:0:0:
36,192,256485,1,0,0:0:0:0:
256,192,256485,1,0,0:0:0:0:
329,192,256485,1,0,0:0:0:0:
475,192,256485,1,0,0:0:0:0:
109,192,256620,1,0,0:0:0:0:
402,192,256620,1,0,0:0:0:0:
182,192,256620,1,0,0:0:0:0:
329,192,256688,1,0,0:0:0:0:
182,192,256755,1,0,0:0:0:0:
475,192,256755,1,0,0:0:0:0:
329,192,256823,1,0,0:0:0:0:
475,192,256891,1,0,0:0:0:0:
402,192,256891,1,0,0:0:0:0:
36,192,256891,1,0,0:0:0:0:
256,192,256891,1,0,0:0:0:0:
109,192,256891,1,0,0:0:0:0:
329,192,257026,1,0,0:0:0:0:
182,192,257026,1,0,0:0:0:0:
36,192,257093,1,0,0:0:0:0:
402,192,257161,1,0,0:0:0:0:
256,192,257161,1,0,0:0:0:0:
109,192,257161,1,0,0:0:0:0:
475,192,257228,1,0,0:0:0:0:
36,192,257296,1,0,0:0:0:0:
256,192,257296,1,0,0:0:0:0:
329,192,257296,1,0,0:0:0:0:
182,192,257296,1,0,0:0:0:0:
402,192,257364,1,0,0:0:0:0:
475,192,257431,1,0,0:0:0:0:
36,192,257431,1,0,0:0:0:0:
109,192,257431,1,0,0:0:0:0:
256,192,257499,1,0,0:0:0:0:
475,192,257566,1,0,0:0:0:0:
402,192,257566,1,0,0:0:0:0:
182,192,257566,1,0,0:0:0:0:
36,192,257566,1,0,0:0:0:0:
109,192,257634,1,0,0:0:0:0:
256,192,257634,1,0,0:0:0:0:
329,192,257634,1,0,0:0:0:0:
402,192,257701,1,0,0:0:0:0:
475,192,257701,1,0,0:0:0:0:
36,192,257701,1,0,0:0:0:0:
182,192,257701,1,0,0:0:0:0:
329,192,257769,1,0,0:0:0:0:
109,192,257837,1,0,0:0:0:0:
256,192,257837,1,0,0:0:0:0:
402,192,257904,1,0,0:0:0:0:
475,192,257972,1,0,0:0:0:0:
256,192,257972,1,0,0:0:0:0:
329,192,257972,1,0,0:0:0:0:
36,192,257972,1,0,0:0:0:0:
182,192,257972,1,0,0:0:0:0:
402,192,258107,1,0,0:0:0:0:
182,192,258107,1,0,0:0:0:0:
109,192,258174,1,0,0:0:0:0:
36,192,258242,1,0,0:0:0:0:
256,192,258242,1,0,0:0:0:0:
402,192,258242,1,0,0:0:0:0:
475,192,258242,1,0,0:0:0:0:
329,192,258309,1,0,0:0:0:0:
36,192,258377,1,0,0:0:0:0:
256,192,258377,1,0,0:0:0:0:
182,192,258377,1,0,0:0:0:0:
475,192,258377,1,0,0:0:0:0:
475,192,258512,1,0,0:0:0:0:
256,192,258512,1,0,0:0:0:0:
36,192,258512,1,0,0:0:0:0:
182,192,258512,1,0,0:0:0:0:
182,192,258647,1,0,0:0:0:0:
402,192,258647,1,0,0:0:0:0:
109,192,258647,1,0,0:0:0:0:
329,192,258647,1,0,0:0:0:0:
475,192,258782,1,0,0:0:0:0:
256,192,258782,1,0,0:0:0:0:
329,192,258782,1,0,0:0:0:0:
36,192,258782,1,0,0:0:0:0:
475,192,258918,1,0,0:0:0:0:
256,192,258918,1,0,0:0:0:0:
329,192,258918,1,0,0:0:0:0:
36,192,258918,1,0,0:0:0:0:
109,192,259053,1,0,0:0:0:0:
329,192,259053,1,0,0:0:0:0:
182,192,259053,1,0,0:0:0:0:
402,192,259053,1,0,0:0:0:0:
182,192,259188,1,0,0:0:0:0:
475,192,259188,1,0,0:0:0:0:
402,192,259255,1,0,0:0:0:0:
256,192,259323,1,0,0:0:0:0:
329,192,259323,1,0,0:0:0:0:
36,192,259323,1,0,0:0:0:0:
109,192,259323,1,0,0:0:0:0:
182,192,259391,1,0,0:0:0:0:
475,192,259391,1,0,0:0:0:0:
402,192,259391,1,0,0:0:0:0:
329,192,259458,1,0,0:0:0:0:
256,192,259458,1,0,0:0:0:0:
36,192,259458,1,0,0:0:0:0:
109,192,259458,1,0,0:0:0:0:
36,192,259593,1,0,0:0:0:0:
182,192,259593,1,0,0:0:0:0:
402,192,259593,1,0,0:0:0:0:
329,192,259728,1,0,0:0:0:0:
475,192,259728,1,0,0:0:0:0:
109,192,259728,1,0,0:0:0:0:
256,192,259728,1,0,0:0:0:0:
475,192,259864,1,0,0:0:0:0:
256,192,259864,1,0,0:0:0:0:
182,192,259864,1,0,0:0:0:0:
36,192,259864,1,0,0:0:0:0:
402,192,259864,1,0,0:0:0:0:
329,192,259931,1,0,0:0:0:0:
182,192,259999,1,0,0:0:0:0:
109,192,259999,1,0,0:0:0:0:
329,192,260066,1,0,0:0:0:0:
36,192,260134,1,0,0:0:0:0:
402,192,260134,1,0,0:0:0:0:
109,192,260134,1,0,0:0:0:0:
475,192,260134,1,0,0:0:0:0:
256,192,260134,1,0,0:0:0:0:
182,192,260269,1,0,0:0:0:0:
329,192,260269,1,0,0:0:0:0:
109,192,260337,1,0,0:0:0:0:
329,192,260404,1,0,0:0:0:0:
475,192,260404,1,0,0:0:0:0:
36,192,260404,1,0,0:0:0:0:
256,192,260472,1,0,0:0:0:0:
475,192,260539,5,0,0:0:0:0:
182,192,260539,1,0,0:0:0:0:
36,192,260539,1,0,0:0:0:0:
402,192,260539,1,0,0:0:0:0:
329,192,260607,1,0,0:0:0:0:
36,192,260674,1,0,0:0:0:0:
402,192,260674,1,0,0:0:0:0:
475,192,260674,1,0,0:0:0:0:
182,192,260674,1,0,0:0:0:0:
329,192,260742,1,0,0:0:0:0:
256,192,260809,1,0,0:0:0:0:
36,192,260809,1,0,0:0:0:0:
109,192,260809,1,0,0:0:0:0:
475,192,260809,1,0,0:0:0:0:
402,192,260809,1,0,0:0:0:0:
109,192,260945,1,0,0:0:0:0:
329,192,260945,1,0,0:0:0:0:
182,192,260945,1,0,0:0:0:0:
402,192,261012,1,0,0:0:0:0:
182,192,261080,1,0,0:0:0:0:
36,192,261080,1,0,0:0:0:0:
329,192,261147,1,0,0:0:0:0:
475,192,261215,1,0,0:0:0:0:
402,192,261215,1,0,0:0:0:0:
36,192,261215,1,0,0:0:0:0:
256,192,261215,1,0,0:0:0:0:
109,192,261215,1,0,0:0:0:0:
329,192,261350,1,0,0:0:0:0:
182,192,261350,1,0,0:0:0:0:
402,192,261418,1,0,0:0:0:0:
36,192,261485,1,0,0:0:0:0:
475,192,261485,1,0,0:0:0:0:
256,192,261485,1,0,0:0:0:0:
109,192,261485,1,0,0:0:0:0:
402,192,261620,1,0,0:0:0:0:
182,192,261620,1,0,0:0:0:0:
36,192,261620,1,0,0:0:0:0:
329,192,261620,1,0,0:0:0:0:
109,192,261688,1,0,0:0:0:0:
256,192,261755,1,0,0:0:0:0:
402,192,261755,1,0,0:0:0:0:
475,192,261755,1,0,0:0:0:0:
182,192,261823,1,0,0:0:0:0:
329,192,261891,1,0,0:0:0:0:
475,192,261891,1,0,0:0:0:0:
36,192,261891,1,0,0:0:0:0:
109,192,261891,1,0,0:0:0:0:
182,192,261958,1,0,0:0:0:0:
256,192,261958,1,0,0:0:0:0:
402,192,261958,1,0,0:0:0:0:
109,192,262026,1,0,0:0:0:0:
36,192,262026,1,0,0:0:0:0:
329,192,262026,1,0,0:0:0:0:
475,192,262026,1,0,0:0:0:0:
182,192,262161,1,0,0:0:0:0:
402,192,262161,1,0,0:0:0:0:
109,192,262228,1,0,0:0:0:0:
329,192,262296,1,0,0:0:0:0:
256,192,262296,1,0,0:0:0:0:
36,192,262296,1,0,0:0:0:0:
475,192,262296,1,0,0:0:0:0:
109,192,262364,1,0,0:0:0:0:
475,192,262431,1,0,0:0:0:0:
182,192,262431,1,0,0:0:0:0:
402,192,262431,1,0,0:0:0:0:
256,192,262431,1,0,0:0:0:0:
36,192,262566,1,0,0:0:0:0:
402,192,262566,1,0,0:0:0:0:
109,192,262566,1,0,0:0:0:0:
329,192,262566,1,0,0:0:0:0:
256,192,262634,1,0,0:0:0:0:
475,192,262701,1,0,0:0:0:0:
402,192,262701,1,0,0:0:0:0:
109,192,262701,1,0,0:0:0:0:
182,192,262701,1,0,0:0:0:0:
256,192,262769,1,0,0:0:0:0:
475,192,262837,1,0,0:0:0:0:
329,192,262837,1,0,0:0:0:0:
109,192,262837,1,0,0:0:0:0:
36,192,262837,1,0,0:0:0:0:
402,192,262904,1,0,0:0:0:0:
182,192,262904,1,0,0:0:0:0:
256,192,262972,1,0,0:0:0:0:
329,192,262972,1,0,0:0:0:0:
36,192,262972,1,0,0:0:0:0:
109,192,262972,1,0,0:0:0:0:
475,192,263107,1,0,0:0:0:0:
402,192,263107,1,0,0:0:0:0:
182,192,263107,1,0,0:0:0:0:
329,192,263174,1,0,0:0:0:0:
475,192,263242,1,0,0:0:0:0:
182,192,263242,1,0,0:0:0:0:
256,192,263242,1,0,0:0:0:0:
36,192,263242,1,0,0:0:0:0:
402,192,263309,1,0,0:0:0:0:
256,192,263377,1,0,0:0:0:0:
36,192,263377,1,0,0:0:0:0:
329,192,263377,1,0,0:0:0:0:
109,192,263377,1,0,0:0:0:0:
182,192,263512,1,0,0:0:0:0:
402,192,263512,1,0,0:0:0:0:
36,192,263647,1,0,0:0:0:0:
256,192,263647,1,0,0:0:0:0:
109,192,263647,1,0,0:0:0:0:
329,192,263647,1,0,0:0:0:0:
475,192,263647,1,0,0:0:0:0:
402,192,263782,1,0,0:0:0:0:
475,192,263782,1,0,0:0:0:0:
256,192,263782,1,0,0:0:0:0:
182,192,263782,1,0,0:0:0:0:
36,192,263782,1,0,0:0:0:0:
329,192,263918,1,0,0:0:0:0:
182,192,263918,1,0,0:0:0:0:
109,192,263918,1,0,0:0:0:0:
475,192,264053,1,0,0:0:0:0:
36,192,264053,1,0,0:0:0:0:
256,192,264053,1,0,0:0:0:0:
402,192,264053,1,0,0:0:0:0:
109,192,264188,1,0,0:0:0:0:
256,192,264188,1,0,0:0:0:0:
475,192,264188,1,0,0:0:0:0:
36,192,264188,1,0,0:0:0:0:
329,192,264188,1,0,0:0:0:0:
182,192,264255,1,0,0:0:0:0:
329,192,264323,1,0,0:0:0:0:
402,192,264323,1,0,0:0:0:0:
182,192,264391,1,0,0:0:0:0:
475,192,264458,1,0,0:0:0:0:
402,192,264458,1,0,0:0:0:0:
256,192,264458,1,0,0:0:0:0:
109,192,264458,1,0,0:0:0:0:
36,192,264458,1,0,0:0:0:0:
475,192,264593,1,0,0:0:0:0:
109,192,264593,1,0,0:0:0:0:
182,192,264593,1,0,0:0:0:0:
329,192,264593,1,0,0:0:0:0:
256,192,264661,1,0,0:0:0:0:
329,192,264728,1,0,0:0:0:0:
402,192,264728,1,0,0:0:0:0:
36,192,264728,1,0,0:0:0:0:
182,192,264796,1,0,0:0:0:0:
109,192,264864,1,0,0:0:0:0:
329,192,264864,1,0,0:0:0:0:
256,192,264864,1,0,0:0:0:0:
475,192,264864,1,0,0:0:0:0:
475,192,264999,1,0,0:0:0:0:
109,192,264999,1,0,0:0:0:0:
256,192,264999,1,0,0:0:0:0:
329,192,264999,1,0,0:0:0:0:
402,192,265134,1,0,0:0:0:0:
182,192,265134,1,0,0:0:0:0:
475,192,265134,1,0,0:0:0:0:
36,192,265134,1,0,0:0:0:0:
256,192,265134,1,0,0:0:0:0:
402,192,265269,1,0,0:0:0:0:
329,192,265269,1,0,0:0:0:0:
109,192,265269,1,0,0:0:0:0:
182,192,265337,1,0,0:0:0:0:
329,192,265404,1,0,0:0:0:0:
36,192,265404,1,0,0:0:0:0:
182,192,265472,1,0,0:0:0:0:
109,192,265539,1,0,0:0:0:0:
36,192,265539,1,0,0:0:0:0:
256,192,265539,1,0,0:0:0:0:
402,192,265539,1,0,0:0:0:0:
475,192,265539,1,0,0:0:0:0:
329,192,265674,1,0,0:0:0:0:
182,192,265674,1,0,0:0:0:0:
109,192,265742,1,0,0:0:0:0:
329,192,265809,1,0,0:0:0:0:
475,192,265809,1,0,0:0:0:0:
36,192,265809,1,0,0:0:0:0:
182,192,265877,1,0,0:0:0:0:
475,192,265945,1,0,0:0:0:0:
402,192,265945,1,0,0:0:0:0:
36,192,265945,1,0,0:0:0:0:
256,192,265945,1,0,0:0:0:0:
182,192,266012,1,0,0:0:0:0:
475,192,266080,1,0,0:0:0:0:
109,192,266080,1,0,0:0:0:0:
329,192,266080,1,0,0:0:0:0:
256,192,266147,1,0,0:0:0:0:
36,192,266215,1,0,0:0:0:0:
182,192,266215,1,0,0:0:0:0:
402,192,266215,1,0,0:0:0:0:
475,192,266215,1,0,0:0:0:0:
109,192,266282,1,0,0:0:0:0:
256,192,266282,1,0,0:0:0:0:
329,192,266282,1,0,0:0:0:0:
36,192,266350,1,0,0:0:0:0:
182,192,266350,1,0,0:0:0:0:
402,192,266350,1,0,0:0:0:0:
475,192,266350,1,0,0:0:0:0:
329,192,266418,1,0,0:0:0:0:
109,192,266485,1,0,0:0:0:0:
256,192,266485,1,0,0:0:0:0:
402,192,266553,1,0,0:0:0:0:
36,192,266620,1,0,0:0:0:0:
256,192,266620,1,0,0:0:0:0:
182,192,266620,1,0,0:0:0:0:
329,192,266620,1,0,0:0:0:0:
475,192,266620,1,0,0:0:0:0:
402,192,266755,1,0,0:0:0:0:
109,192,266755,1,0,0:0:0:0:
256,192,266823,1,0,0:0:0:0:
402,192,266891,1,0,0:0:0:0:
475,192,266891,1,0,0:0:0:0:
182,192,266891,1,0,0:0:0:0:
36,192,266891,1,0,0:0:0:0:
329,192,266958,1,0,0:0:0:0:
36,192,267026,1,0,0:0:0:0:
402,192,267026,1,0,0:0:0:0:
256,192,267026,1,0,0:0:0:0:
109,192,267026,1,0,0:0:0:0:
256,192,267161,1,0,0:0:0:0:
402,192,267161,1,0,0:0:0:0:
36,192,267161,1,0,0:0:0:0:
109,192,267161,1,0,0:0:0:0:
182,192,267296,1,0,0:0:0:0:
36,192,267296,1,0,0:0:0:0:
329,192,267296,1,0,0:0:0:0:
475,192,267296,1,0,0:0:0:0:
402,192,267431,1,0,0:0:0:0:
475,192,267431,1,0,0:0:0:0:
109,192,267431,1,0,0:0:0:0:
256,192,267431,1,0,0:0:0:0:
109,192,267566,1,0,0:0:0:0:
256,192,267566,1,0,0:0:0:0:
402,192,267566,1,0,0:0:0:0:
475,192,267566,1,0,0:0:0:0:
329,192,267701,1,0,0:0:0:0:
475,192,267701,1,0,0:0:0:0:
182,192,267701,1,0,0:0:0:0:
36,192,267701,1,0,0:0:0:0:
475,192,267837,5,0,0:0:0:0:
36,192,267837,1,0,0:0:0:0:
109,192,267837,1,0,0:0:0:0:
402,192,267870,1,0,0:0:0:0:
329,192,267904,1,0,0:0:0:0:
182,192,267938,1,0,0:0:0:0:
36,192,267972,1,0,0:0:0:0:
402,192,267972,1,0,0:0:0:0:
475,192,267972,1,0,0:0:0:0:
256,192,267972,1,0,0:0:0:0:
109,192,268005,1,0,0:0:0:0:
182,192,268039,1,0,0:0:0:0:
329,192,268073,1,0,0:0:0:0:
402,192,268107,1,0,0:0:0:0:
36,192,268107,1,0,0:0:0:0:
109,192,268107,1,0,0:0:0:0:
256,192,268107,1,0,0:0:0:0:
475,192,268107,1,0,0:0:0:0:
