osu file format v14

[General]
AudioFilename: goreshit - tomboyish love for soda pop and apple sweets digipak - 24 a flat chest is fine, too..mp3
AudioLeadIn: 0
PreviewTime: 20000
Countdown: 0
SampleSet: Soft
StackLeniency: 0.7
Mode: 2
LetterboxInBreaks: 0
WidescreenStoryboard: 0

[Editor]
Bookmarks: 20000,40000,50000,53333,66666
DistanceSpacing: 1.5
BeatDivisor: 4
GridSize: 32
TimelineZoom: 2.699999

[Metadata]
Title:a flat chest is fine, too.
TitleUnicode:a flat chest is fine, too.
Artist:goreshit
ArtistUnicode:goreshit
Creator:Lokovodo
Version:Normal
Source:
Tags:lolicore tomboyish love for soda pop and apple sweets digipak
BeatmapID:696125
BeatmapSetID:311688

[Difficulty]
HPDrainRate:4
CircleSize:3
OverallDifficulty:8
ApproachRate:8
SliderMultiplier:1.8
SliderTickRate:1

[Events]
//Background and Video events
0,0,"Cirno.full.24177.jpg",0,0
//Break Periods
//Storyboard Layer 0 (Background)
//Storyboard Layer 1 (Fail)
//Storyboard Layer 2 (Pass)
//Storyboard Layer 3 (Foreground)
//Storyboard Sound Samples

[TimingPoints]
0,416.666666666667,4,2,0,100,1,0
11250,-80,4,2,0,100,0,0
11666,-100,4,2,0,100,0,0
12916,-80,4,2,0,100,0,0
13333,-100,4,2,0,100,0,0
14583,-66.6666666666667,4,2,0,100,0,0
15000,-100,4,2,0,100,0,0
16250,-66.6666666666667,4,2,0,100,0,0
16666,-100,4,2,0,100,0,0
17916,-57.1428571428571,4,2,0,100,0,0
18333,-100,4,2,0,100,0,0
19583,-50,4,2,0,100,0,0
20000,-100,4,2,0,100,0,0
23333,-66.6666666666667,4,2,0,100,0,1
36666,-100,4,2,0,100,0,0
40000,-66.6666666666667,4,2,0,100,0,1
50000,-100,4,2,0,100,0,0
53333,-66.6666666666667,4,2,0,100,0,1
66666,-100,4,2,0,100,0,0
72916,-50,4,2,0,100,0,0

[HitObjects]
128,192,0,5,0,0:0:0:0:
256,192,416,1,0,0:0:0:0:
128,128,833,1,0,0:0:0:0:
256,128,1250,1,0,0:0:0:0:
384,256,1666,5,0,0:0:0:0:
256,256,2083,1,0,0:0:0:0:
384,320,2500,1,0,0:0:0:0:
256,320,2916,1,0,0:0:0:0:
128,64,3333,5,0,0:0:0:0:
256,64,3750,1,0,0:0:0:0:
128,128,4166,1,0,0:0:0:0:
256,128,4583,1,0,0:0:0:0:
384,256,5000,5,0,0:0:0:0:
256,256,5416,1,0,0:0:0:0:
384,320,5833,1,0,0:0:0:0:
256,320,6250,1,0,0:0:0:0:
96,320,6666,6,0,L|128:256,1,60
192,320,7083,2,0,L|192:256,1,60
314,266,7500,2,0,L|288:320,1,60
384,320,7916,2,0,L|448:320,2,60
448,256,8333,6,0,L|416:192,1,60
325,202,8750,2,0,L|324:272,1,60
256,256,9167,2,0,L|229:202,1,60
100,256,9583,2,0,L|160:256,2,60
128,192,10000,6,0,L|160:128,1,60
248,136,10417,2,0,L|250:210,1,60
346,138,10834,2,0,L|320:192,1,60
416,192,11250,2,0,L|512:192,2,75
384,128,11666,6,0,L|352:64,1,60
260,76,12083,2,0,L|260:136,1,60
192,128,12500,2,0,L|165:74,1,60
21,128,12916,2,0,L|96:128,2,75
128,288,13333,6,0,L|160:224,1,60
248,240,13750,2,0,L|248:304,1,60
320,288,14167,2,0,L|346:234,1,60
416,288,14583,2,0,P|464:272|496:224,2,90.0000034332277
384,224,15000,6,0,L|352:160,1,60
260,172,15416,2,0,L|260:240,1,60
192,224,15833,2,0,L|165:170,1,60
16,224,16250,2,0,P|64:208|96:160,2,90.0000034332277
128,288,16666,6,0,L|160:224,1,60
248,232,17083,2,0,L|248:304,1,60
346,234,17500,2,0,L|320:288,1,60
416,288,17916,2,0,P|464:272|496:224,2,105.000001001358
384,224,18333,6,0,L|352:160,1,60
264,172,18749,2,0,L|263:250,1,60
192,224,19166,2,0,L|165:170,1,60
16,224,19583,6,0,B|192:224|192:96|352:96,1,360
416,96,20208,5,0,0:0:0:0:
480,128,20416,2,0,L|512:128,3,22.5
448,224,20625,2,0,L|384:224,2,45
480,320,21041,2,0,L|384:352,1,90
384,320,21302,2,0,L|368:288,1,22.5
352,208,21458,1,0,0:0:0:0:
376,208,21562,1,0,0:0:0:0:
400,208,21666,6,0,L|296:208,1,90
384,128,22083,2,0,B|320:96|320:160|192:128,1,180
128,128,22708,1,0,0:0:0:0:
192,216,22916,1,0,0:0:0:0:
104,216,23125,2,0,L|56:216,1,45
96,320,23333,6,0,B|192:288|192:352|256:288|256:288|288:320|352:256,1,270.000010299683
384,352,23958,1,0,0:0:0:0:
480,288,24166,2,0,B|384:256|384:320|320:256|320:256|288:288|224:224,1,270.000010299683
192,320,24791,1,0,0:0:0:0:
96,64,25000,6,0,B|192:96|192:32|256:96|256:96|288:64|352:128,1,270.000010299683
384,32,25625,1,0,0:0:0:0:
480,96,25833,2,0,B|384:128|384:64|320:128|320:128|288:96|224:160,1,270.000010299683
192,64,26458,1,0,0:0:0:0:
256,256,26666,6,0,B|384:352|384:256|320:224|288:352|192:320,1,270.000010299683
128,288,27291,1,0,0:0:0:0:
64,224,27500,2,0,P|32:288|64:352,1,135.000005149842
144,352,27916,1,0,0:0:0:0:
232,352,28125,1,0,0:0:0:0:
320,352,28333,6,0,B|384:192|384:192|320:160|288:192,1,270.000010299683
384,192,28958,1,0,0:0:0:0:
480,192,29166,2,0,P|416:128|352:128,1,135.000005149842
284,160,29583,1,0,0:0:0:0:
192,160,29791,1,0,0:0:0:0:
256,256,30000,6,0,B|128:352|128:256|192:224|224:352|320:320,1,270.000010299683
384,288,30625,1,0,0:0:0:0:
448,224,30834,2,0,P|480:288|448:352,1,135.000005149842
368,352,31250,1,0,0:0:0:0:
280,352,31459,1,0,0:0:0:0:
192,352,31667,6,0,B|128:192|128:192|192:160|224:192,1,270.000010299683
128,192,32292,1,0,0:0:0:0:
32,192,32500,2,0,P|96:128|160:128,1,135.000005149842
228,160,32917,1,0,0:0:0:0:
320,160,33125,1,0,0:0:0:0:
256,72,33333,6,0,B|176:40|160:96|160:96|320:96,1,270.000010299683
408,96,33958,1,0,0:0:0:0:
504,96,34166,2,0,P|424:64|408:96,1,135.000005149842
312,96,34583,1,0,0:0:0:0:
216,88,34791,1,0,0:0:0:0:
312,176,35000,2,0,P|408:200|488:344,1,270.000010299683
392,336,35625,1,0,0:0:0:0:
296,336,35833,1,0,0:0:0:0:
200,336,36041,1,0,0:0:0:0:
112,336,36250,1,0,0:0:0:0:
96,336,36458,2,0,L|72:264,2,67.5000025749208
256,192,36875,12,0,39583,0:0:0:0:
448,224,40000,6,0,L|384:352,1,135.000005149842
384,160,40416,2,0,L|320:288,1,135.000005149842
320,96,40833,2,0,L|256:224,1,135.000005149842
256,32,41249,2,0,L|192:160,1,135.000005149842
64,160,41666,6,0,L|128:32,1,135.000005149842
128,224,42082,2,0,L|192:96,1,135.000005149842
192,288,42499,2,0,L|256:160,1,135.000005149842
256,352,42915,2,0,L|320:224,1,135.000005149842
195,231,43333,6,0,L|256:352,1,135.000005149842
259,167,43749,2,0,L|320:288,1,135.000005149842
323,103,44166,2,0,L|384:224,1,135.000005149842
387,39,44582,2,0,L|448:160,1,135.000005149842
316,231,45000,6,0,L|256:352,1,135.000005149842
252,167,45416,2,0,L|192:288,1,135.000005149842
188,103,45833,2,0,L|128:224,1,135.000005149842
124,39,46249,2,0,L|64:160,1,135.000005149842
196,153,46666,6,0,L|288:32,1,135.000005149842
256,224,47083,2,0,L|348:103,1,135.000005149842
320,288,47500,2,0,L|412:167,1,135.000005149842
384,352,47916,2,0,L|476:231,1,135.000005149842
316,153,48333,6,0,L|192:32,1,135.000005149842
256,224,48750,2,0,L|132:103,1,135.000005149842
192,288,49166,2,0,L|68:167,1,135.000005149842
128,352,49583,2,0,L|4:231,1,135.000005149842
256,192,50000,12,0,50625,0:0:0:0:
256,320,50833,6,0,L|256:128,1,180
256,192,51666,12,0,52500,0:0:0:0:
192,192,52916,5,0,0:0:0:0:
320,192,53333,6,0,L|288:32,1,135.000005149842
288,192,53750,2,0,L|224:32,1,135.000005149842
256,192,54166,2,0,L|160:32,1,135.000005149842
224,192,54583,2,0,L|96:64,1,135.000005149842
256,288,55000,6,0,L|384:192,1,135.000005149842
288,288,55416,2,0,L|416:224,1,135.000005149842
320,288,55833,2,0,L|480:256,1,135.000005149842
352,288,56250,2,0,L|512:288,1,135.000005149842
384,256,56666,6,0,L|249:256,1,135.000005149842
256,224,57083,2,0,L|391:224,1,135.000005149842
384,192,57500,2,0,L|249:192,1,135.000005149842
256,160,57917,2,0,L|391:160,1,135.000005149842
256,320,58333,6,0,L|121:320,1,135.000005149842
128,288,58750,2,0,L|263:288,1,135.000005149842
256,256,59167,2,0,L|121:256,1,135.000005149842
128,224,59584,2,0,L|263:224,1,135.000005149842
352,224,60000,6,0,L|512:224,1,135.000005149842
480,160,60416,2,0,L|320:160,1,135.000005149842
256,160,60833,2,0,L|121:160,1,135.000005149842
113,224,61249,2,0,L|248:224,1,135.000005149842
352,128,61666,6,0,L|512:128,1,135.000005149842
480,64,62082,2,0,L|320:64,1,135.000005149842
256,64,62499,2,0,L|121:64,1,135.000005149842
113,128,62915,2,0,L|248:128,1,135.000005149842
320,192,63333,6,0,L|480:192,1,135.000005149842
512,224,63750,2,0,L|352:224,1,135.000005149842
256,224,64166,2,0,L|96:224,1,135.000005149842
64,192,64583,2,0,L|224:192,1,135.000005149842
288,288,65000,6,0,L|448:288,1,135.000005149842
512,224,65416,2,0,L|352:224,1,135.000005149842
224,96,65833,2,0,L|64:96,1,135.000005149842
0,160,66249,2,0,L|160:160,1,135.000005149842
192,160,66562,1,0,0:0:0:0:
256,160,66666,5,0,0:0:0:0:
368,160,66875,1,0,0:0:0:0:
480,160,67083,2,0,L|512:160,3,22.5
448,256,67292,2,0,L|384:256,2,45
480,352,67708,2,0,L|384:384,1,90
384,352,67969,2,0,L|368:320,1,22.5
352,240,68125,1,0,0:0:0:0:
376,240,68229,1,0,0:0:0:0:
400,240,68333,6,0,L|296:240,1,90
384,160,68750,2,0,B|288:160,1,90
204,160,69166,1,0,0:0:0:0:
112,160,69375,1,0,0:0:0:0:
192,248,69583,1,0,0:0:0:0:
104,248,69791,2,0,L|56:248,2,45
192,248,70208,5,0,0:0:0:0:
280,248,70416,2,0,L|248:248,3,22.5
312,152,70625,2,0,L|376:152,2,45
224,152,71041,2,0,L|168:152,1,45
136,152,71250,2,0,L|168:152,3,22.5
108,152,71458,1,0,0:0:0:0:
96,320,71666,6,0,L|192:320,1,60
256,320,72083,2,0,L|352:320,1,60
416,320,72500,2,0,L|512:320,1,60
448,288,72708,2,0,L|512:288,1,45
480,256,72916,2,0,L|416:256|288:256,1,180
