osu file format v14

[General]
AudioFilename: goreshit - tomboyish love for soda pop and apple sweets digipak - 24 a flat chest is fine, too..mp3
AudioLeadIn: 0
PreviewTime: 20000
Countdown: 1
SampleSet: Soft
StackLeniency: 0.7
Mode: 2
LetterboxInBreaks: 1
WidescreenStoryboard: 1

[Editor]
Bookmarks: 20000,40000,50000,53333,66666
DistanceSpacing: 1.5
BeatDivisor: 4
GridSize: 4
TimelineZoom: 3.199999

[Metadata]
Title:a flat chest is fine, too.
TitleUnicode:a flat chest is fine, too.
Artist:goreshit
ArtistUnicode:goreshit
Creator:Lokovodo
Version:Hyper
Source:
Tags:lolicore tomboyish love for soda pop and apple sweets digipak
BeatmapID:696124
BeatmapSetID:311688

[Difficulty]
HPDrainRate:5
CircleSize:3.5
OverallDifficulty:8.5
ApproachRate:8.5
SliderMultiplier:1.8
SliderTickRate:1

[Events]
//Background and Video events
0,0,"Cirno.full.24177.jpg",0,0
//Break Periods
//Storyboard Layer 0 (Background)
//Storyboard Layer 1 (Fail)
//Storyboard Layer 2 (Pass)
//Storyboard Layer 3 (Foreground)
//Storyboard Sound Samples

[TimingPoints]
0,416.666666666667,4,2,0,100,1,0
11250,-80,4,2,0,100,0,0
11666,-100,4,2,0,100,0,0
12916,-80,4,2,0,100,0,0
13333,-100,4,2,0,100,0,0
14583,-66.6666666666667,4,2,0,100,0,0
15000,-100,4,2,0,100,0,0
16250,-66.6666666666667,4,2,0,100,0,0
16666,-100,4,2,0,100,0,0
17916,-57.1428571428571,4,2,0,100,0,0
18333,-100,4,2,0,100,0,0
19583,-50,4,2,0,100,0,0
20000,-100,4,2,0,100,0,0
23333,-66.6666666666667,4,2,0,100,0,1
36666,-100,4,2,0,100,0,0
40000,-66.6666666666667,4,2,0,100,0,1
50000,-100,4,2,0,100,0,0
53333,-66.6666666666667,4,2,0,100,0,1
66666,-100,4,2,0,100,0,0
72916,-50,4,2,0,100,0,0

[HitObjects]
64,192,0,5,0,0:0:0:0:
192,192,416,1,0,0:0:0:0:
32,256,833,1,0,0:0:0:0:
224,256,1250,1,0,0:0:0:0:
448,192,1666,5,0,0:0:0:0:
320,192,2082,1,0,0:0:0:0:
480,256,2499,1,0,0:0:0:0:
288,256,2916,1,0,0:0:0:0:
64,192,3333,5,0,0:0:0:0:
192,192,3749,1,0,0:0:0:0:
32,256,4166,1,0,0:0:0:0:
224,256,4583,1,0,0:0:0:0:
448,192,4999,5,0,0:0:0:0:
320,192,5415,1,0,0:0:0:0:
480,256,5832,1,0,0:0:0:0:
288,256,6249,1,0,0:0:0:0:
64,192,6666,6,0,L|64:128,1,60
320,192,7083,2,0,L|320:132,1,60
192,192,7500,2,0,L|192:132,1,60
448,192,7917,2,0,L|496:128,2,60
320,96,8333,6,0,L|320:32,1,60
64,96,8750,2,0,L|64:36,1,60
192,96,9167,2,0,L|192:36,1,60
192,192,9583,6,0,L|256:192,2,60
64,320,10000,6,0,L|64:256,1,60
320,320,10417,2,0,L|320:260,1,60
192,320,10834,2,0,L|192:260,1,60
448,320,11251,2,0,L|488:248,2,75
320,224,11667,6,0,L|320:160,1,60
64,224,12084,2,0,L|64:164,1,60
192,224,12501,2,0,L|192:164,1,60
192,320,12917,2,0,L|272:320,2,75
64,320,13333,6,0,L|64:256,1,60
320,320,13750,2,0,L|320:260,1,60
192,320,14167,2,0,L|192:260,1,60
448,320,14584,2,0,L|496:240,2,90.0000034332277
320,224,15000,6,0,L|320:160,1,60
64,224,15417,2,0,L|64:164,1,60
192,224,15834,2,0,L|192:164,1,60
192,320,16250,2,0,L|288:320,2,90.0000034332277
64,320,16666,6,0,L|64:256,1,60
320,320,17083,2,0,L|320:260,1,60
192,320,17500,2,0,L|192:260,1,60
448,320,17917,2,0,L|504:232,2,105.000001001358
320,224,18333,6,0,L|320:160,1,60
64,224,18750,2,0,L|64:164,1,60
192,224,19167,2,0,L|192:164,1,60
192,320,19583,6,0,B|288:224|288:352|480:320|352:192|512:192,1,360
352,192,20138,1,0,0:0:0:0:
500,264,20277,1,0,0:0:0:0:
352,116,20416,2,0,L|332:116,5,15
324,116,20625,2,0,L|360:116,3,22.5
296,116,20833,1,0,0:0:0:0:
240,116,20937,1,0,0:0:0:0:
184,116,21041,2,0,L|168:116,5,15
112,112,21250,1,0,0:0:0:0:
48,112,21354,1,0,0:0:0:0:
112,176,21458,2,0,L|144:224,1,45
256,224,21666,5,0,0:0:0:0:
384,224,21875,1,0,0:0:0:0:
256,304,22083,2,0,L|160:304,1,90
384,304,22500,2,0,L|480:304,1,90
256,224,22916,1,0,0:0:0:0:
384,224,23125,1,0,0:0:0:0:
256,144,23333,6,0,L|96:144,1,135.000005149842
96,144,23645,1,0,0:0:0:0:
64,144,23750,1,0,0:0:0:0:
160,144,23958,1,0,0:0:0:0:
64,80,24166,6,0,L|208:80,1,135.000005149842
224,80,24479,1,0,0:0:0:0:
256,80,24583,1,0,0:0:0:0:
352,80,24791,1,0,0:0:0:0:
256,144,25000,6,0,L|416:144,1,135.000005149842
416,144,25312,1,0,0:0:0:0:
448,144,25417,1,0,0:0:0:0:
352,144,25625,1,0,0:0:0:0:
448,80,25833,6,0,L|304:80,1,135.000005149842
288,80,26146,1,0,0:0:0:0:
256,80,26250,1,0,0:0:0:0:
160,80,26458,1,0,0:0:0:0:
66,81,26666,6,0,B|160:144|160:16|336:80,1,270.000010299683
368,80,27187,1,0,0:0:0:0:
416,80,27291,1,0,0:0:0:0:
320,160,27500,2,0,L|176:160,1,135.000005149842
144,160,27812,1,0,0:0:0:0:
96,160,27916,1,0,0:0:0:0:
224,240,28125,5,0,0:0:0:0:
272,240,28229,1,0,0:0:0:0:
320,240,28333,2,0,P|288:304|224:320,1,135.000005149842
320,320,28750,5,0,0:0:0:0:
416,320,28958,1,0,0:0:0:0:
368,304,29062,1,0,0:0:0:0:
320,288,29166,1,0,0:0:0:0:
224,224,29375,1,0,0:0:0:0:
272,208,29479,1,0,0:0:0:0:
320,192,29583,1,0,0:0:0:0:
392,144,29791,1,0,0:0:0:0:
446,81,30000,6,0,B|352:144|352:16|176:80,1,270.000010299683
144,80,30521,1,0,0:0:0:0:
96,80,30625,1,0,0:0:0:0:
192,160,30834,6,0,L|336:160,1,135.000005149842
368,160,31146,1,0,0:0:0:0:
416,160,31250,1,0,0:0:0:0:
288,240,31458,5,0,0:0:0:0:
240,240,31563,1,0,0:0:0:0:
192,240,31667,2,0,P|224:304|288:320,1,135.000005149842
192,320,32084,5,0,0:0:0:0:
96,320,32292,1,0,0:0:0:0:
144,304,32396,1,0,0:0:0:0:
192,288,32500,1,0,0:0:0:0:
288,224,32709,1,0,0:0:0:0:
240,208,32813,1,0,0:0:0:0:
192,192,32917,1,0,0:0:0:0:
120,144,33125,1,0,0:0:0:0:
256,64,33333,6,0,B|352:192|192:160|256:320,1,270.000010299683
352,320,33958,1,0,0:0:0:0:
384,320,34062,1,0,0:0:0:0:
416,320,34166,1,0,0:0:0:0:
448,320,34270,1,0,0:0:0:0:
512,256,34375,5,0,0:0:0:0:
448,256,34479,1,0,0:0:0:0:
384,256,34583,1,0,0:0:0:0:
320,256,34687,1,0,0:0:0:0:
416,192,34791,5,0,0:0:0:0:
512,192,34895,1,0,0:0:0:0:
416,128,35000,2,0,P|256:128|192:224,1,270.000010299683
256,224,35520,1,0,0:0:0:0:
320,224,35625,1,0,0:0:0:0:
384,224,35729,1,0,0:0:0:0:
448,224,35833,2,0,P|352:288|320:288,1,135.000005149842
272,288,36145,1,0,0:0:0:0:
208,288,36250,1,0,0:0:0:0:
144,288,36354,1,0,0:0:0:0:
80,288,36458,1,0,0:0:0:0:
16,288,36562,1,0,0:0:0:0:
256,144,36666,5,0,0:0:0:0:
256,192,36875,12,0,39791,0:0:0:0:
256,192,40000,6,0,L|112:192,1,135.000005149842
80,192,40260,1,0,0:0:0:0:
64,192,40312,1,0,0:0:0:0:
48,192,40364,1,0,0:0:0:0:
16,192,40416,2,0,L|160:192,1,135.000005149842
176,192,40677,1,0,0:0:0:0:
192,192,40729,1,0,0:0:0:0:
208,192,40781,1,0,0:0:0:0:
256,192,40833,6,0,L|400:192,1,135.000005149842
288,128,41145,1,0,0:0:0:0:
160,128,41250,2,0,L|16:128,1,135.000005149842
128,64,41562,1,0,0:0:0:0:
256,192,41666,6,0,L|400:192,1,135.000005149842
432,192,41926,1,0,0:0:0:0:
448,192,41978,1,0,0:0:0:0:
464,192,42030,1,0,0:0:0:0:
496,192,42082,2,0,L|352:192,1,135.000005149842
336,192,42343,1,0,0:0:0:0:
320,192,42395,1,0,0:0:0:0:
304,192,42447,1,0,0:0:0:0:
256,192,42499,6,0,L|112:192,1,135.000005149842
224,128,42811,1,0,0:0:0:0:
352,128,42916,2,0,L|496:128,1,135.000005149842
384,64,43228,1,0,0:0:0:0:
256,288,43333,6,0,L|416:288,1,135.000005149842
352,320,43593,1,0,0:0:0:0:
320,320,43645,1,0,0:0:0:0:
288,320,43697,1,0,0:0:0:0:
256,352,43750,6,0,L|224:352,5,22.5000008583069
216,352,43958,6,0,L|176:352,3,33.7500012874604
144,352,44166,6,0,L|280:352,1,135.000005149842
312,352,44427,1,0,0:0:0:0:
344,352,44479,1,0,0:0:0:0:
376,352,44531,1,0,0:0:0:0:
408,352,44583,2,0,B|464:320|464:320|400:288,1,135.000005149842
368,272,44895,1,0,0:0:0:0:
328,248,45000,6,0,B|408:232|408:232|352:208|352:208|416:192,1,202.500007724762
440,192,45416,2,0,L|304:192,1,135.000005149842
304,120,45729,1,0,0:0:0:0:
304,120,45833,2,0,L|440:120,1,135.000005149842
304,48,46145,1,0,0:0:0:0:
168,120,46250,2,0,L|304:120,1,135.000005149842
303,120,46562,1,0,0:0:0:0:
256,288,46666,6,0,L|96:288,1,135.000005149842
160,320,46926,1,0,0:0:0:0:
192,320,46978,1,0,0:0:0:0:
224,320,47030,1,0,0:0:0:0:
256,352,47083,6,0,L|288:352,5,22.5000008583069
296,352,47291,6,0,L|336:352,3,33.7500012874604
368,352,47499,6,0,L|232:352,1,135.000005149842
200,352,47760,1,0,0:0:0:0:
168,352,47812,1,0,0:0:0:0:
136,352,47864,1,0,0:0:0:0:
104,352,47916,2,0,B|48:320|48:320|112:288,1,135.000005149842
144,272,48228,1,0,0:0:0:0:
184,248,48333,6,0,B|104:232|104:232|160:208|160:208|96:192,1,202.500007724762
72,192,48749,2,0,L|208:192,1,135.000005149842
208,120,49062,1,0,0:0:0:0:
208,120,49166,2,0,L|72:120,1,135.000005149842
208,48,49478,1,0,0:0:0:0:
344,120,49583,2,0,L|208:120,1,135.000005149842
209,120,49895,1,0,0:0:0:0:
256,192,50000,1,0,0:0:0:0:
256,192,50208,12,0,53125,0:0:0:0:
256,192,53333,5,0,0:0:0:0:
320,192,53437,1,0,0:0:0:0:
384,192,53541,1,0,0:0:0:0:
448,192,53645,1,0,0:0:0:0:
320,256,53750,5,0,0:0:0:0:
288,256,53802,1,0,0:0:0:0:
256,256,53854,1,0,0:0:0:0:
224,256,53906,1,0,0:0:0:0:
192,216,53958,1,0,0:0:0:0:
224,216,54010,1,0,0:0:0:0:
256,216,54062,1,0,0:0:0:0:
288,216,54114,1,0,0:0:0:0:
256,128,54166,6,0,L|416:128,1,135.000005149842
416,128,54427,1,0,0:0:0:0:
448,128,54479,1,0,0:0:0:0:
480,128,54531,1,0,0:0:0:0:
512,128,54583,2,0,B|480:192|480:192|512:256,1,135.000005149842
416,256,54895,5,0,0:0:0:0:
320,256,55000,2,0,L|160:256,1,135.000005149842
64,256,55312,1,0,0:0:0:0:
96,192,55416,2,0,L|256:192,1,135.000005149842
352,192,55729,5,0,0:0:0:0:
320,128,55833,2,0,L|160:128,1,135.000005149842
64,128,56145,1,0,0:0:0:0:
96,64,56249,2,0,L|256:64,1,135.000005149842
248,128,56562,5,0,0:0:0:0:
256,192,56666,1,0,0:0:0:0:
192,192,56770,1,0,0:0:0:0:
128,192,56874,1,0,0:0:0:0:
64,192,56978,1,0,0:0:0:0:
192,256,57083,5,0,0:0:0:0:
224,256,57135,1,0,0:0:0:0:
256,256,57187,1,0,0:0:0:0:
288,256,57239,1,0,0:0:0:0:
320,208,57291,1,0,0:0:0:0:
288,208,57343,1,0,0:0:0:0:
256,208,57395,1,0,0:0:0:0:
224,208,57447,1,0,0:0:0:0:
256,128,57499,6,0,L|96:128,1,135.000005149842
96,128,57760,1,0,0:0:0:0:
64,128,57812,1,0,0:0:0:0:
32,128,57864,1,0,0:0:0:0:
0,128,57916,2,0,B|32:192|32:192|0:256,1,135.000005149842
96,256,58228,5,0,0:0:0:0:
192,256,58333,2,0,L|352:256,1,135.000005149842
448,256,58645,1,0,0:0:0:0:
416,192,58749,2,0,L|256:192,1,135.000005149842
160,192,59062,5,0,0:0:0:0:
192,128,59166,2,0,L|352:128,1,135.000005149842
448,128,59478,1,0,0:0:0:0:
416,64,59582,2,0,L|256:64,1,135.000005149842
264,128,59895,5,0,0:0:0:0:
256,192,60000,1,0,0:0:0:0:
192,192,60104,1,0,0:0:0:0:
128,192,60208,1,0,0:0:0:0:
64,192,60312,1,0,0:0:0:0:
224,256,60416,5,0,0:0:0:0:
256,256,60468,1,0,0:0:0:0:
288,256,60520,1,0,0:0:0:0:
320,256,60572,1,0,0:0:0:0:
352,224,60625,1,0,0:0:0:0:
320,224,60677,1,0,0:0:0:0:
288,224,60729,1,0,0:0:0:0:
256,224,60781,1,0,0:0:0:0:
288,192,60833,6,0,L|448:192,1,135.000005149842
512,288,61145,1,0,0:0:0:0:
480,320,61197,1,0,0:0:0:0:
448,352,61250,2,0,L|288:352,1,135.000005149842
248,308,61562,5,0,0:0:0:0:
192,256,61667,2,0,L|352:256,1,135.000005149842
448,256,62083,1,0,0:0:0:0:
320,192,62291,1,0,0:0:0:0:
256,192,62396,1,0,0:0:0:0:
192,192,62500,1,0,0:0:0:0:
64,192,62708,1,0,0:0:0:0:
320,128,62916,1,0,0:0:0:0:
256,128,63020,1,0,0:0:0:0:
192,128,63125,1,0,0:0:0:0:
192,256,63333,6,0,L|352:256,1,135.000005149842
456,256,63749,1,0,0:0:0:0:
328,192,63957,1,0,0:0:0:0:
256,192,64062,1,0,0:0:0:0:
184,192,64166,1,0,0:0:0:0:
56,192,64374,1,0,0:0:0:0:
328,128,64582,1,0,0:0:0:0:
256,128,64686,1,0,0:0:0:0:
184,128,64791,1,0,0:0:0:0:
192,256,65000,6,0,L|352:256,1,135.000005149842
464,256,65416,1,0,0:0:0:0:
336,192,65624,1,0,0:0:0:0:
256,192,65729,1,0,0:0:0:0:
176,192,65833,1,0,0:0:0:0:
48,192,66041,1,0,0:0:0:0:
336,128,66249,1,0,0:0:0:0:
256,128,66353,1,0,0:0:0:0:
176,128,66458,1,0,0:0:0:0:
192,256,66666,5,0,0:0:0:0:
256,256,66770,1,0,0:0:0:0:
320,256,66875,1,0,0:0:0:0:
384,256,66979,1,0,0:0:0:0:
480,256,67083,6,0,L|464:256,5,15
448,256,67291,6,0,L|416:256,3,22.5
400,256,67500,6,0,L|304:256,1,90
288,256,67760,1,0,0:0:0:0:
272,256,67812,1,0,0:0:0:0:
256,256,67864,1,0,0:0:0:0:
224,256,67916,1,0,0:0:0:0:
128,256,68055,1,0,0:0:0:0:
32,256,68194,1,0,0:0:0:0:
224,160,68333,5,0,0:0:0:0:
160,160,68437,1,0,0:0:0:0:
96,160,68541,1,0,0:0:0:0:
32,160,68645,1,0,0:0:0:0:
128,96,68750,5,0,0:0:0:0:
192,96,68854,1,0,0:0:0:0:
256,96,68958,1,0,0:0:0:0:
320,96,69062,1,0,0:0:0:0:
224,224,69166,5,0,0:0:0:0:
160,224,69270,1,0,0:0:0:0:
96,224,69375,1,0,0:0:0:0:
32,224,69479,1,0,0:0:0:0:
128,288,69583,5,0,0:0:0:0:
256,288,69722,1,0,0:0:0:0:
384,288,69861,1,0,0:0:0:0:
320,256,70000,5,0,0:0:0:0:
256,256,70104,1,0,0:0:0:0:
192,256,70209,1,0,0:0:0:0:
128,256,70313,1,0,0:0:0:0:
32,256,70417,6,0,L|48:256,5,15
64,256,70625,6,0,L|96:256,3,22.5
112,256,70834,6,0,L|208:256,1,90
224,256,71094,1,0,0:0:0:0:
240,256,71146,1,0,0:0:0:0:
256,256,71198,1,0,0:0:0:0:
288,256,71250,1,0,0:0:0:0:
384,256,71389,1,0,0:0:0:0:
480,256,71528,1,0,0:0:0:0:
288,160,71667,5,0,0:0:0:0:
352,160,71771,1,0,0:0:0:0:
416,160,71875,1,0,0:0:0:0:
480,160,71979,1,0,0:0:0:0:
384,96,72084,5,0,0:0:0:0:
320,96,72188,1,0,0:0:0:0:
256,96,72292,1,0,0:0:0:0:
192,96,72396,1,0,0:0:0:0:
288,224,72500,5,0,0:0:0:0:
352,224,72604,1,0,0:0:0:0:
416,224,72709,1,0,0:0:0:0:
480,224,72813,1,0,0:0:0:0:
384,288,72916,6,0,L|192:288,1,180
