osu file format v14

[General]
AudioFilename: goreshit - tomboyish love for soda pop and apple sweets digipak - 24 a flat chest is fine, too..mp3
AudioLeadIn: 0
PreviewTime: 20000
Countdown: 1
SampleSet: Soft
StackLeniency: 0.7
Mode: 2
LetterboxInBreaks: 1
WidescreenStoryboard: 1

[Editor]
Bookmarks: 20000,40000,50000,53333,66666,69166
DistanceSpacing: 1.5
BeatDivisor: 4
GridSize: 16
TimelineZoom: 3.699999

[Metadata]
Title:a flat chest is fine, too.
TitleUnicode:a flat chest is fine, too.
Artist:goreshit
ArtistUnicode:goreshit
Creator:Lokovodo
Version:Another
Source:
Tags:lolicore tomboyish love for soda pop and apple sweets digipak
BeatmapID:696123
BeatmapSetID:311688

[Difficulty]
HPDrainRate:6
CircleSize:4
OverallDifficulty:9
ApproachRate:9
SliderMultiplier:2
SliderTickRate:1

[Events]
//Background and Video events
0,0,"Cirno.full.24177.jpg",0,0
//Break Periods
//Storyboard Layer 0 (Background)
//Storyboard Layer 1 (Fail)
//Storyboard Layer 2 (Pass)
//Storyboard Layer 3 (Foreground)
//Storyboard Sound Samples

[TimingPoints]
0,416.666666666667,4,2,0,100,1,0
11250,-80,4,2,0,100,0,0
11666,-100,4,2,0,100,0,0
12916,-80,4,2,0,100,0,0
13333,-100,4,2,0,100,0,0
14583,-66.6666666666667,4,2,0,100,0,0
15000,-100,4,2,0,100,0,0
16250,-66.6666666666667,4,2,0,100,0,0
16666,-100,4,2,0,100,0,0
17916,-57.1428571428571,4,2,0,100,0,0
18333,-100,4,2,0,100,0,0
19583,-50,4,2,0,100,0,0
20000,-100,4,2,0,100,0,0
23333,-66.6666666666667,4,2,0,100,0,1
36666,-100,4,2,0,100,0,0
40000,-66.6666666666667,4,2,0,100,0,1
50000,-50,4,2,0,100,0,0
53333,-66.6666666666667,4,2,0,100,0,1
56666,-62.5,4,2,0,100,0,1
60000,-58.8235294117647,4,2,0,100,0,1
63333,-55.5555555555556,4,2,0,100,0,1
66666,-66.6666666666667,4,2,0,100,0,0
72916,-50,4,2,0,100,0,0

[HitObjects]
64,128,0,5,0,0:0:0:0:
192,128,416,1,0,0:0:0:0:
320,128,833,1,0,0:0:0:0:
448,128,1250,1,0,0:0:0:0:
384,192,1666,5,0,0:0:0:0:
256,192,2082,1,0,0:0:0:0:
128,192,2499,1,0,0:0:0:0:
0,192,2916,1,0,0:0:0:0:
64,128,3333,5,0,0:0:0:0:
192,128,3749,1,0,0:0:0:0:
320,128,4166,1,0,0:0:0:0:
448,128,4583,1,0,0:0:0:0:
384,192,4999,5,0,0:0:0:0:
256,192,5415,1,0,0:0:0:0:
128,192,5832,1,0,0:0:0:0:
0,192,6249,1,0,0:0:0:0:
32,288,6666,6,0,L|96:256,1,66.6666666666667
160,288,6875,1,0,0:0:0:0:
192,224,7083,2,0,L|256:192,1,66.6666666666667
320,224,7292,1,0,0:0:0:0:
352,160,7500,2,0,L|416:128,1,66.6666666666667
480,160,7709,1,0,0:0:0:0:
448,64,7916,6,0,L|384:32,1,66.6666666666667
320,32,8194,1,0,0:0:0:0:
448,96,8333,2,0,L|381:96,1,66.6666666666667
320,96,8541,1,0,0:0:0:0:
352,160,8750,6,0,L|285:160,1,66.6666666666667
224,160,8958,1,0,0:0:0:0:
323,224,9166,2,0,L|256:224,1,66.6666666666667
195,224,9374,1,0,0:0:0:0:
291,288,9583,2,0,L|224:288,1,66.6666666666667
163,288,9791,1,0,0:0:0:0:
192,352,9895,1,0,0:0:0:0:
32,96,10000,6,0,L|96:128,1,66.6666666666667
160,96,10209,1,0,0:0:0:0:
192,160,10417,2,0,L|256:192,1,66.6666666666667
320,160,10626,1,0,0:0:0:0:
352,224,10834,2,0,L|416:256,1,66.6666666666667
480,224,11043,1,0,0:0:0:0:
448,320,11250,6,0,L|352:352,1,83.3333333333333
304,352,11528,1,0,0:0:0:0:
448,288,11667,2,0,L|381:288,1,66.6666666666667
320,288,11875,1,0,0:0:0:0:
352,224,12083,6,0,L|285:224,1,66.6666666666667
224,224,12291,1,0,0:0:0:0:
323,160,12499,2,0,L|256:160,1,66.6666666666667
195,160,12707,1,0,0:0:0:0:
291,96,12916,2,0,L|208:96,1,83.3333333333333
144,96,13124,1,0,0:0:0:0:
192,32,13228,1,0,0:0:0:0:
32,288,13333,6,0,L|96:256,1,66.6666666666667
160,288,13542,1,0,0:0:0:0:
192,224,13750,2,0,L|256:192,1,66.6666666666667
320,224,13959,1,0,0:0:0:0:
352,160,14167,2,0,L|416:128,1,66.6666666666667
480,160,14376,1,0,0:0:0:0:
448,64,14583,6,0,L|352:32,1,100.000003814697
288,32,14861,1,0,0:0:0:0:
448,96,15000,2,0,L|381:96,1,66.6666666666667
320,96,15208,1,0,0:0:0:0:
352,160,15417,6,0,L|285:160,1,66.6666666666667
224,160,15625,1,0,0:0:0:0:
323,224,15833,2,0,L|256:224,1,66.6666666666667
195,224,16041,1,0,0:0:0:0:
291,288,16250,2,0,L|176:288,1,100.000003814697
128,288,16458,1,0,0:0:0:0:
192,352,16562,1,0,0:0:0:0:
32,96,16667,6,0,L|96:128,1,66.6666666666667
160,96,16876,1,0,0:0:0:0:
192,160,17084,2,0,L|256:192,1,66.6666666666667
320,160,17293,1,0,0:0:0:0:
352,224,17501,2,0,L|416:256,1,66.6666666666667
480,224,17710,1,0,0:0:0:0:
448,320,17917,6,0,L|320:352,1,116.666667779287
272,352,18195,1,0,0:0:0:0:
448,288,18334,2,0,L|381:288,1,66.6666666666667
320,288,18542,1,0,0:0:0:0:
352,224,18750,6,0,L|285:224,1,66.6666666666667
224,224,18958,1,0,0:0:0:0:
323,160,19166,2,0,L|256:160,1,66.6666666666667
195,160,19374,1,0,0:0:0:0:
291,96,19583,6,0,B|144:160|144:32|0:32|0:208|128:208,1,400
173,207,20104,5,0,0:0:0:0:
223,207,20208,1,0,0:0:0:0:
273,207,20312,1,0,0:0:0:0:
323,207,20416,2,0,L|352:208,5,16.6666666666667
352,208,20625,2,0,L|384:208,3,25
400,208,20833,2,0,L|352:288,1,50
288,128,21041,5,0,0:0:0:0:
352,128,21145,1,0,0:0:0:0:
416,128,21250,2,0,L|448:128,3,25
480,128,21458,1,0,0:0:0:0:
416,64,21562,1,0,0:0:0:0:
288,64,21666,2,0,B|192:64|192:64|224:128|288:128,1,200
224,128,22187,5,0,0:0:0:0:
160,128,22291,1,0,0:0:0:0:
96,128,22395,1,0,0:0:0:0:
32,128,22500,2,0,L|0:192,1,50
128,192,22708,5,0,0:0:0:0:
192,192,22812,1,0,0:0:0:0:
256,192,22916,2,0,L|224:256,1,50
352,256,23125,5,0,0:0:0:0:
416,256,23229,1,0,0:0:0:0:
480,256,23333,2,0,B|448:320|448:320|352:320,1,150.000005722046
256,320,23645,1,0,0:0:0:0:
224,288,23750,2,0,L|64:288,1,150.000005722046
96,160,24062,1,0,0:0:0:0:
32,160,24166,2,0,B|64:224|64:224|160:224,1,150.000005722046
256,224,24478,1,0,0:0:0:0:
288,192,24583,6,0,L|448:192,1,150.000005722046
384,128,24895,1,0,0:0:0:0:
448,128,25000,2,0,L|288:128,1,150.000005722046
352,192,25312,1,0,0:0:0:0:
416,192,25416,2,0,L|256:192,1,150.000005722046
128,128,25729,1,0,0:0:0:0:
64,128,25834,2,0,L|224:128,1,150.000005722046
160,192,26146,1,0,0:0:0:0:
96,192,26250,6,0,L|256:192,1,150.000005722046
416,128,26562,1,0,0:0:0:0:
480,128,26666,2,0,B|448:64|448:64|352:64,1,150.000005722046
256,64,26978,1,0,0:0:0:0:
224,96,27083,2,0,L|64:96,1,150.000005722046
96,224,27395,1,0,0:0:0:0:
32,224,27499,2,0,B|64:160|64:160|160:160,1,150.000005722046
256,160,27811,1,0,0:0:0:0:
288,192,27916,6,0,L|448:192,1,150.000005722046
384,256,28228,1,0,0:0:0:0:
448,256,28333,2,0,L|288:256,1,150.000005722046
352,192,28645,1,0,0:0:0:0:
416,192,28749,2,0,L|256:192,1,150.000005722046
128,256,29062,1,0,0:0:0:0:
64,256,29167,2,0,L|224:256,1,150.000005722046
160,192,29479,1,0,0:0:0:0:
96,192,29583,6,0,L|256:192,1,150.000005722046
272,192,29843,1,0,0:0:0:0:
248,224,29895,1,0,0:0:0:0:
272,224,29947,1,0,0:0:0:0:
248,256,30000,2,0,B|392:256|392:256|288:280|288:280|344:280,1,300.000011444092
368,280,30468,1,0,0:0:0:0:
400,280,30520,1,0,0:0:0:0:
432,280,30572,1,0,0:0:0:0:
464,280,30625,1,0,0:0:0:0:
400,216,30729,1,0,0:0:0:0:
464,216,30833,6,0,L|304:216,1,150.000005722046
280,216,31093,1,0,0:0:0:0:
248,216,31145,1,0,0:0:0:0:
216,216,31197,1,0,0:0:0:0:
184,216,31250,1,0,0:0:0:0:
248,152,31354,1,0,0:0:0:0:
184,152,31458,2,0,L|344:152,1,150.000005722046
312,88,31770,5,0,0:0:0:0:
168,88,31875,1,0,0:0:0:0:
240,88,31979,1,0,0:0:0:0:
312,88,32083,1,0,0:0:0:0:
168,24,32291,1,0,0:0:0:0:
384,24,32500,2,0,P|448:56|496:128,1,150.000005722046
424,120,32812,5,0,0:0:0:0:
352,120,32916,1,0,0:0:0:0:
280,120,33020,1,0,0:0:0:0:
136,120,33125,1,0,0:0:0:0:
208,120,33229,1,0,0:0:0:0:
264,256,33333,6,0,B|120:256|120:256|224:280|224:280|168:280,1,300.000011444092
144,280,33801,1,0,0:0:0:0:
112,280,33853,1,0,0:0:0:0:
80,280,33905,1,0,0:0:0:0:
48,280,33958,1,0,0:0:0:0:
112,216,34062,1,0,0:0:0:0:
48,216,34166,6,0,L|208:216,1,150.000005722046
232,216,34426,1,0,0:0:0:0:
264,216,34478,1,0,0:0:0:0:
296,216,34530,1,0,0:0:0:0:
328,216,34583,1,0,0:0:0:0:
264,152,34687,1,0,0:0:0:0:
328,152,34791,2,0,L|168:152,1,150.000005722046
200,88,35103,5,0,0:0:0:0:
272,88,35208,1,0,0:0:0:0:
344,88,35312,1,0,0:0:0:0:
128,88,35416,1,0,0:0:0:0:
344,24,35624,1,0,0:0:0:0:
128,24,35833,2,0,P|64:56|16:128,1,150.000005722046
88,120,36145,5,0,0:0:0:0:
160,120,36249,1,0,0:0:0:0:
304,120,36353,1,0,0:0:0:0:
232,120,36458,1,0,0:0:0:0:
376,120,36562,1,0,0:0:0:0:
448,120,36666,1,0,0:0:0:0:
256,192,37083,12,0,39791,0:0:0:0:
192,64,39895,5,0,0:0:0:0:
192,96,39947,1,0,0:0:0:0:
192,128,40000,2,0,L|32:64,1,150.000005722046
256,128,40312,1,0,0:0:0:0:
256,64,40364,1,0,0:0:0:0:
256,192,40416,2,0,L|96:128,1,150.000005722046
320,192,40729,5,0,0:0:0:0:
320,128,40781,1,0,0:0:0:0:
320,256,40833,2,0,L|160:192,1,150.000005722046
384,256,41145,1,0,0:0:0:0:
384,192,41197,1,0,0:0:0:0:
384,320,41249,2,0,L|224:288,1,150.000005722046
320,64,41562,5,0,0:0:0:0:
320,96,41614,1,0,0:0:0:0:
320,128,41667,2,0,L|480:64,1,150.000005722046
256,128,41979,1,0,0:0:0:0:
256,64,42031,1,0,0:0:0:0:
256,192,42083,2,0,L|416:128,1,150.000005722046
192,192,42396,5,0,0:0:0:0:
192,128,42448,1,0,0:0:0:0:
192,256,42500,2,0,L|352:192,1,150.000005722046
128,256,42812,1,0,0:0:0:0:
128,192,42864,1,0,0:0:0:0:
128,320,42916,2,0,L|288:288,1,150.000005722046
192,64,43229,5,0,0:0:0:0:
192,96,43281,1,0,0:0:0:0:
192,128,43334,2,0,L|32:80,1,150.000005722046
256,128,43646,1,0,0:0:0:0:
256,64,43698,1,0,0:0:0:0:
256,192,43750,2,0,L|96:144,1,150.000005722046
320,192,44063,5,0,0:0:0:0:
320,128,44115,1,0,0:0:0:0:
320,256,44167,2,0,L|160:208,1,150.000005722046
384,256,44479,1,0,0:0:0:0:
384,192,44531,1,0,0:0:0:0:
384,320,44583,2,0,L|224:304,1,150.000005722046
320,64,44896,5,0,0:0:0:0:
320,96,44948,1,0,0:0:0:0:
320,128,45001,2,0,L|480:80,1,150.000005722046
256,128,45313,1,0,0:0:0:0:
256,64,45365,1,0,0:0:0:0:
256,192,45417,2,0,L|416:144,1,150.000005722046
192,192,45730,5,0,0:0:0:0:
192,128,45782,1,0,0:0:0:0:
192,256,45834,2,0,L|352:208,1,150.000005722046
128,256,46146,1,0,0:0:0:0:
128,192,46198,1,0,0:0:0:0:
128,320,46250,2,0,L|288:304,1,150.000005722046
192,64,46562,5,0,0:0:0:0:
192,96,46614,1,0,0:0:0:0:
192,128,46667,2,0,L|32:80,1,150.000005722046
256,128,46979,1,0,0:0:0:0:
256,64,47031,1,0,0:0:0:0:
256,192,47083,2,0,L|96:144,1,150.000005722046
320,192,47396,5,0,0:0:0:0:
320,128,47447,1,0,0:0:0:0:
320,256,47500,2,0,L|160:208,1,150.000005722046
384,256,47812,1,0,0:0:0:0:
384,192,47864,1,0,0:0:0:0:
384,320,47916,2,0,L|224:304,1,150.000005722046
320,64,48229,5,0,0:0:0:0:
320,96,48281,1,0,0:0:0:0:
320,128,48334,2,0,L|480:96,1,150.000005722046
256,128,48646,1,0,0:0:0:0:
256,64,48698,1,0,0:0:0:0:
256,192,48750,2,0,L|416:160,1,150.000005722046
192,192,49063,5,0,0:0:0:0:
192,128,49115,1,0,0:0:0:0:
192,256,49167,2,0,L|352:224,1,150.000005722046
128,256,49479,1,0,0:0:0:0:
128,192,49531,1,0,0:0:0:0:
128,320,49583,2,0,L|288:320,1,150.000005722046
192,64,49895,5,0,0:0:0:0:
192,96,49947,1,0,0:0:0:0:
192,128,50000,2,0,B|32:128|32:128|80:128,1,200
128,128,50416,1,0,0:0:0:0:
256,192,50625,12,0,51041,0:0:0:0:
384,192,51250,5,0,0:0:0:0:
256,192,51458,12,0,51875,0:0:0:0:
256,192,52083,5,0,0:0:0:0:
256,192,52291,12,0,52708,0:0:0:0:
128,192,52916,6,0,P|160:176|64:160,1,300
0,192,53333,6,0,L|160:192,1,150.000005722046
256,192,53645,1,0,0:0:0:0:
352,128,53750,2,0,L|192:128,1,150.000005722046
160,128,54010,1,0,0:0:0:0:
128,128,54062,1,0,0:0:0:0:
96,128,54114,1,0,0:0:0:0:
0,64,54166,6,0,L|160:64,1,150.000005722046
176,64,54444,1,0,0:0:0:0:
200,64,54479,1,0,0:0:0:0:
224,64,54513,1,0,0:0:0:0:
248,64,54548,1,0,0:0:0:0:
272,64,54583,2,0,L|432:64,1,150.000005722046
256,280,54895,5,0,0:0:0:0:
96,280,55000,2,0,L|256:280,1,160
256,208,55311,1,0,0:0:0:0:
416,280,55416,2,0,L|256:280,1,160
256,136,55729,1,0,0:0:0:0:
96,280,55833,2,0,L|256:280,1,160
256,352,56145,1,0,0:0:0:0:
416,280,56250,2,0,L|256:280,1,160
256,280,56562,5,0,0:0:0:0:
512,192,56666,2,0,L|352:192,1,160
256,192,56978,1,0,0:0:0:0:
160,128,57083,2,0,L|328:128,1,160
352,128,57343,1,0,0:0:0:0:
384,128,57395,1,0,0:0:0:0:
416,128,57447,1,0,0:0:0:0:
512,64,57499,6,0,L|344:64,1,160
336,64,57777,1,0,0:0:0:0:
312,64,57812,1,0,0:0:0:0:
288,64,57846,1,0,0:0:0:0:
264,64,57881,1,0,0:0:0:0:
240,64,57916,2,0,L|72:64,1,160
256,280,58228,5,0,0:0:0:0:
416,280,58333,2,0,L|256:280,1,160
256,208,58644,1,0,0:0:0:0:
96,280,58750,2,0,L|256:280,1,160
256,136,59062,1,0,0:0:0:0:
416,280,59166,2,0,L|256:280,1,160
256,352,59478,1,0,0:0:0:0:
96,280,59583,2,0,L|256:280,1,160
256,192,59895,5,0,0:0:0:0:
512,192,60000,2,0,L|336:192,1,170.000003242493
256,192,60312,1,0,0:0:0:0:
160,128,60417,2,0,L|336:128,1,170.000003242493
352,128,60677,1,0,0:0:0:0:
384,128,60729,1,0,0:0:0:0:
416,128,60781,1,0,0:0:0:0:
512,64,60833,6,0,L|328:64,1,170.000003242493
336,64,61111,1,0,0:0:0:0:
312,64,61146,1,0,0:0:0:0:
288,64,61180,1,0,0:0:0:0:
264,64,61215,1,0,0:0:0:0:
240,64,61250,2,0,L|64:64,1,170.000003242493
256,280,61562,5,0,0:0:0:0:
426,280,61667,2,0,L|250:280,1,170.000003242493
256,208,61978,1,0,0:0:0:0:
86,280,62083,2,0,L|262:280,1,170.000003242493
256,136,62396,1,0,0:0:0:0:
426,280,62500,2,0,L|250:280,1,170.000003242493
256,352,62812,1,0,0:0:0:0:
86,280,62916,2,0,L|262:280,1,170.000003242493
256,208,63229,5,0,0:0:0:0:
0,192,63333,2,0,L|184:192,1,179.999994506836
256,192,63645,1,0,0:0:0:0:
352,128,63750,2,0,L|160:128,1,179.999994506836
160,128,64010,1,0,0:0:0:0:
128,128,64062,1,0,0:0:0:0:
96,128,64114,1,0,0:0:0:0:
0,64,64166,6,0,L|192:64,1,179.999994506836
176,64,64444,1,0,0:0:0:0:
200,64,64479,1,0,0:0:0:0:
224,64,64513,1,0,0:0:0:0:
248,64,64548,1,0,0:0:0:0:
272,64,64583,2,0,L|456:64,1,179.999994506836
256,280,64895,5,0,0:0:0:0:
76,280,65000,2,0,L|262:280,1,179.999994506836
256,208,65311,1,0,0:0:0:0:
436,280,65416,2,0,L|250:280,1,179.999994506836
256,136,65729,1,0,0:0:0:0:
76,280,65833,2,0,L|262:280,1,179.999994506836
256,352,66145,1,0,0:0:0:0:
436,280,66250,2,0,L|250:280,1,179.999994506836
256,248,66510,1,0,0:0:0:0:
256,208,66562,1,0,0:0:0:0:
256,176,66614,1,0,0:0:0:0:
256,136,66666,5,0,0:0:0:0:
144,136,66770,1,0,0:0:0:0:
32,136,66875,1,0,0:0:0:0:
88,136,66979,2,0,L|128:136,1,37.5000014305115
256,80,67083,1,0,0:0:0:0:
296,80,67118,1,0,0:0:0:0:
328,80,67152,1,0,0:0:0:0:
368,80,67187,1,0,0:0:0:0:
392,80,67239,1,0,0:0:0:0:
408,80,67291,1,0,0:0:0:0:
424,80,67343,1,0,0:0:0:0:
440,80,67395,1,0,0:0:0:0:
456,80,67447,1,0,0:0:0:0:
472,80,67500,5,0,0:0:0:0:
416,160,67604,1,0,0:0:0:0:
496,160,67708,1,0,0:0:0:0:
480,160,67743,1,0,0:0:0:0:
464,160,67777,1,0,0:0:0:0:
448,160,67812,1,0,0:0:0:0:
432,160,67847,1,0,0:0:0:0:
416,176,67881,1,0,0:0:0:0:
400,160,67916,5,0,0:0:0:0:
336,160,68055,1,0,0:0:0:0:
272,160,68194,1,0,0:0:0:0:
336,240,68263,1,0,0:0:0:0:
272,240,68333,2,0,L|209:161,1,100.000003814697
144,160,68541,1,0,0:0:0:0:
112,160,68645,1,0,0:0:0:0:
192,224,68750,6,0,L|80:224,1,100.000003814697
32,224,68958,1,0,0:0:0:0:
64,224,69062,1,0,0:0:0:0:
160,288,69166,2,0,L|272:288,1,100.000003814697
320,288,69374,1,0,0:0:0:0:
288,288,69478,1,0,0:0:0:0:
192,96,69583,5,0,0:0:0:0:
400,96,69722,1,0,0:0:0:0:
128,96,69861,1,0,0:0:0:0:
192,112,69930,1,0,0:0:0:0:
256,136,70000,5,0,0:0:0:0:
368,136,70104,1,0,0:0:0:0:
480,136,70209,1,0,0:0:0:0:
424,136,70313,2,0,L|384:136,1,37.5000014305115
256,80,70417,1,0,0:0:0:0:
216,80,70452,1,0,0:0:0:0:
184,80,70486,1,0,0:0:0:0:
144,80,70521,1,0,0:0:0:0:
120,80,70573,1,0,0:0:0:0:
104,80,70625,1,0,0:0:0:0:
88,80,70677,1,0,0:0:0:0:
72,80,70729,1,0,0:0:0:0:
56,80,70781,1,0,0:0:0:0:
40,80,70834,5,0,0:0:0:0:
96,160,70938,1,0,0:0:0:0:
16,160,71042,1,0,0:0:0:0:
32,160,71077,1,0,0:0:0:0:
48,160,71111,1,0,0:0:0:0:
64,160,71146,1,0,0:0:0:0:
80,160,71181,1,0,0:0:0:0:
96,176,71215,1,0,0:0:0:0:
112,160,71250,5,0,0:0:0:0:
176,160,71389,1,0,0:0:0:0:
240,160,71528,1,0,0:0:0:0:
176,240,71597,1,0,0:0:0:0:
240,240,71667,2,0,L|302:161,1,100.000003814697
336,160,71875,1,0,0:0:0:0:
368,160,71979,1,0,0:0:0:0:
320,224,72084,6,0,L|432:224,1,100.000003814697
480,224,72292,1,0,0:0:0:0:
448,224,72396,1,0,0:0:0:0:
352,288,72500,2,0,L|240:288,1,100.000003814697
416,288,72708,5,0,0:0:0:0:
480,288,72812,1,0,0:0:0:0:
320,96,72916,2,0,L|112:96,1,200
