osu file format v12

[General]
AudioFilename: Satori De Pon!.mp3
AudioLeadIn: 0
PreviewTime: -1
Countdown: 0
SampleSet: Normal
StackLeniency: 0.7
Mode: 2
LetterboxInBreaks: 1
WidescreenStoryboard: 0

[Editor]
DistanceSpacing: 1
BeatDivisor: 4
GridSize: 4

[Metadata]
Title:Satori De Pon!
TitleUnicode:Satori De Pon!
Artist:goreshit
ArtistUnicode:goreshit
Creator:eldnl
Version:Fruitcore
Source:
Tags:
BeatmapID:338326
BeatmapSetID:134990

[Difficulty]
HPDrainRate:7
CircleSize:4
OverallDifficulty:9
ApproachRate:9
SliderMultiplier:2
SliderTickRate:2

[Events]
//Background and Video events
0,0,"BG.png",0,0
//Break Periods
2,76545,83696
2,92885,100037
//Storyboard Layer 0 (Background)
//Storyboard Layer 1 (Fail)
//Storyboard Layer 2 (Pass)
//Storyboard Layer 3 (Foreground)
//Storyboard Sound Samples
//Background Colour Transformations
3,100,163,162,255

[TimingPoints]
190,332.963374028857,4,1,1,71,1,0
6849,330.396475770925,4,1,1,71,1,0
8170,638.297872340426,4,1,1,71,1,0
9446,333.333333333333,4,1,1,71,1,0
9946,352.941176470588,4,1,1,71,1,0
10122,333.333333333333,4,1,1,71,1,0
10288,324.324324324324,4,1,1,71,1,0
10450,315.789473684211,4,1,1,71,1,0
10765,255.31914893617,4,1,1,71,1,0
14339,-100,4,2,1,71,0,0
14977,-100,4,1,1,71,0,0
17913,-100,4,1,0,76,0,0
18041,-100,4,1,1,76,0,0
18424,-100,4,2,1,76,0,0
18935,-100,4,1,1,82,0,0
22509,-100,4,2,1,82,0,0
23020,-100,4,1,1,82,0,0
23147,-100,4,1,1,82,0,0
27105,-100,4,1,1,82,0,1
35275,-100,4,1,1,82,0,1
39233,-100,4,1,1,82,0,1
42424,-100,4,1,0,48,0,1
42935,-100,4,1,1,82,0,0
47913,-100,4,1,1,82,0,0
51616,-100,4,1,1,82,0,0
56211,-100,4,1,1,82,0,0
58764,-100,4,1,0,60,0,0
59147,-100,4,2,1,82,0,0
59275,-100,4,1,1,91,0,0
59786,-100,4,1,1,82,0,1
62850,-100,4,1,0,60,0,1
63616,-100,4,1,1,82,0,1
67956,-100,4,1,1,82,0,1
72041,-100,4,1,1,82,0,1
75105,-100,4,1,0,55,0,1
76126,-100,4,1,0,82,0,0
84296,-100,4,1,0,55,0,0
100637,-100,4,1,0,82,0,0
104467,-100,4,1,1,82,0,0
108807,-100,4,1,1,82,0,1
112254,-100,4,1,0,48,0,1
112892,-100,4,1,1,82,0,1
116977,-100,4,1,1,82,0,1
117999,-100,4,1,1,86,0,1
121062,-100,4,1,1,60,0,1
121190,-100,4,1,1,86,0,1
124126,-100,4,1,0,42,0,1
124764,-100,4,1,0,48,0,1
125147,-100,4,1,1,55,0,0
132807,-100,4,1,0,42,0,0
133318,-100,4,2,0,55,0,0

[Colours]
Combo1 : 128,255,255
Combo2 : 255,128,192

[HitObjects]
352,304,9446,2,0,B|364:192,1,100
160,304,9779,2,0,B|148:180,1,100
256,56,10122,1,0,0:0:0:0:
256,64,10205,1,0,0:0:0:0:
256,72,10288,1,0,0:0:0:0:
256,80,10369,1,0,0:0:0:0:
256,88,10450,1,0,0:0:0:0:
256,96,10528,1,0,0:0:0:0:
256,104,10607,1,0,0:0:0:0:
256,112,10686,1,0,0:0:0:0:
256,120,10765,6,0,B|320:200,1,100,0|0,0:0|0:0,0:0:0:0:
256,120,11020,2,0,B|192:200,1,100,8|0,0:0|0:0,0:0:0:0:
440,232,11275,2,0,B|408:336,1,100
72,232,11530,2,0,B|104:336,1,100,8|0,0:0|0:0,0:0:0:0:
256,344,11786,6,0,B|256:240,1,100
176,192,12041,2,0,B|176:88,1,100,8|0,0:0|0:0,0:0:0:0:
256,344,12296,2,0,B|256:240,1,100
336,192,12552,2,0,B|336:88,1,100,8|0,0:0|0:0,0:0:0:0:
136,48,12807,6,0,B|32:48,1,100
160,144,13062,2,0,B|56:144,1,100,8|0,0:0|0:0,0:0:0:0:
376,48,13318,2,0,B|480:48,1,100
352,144,13573,2,0,B|456:144,1,100,8|0,0:0|0:0,0:0:0:0:
256,72,13828,6,0,B|256:40,4,25
160,192,14084,1,8,0:0:0:0:
352,192,14211,1,0,0:0:0:0:
160,192,14339,1,0,0:0:0:0:
352,192,14467,1,0,0:0:0:0:
256,288,14594,2,0,B|256:344,2,50,8|0|0,0:0|0:0|0:0,0:0:0:0:
336,328,14850,6,0,B|336:224,1,100
176,228,15105,2,0,B|176:328,1,100,8|0,0:0|0:0,0:0:0:0:
304,232,15360,2,0,B|304:128,1,100,0|0,0:0|0:0,0:0:0:0:
208,132,15616,2,0,B|208:232,1,100,8|0,0:0|0:0,0:0:0:0:
360,64,15871,5,0,0:0:0:0:
416,120,15999,1,0,0:0:0:0:
360,64,16126,1,8,0:0:0:0:
416,120,16254,1,0,0:0:0:0:
152,64,16382,1,0,0:0:0:0:
96,120,16510,1,0,0:0:0:0:
152,64,16637,1,8,0:0:0:0:
96,120,16765,1,0,0:0:0:0:
256,96,16892,5,0,0:0:0:0:
256,96,17020,1,0,0:0:0:0:
368,192,17147,1,8,0:0:0:0:
376,192,17211,1,0,0:0:0:0:
384,192,17275,1,0,0:0:0:0:
376,192,17339,1,0,0:0:0:0:
368,192,17403,1,0,0:0:0:0:
256,192,17530,1,0,0:0:0:0:
144,192,17658,1,8,0:0:0:0:
136,192,17722,1,0,0:0:0:0:
128,192,17786,1,0,0:0:0:0:
136,192,17850,1,0,0:0:0:0:
144,192,17914,1,0,0:0:0:0:
256,192,18041,5,0,0:0:0:0:
64,80,18168,1,8,0:0:0:0:
64,80,18296,1,0,0:0:0:0:
448,80,18423,1,0,0:0:0:0:
448,80,18551,1,0,0:0:0:0:
256,56,18679,1,0,0:0:0:0:
256,56,18806,1,0,0:0:0:0:
256,56,18871,1,0,0:0:0:0:
256,56,18935,6,0,B|152:56,1,100,0|0,0:0|0:0,0:0:0:0:
56,192,19190,2,0,B|156:192,1,100,8|0,0:0|0:0,0:0:0:0:
256,328,19445,2,0,B|144:328,1,100
56,192,19701,2,0,B|156:192,1,100,8|0,0:0|0:0,0:0:0:0:
256,56,19956,6,0,B|368:56,1,100
456,192,20211,2,0,B|356:192,1,100,8|0,0:0|0:0,0:0:0:0:
256,328,20466,2,0,B|368:328,1,100
456,192,20722,2,0,B|344:192,1,100,8|0,0:0|0:0,0:0:0:0:
136,192,20977,5,0,0:0:0:0:
216,192,21105,1,0,0:0:0:0:
120,112,21233,2,0,B|72:112,2,50,8|0|0,0:0|0:0|0:0,0:0:0:0:
376,192,21488,1,0,0:0:0:0:
296,192,21616,1,0,0:0:0:0:
392,112,21743,2,0,B|440:112,2,50,8|0|0,0:0|0:0|0:0,0:0:0:0:
168,40,21999,6,0,B|184:144,1,100
344,40,22254,2,0,B|328:144,1,100,8|0,0:0|0:0,0:0:0:0:
256,304,22509,1,0,0:0:0:0:
224,304,22573,1,0,0:0:0:0:
256,304,22637,1,0,0:0:0:0:
288,304,22701,1,0,0:0:0:0:
256,304,22764,1,8,0:0:0:0:
224,304,22828,1,0,0:0:0:0:
256,304,22892,1,0,0:0:0:0:
288,304,22956,1,0,0:0:0:0:
256,304,23020,6,0,B|256:200,1,100
104,240,23275,2,0,B|160:144,1,100,8|0,0:0|0:0,0:0:0:0:
8,112,23530,2,0,B|96:56,1,100
256,80,23786,1,8,0:0:0:0:
256,80,23913,1,0,0:0:0:0:
256,80,23977,1,0,0:0:0:0:
256,80,24041,6,0,B|256:184,1,100
408,144,24296,2,0,B|352:240,1,100,8|0,0:0|0:0,0:0:0:0:
504,272,24551,2,0,B|416:328,1,100
256,304,24807,1,8,0:0:0:0:
256,304,24935,1,0,0:0:0:0:
256,304,24999,1,0,0:0:0:0:
256,304,25063,6,0,B|256:200,2,100,0|0|8,0:0|0:0|0:0,0:0:0:0:
136,192,25445,1,0,0:0:0:0:
376,192,25573,1,0,0:0:0:0:
136,192,25701,1,0,0:0:0:0:
376,192,25828,1,8,0:0:0:0:
256,144,25956,1,0,0:0:0:0:
256,56,26084,6,0,B|256:16,8,25,0|0|0|0|0|0|0|0|8,0:0|0:0|0:0|0:0|0:0|0:0|0:0|0:0|0:0,0:0:0:0:
128,112,26467,1,0,0:0:0:0:
384,112,26594,1,8,0:0:0:0:
56,256,26722,1,8,0:0:0:0:
456,256,26850,1,8,0:0:0:0:
256,328,26977,1,8,0:0:0:0:
56,256,27105,5,4,0:0:0:0:
56,256,27233,1,0,0:0:0:0:
256,328,27360,1,8,0:0:0:0:
456,256,27488,1,0,0:0:0:0:
456,256,27616,1,0,0:0:0:0:
384,192,27743,1,0,0:0:0:0:
256,128,27871,1,8,0:0:0:0:
128,192,27999,1,0,0:0:0:0:
256,128,28126,5,0,0:0:0:0:
256,128,28254,1,0,0:0:0:0:
184,56,28382,1,8,0:0:0:0:
328,56,28509,1,0,0:0:0:0:
184,56,28637,1,0,0:0:0:0:
328,56,28764,1,0,0:0:0:0:
256,328,28892,5,8,0:0:0:0:
256,328,29020,1,0,0:0:0:0:
152,328,29147,2,0,B|64:280,1,100
360,328,29403,2,0,B|448:280,1,100,8|0,0:0|0:0,0:0:0:0:
112,216,29658,2,0,B|72:120,1,100
400,216,29913,2,0,B|440:120,1,100,8|0,0:0|0:0,0:0:0:0:
144,96,30169,6,0,B|160:48,2,50
368,96,30424,2,0,B|352:48,2,50,8|0|0,0:0|0:0|0:0,0:0:0:0:
256,112,30679,2,0,B|256:160,3,50
256,216,30934,2,0,B|256:256,6,25,8|0|0|0|0|0|0,0:0|0:0|0:0|0:0|0:0|0:0|0:0,0:0:0:0:
432,192,31190,2,0,B|432:296,1,100,0|0,0:0|0:0,0:0:0:0:
352,352,31445,1,8,0:0:0:0:
80,192,31573,2,0,B|80:296,1,100
160,352,31828,1,0,0:0:0:0:
256,304,31956,1,8,0:0:0:0:
256,304,32084,1,0,0:0:0:0:
184,192,32211,5,0,0:0:0:0:
328,192,32339,1,0,0:0:0:0:
256,192,32467,1,8,0:0:0:0:
328,192,32594,1,0,0:0:0:0:
184,192,32722,1,0,0:0:0:0:
256,192,32850,1,0,0:0:0:0:
184,192,32977,6,0,B|112:120,1,100,8|0,0:0|0:0,0:0:0:0:
328,192,33233,2,0,B|400:120,1,100
256,56,33488,1,8,0:0:0:0:
224,56,33616,1,0,0:0:0:0:
256,56,33743,1,0,0:0:0:0:
288,56,33871,1,0,0:0:0:0:
256,56,33999,1,8,0:0:0:0:
256,192,34126,1,0,0:0:0:0:
120,128,34254,6,0,B|64:128,2,50
392,128,34509,2,0,B|448:128,2,50,8|0|0,0:0|0:0|0:0,0:0:0:0:
256,112,34764,2,0,B|256:160,3,50
256,216,35019,2,0,B|256:256,6,25,8|0|0|0|0|0|0,0:0|0:0|0:0|0:0|0:0|0:0|0:0,0:0:0:0:
256,344,35275,6,0,B|256:240,1,100,0|0,0:0|0:0,0:0:0:0:
176,224,35530,2,0,B|176:328,1,100,8|0,0:0|0:0,0:0:0:0:
96,344,35786,2,0,B|96:240,1,100
16,224,36041,2,0,B|16:328,1,100,8|0,0:0|0:0,0:0:0:0:
256,344,36296,6,0,B|256:240,1,100
336,224,36551,2,0,B|336:328,1,100,8|0,0:0|0:0,0:0:0:0:
416,344,36807,2,0,B|416:240,1,100
496,224,37062,2,0,B|496:328,1,100,8|0,0:0|0:0,0:0:0:0:
144,264,37318,5,0,0:0:0:0:
144,264,37445,2,0,B|96:64,1,200
368,264,37828,2,0,B|416:64,1,200,0|8,0:0|0:0,0:0:0:0:
256,64,38211,1,0,0:0:0:0:
176,112,38339,6,0,B|152:160,2,50
336,112,38594,2,0,B|360:160,2,50,8|0|0,0:0|0:0|0:0,0:0:0:0:
256,112,38850,2,0,B|256:160,3,50
256,216,39105,2,0,B|256:256,6,25,8|0|0|0|0|0|0,0:0|0:0|0:0|0:0|0:0|0:0|0:0,0:0:0:0:
256,64,39360,6,0,B|152:64,1,100,0|0,0:0|0:0,0:0:0:0:
256,64,39616,2,0,B|360:64,1,100,8|0,0:0|0:0,0:0:0:0:
456,192,39871,1,0,0:0:0:0:
432,288,39999,1,0,0:0:0:0:
56,192,40126,1,8,0:0:0:0:
80,288,40254,1,0,0:0:0:0:
328,288,40382,6,0,B|416:216,1,100
184,288,40637,2,0,B|96:216,1,100,8|0,0:0|0:0,0:0:0:0:
184,288,40892,1,0,0:0:0:0:
328,288,41020,1,0,0:0:0:0:
184,288,41147,1,8,0:0:0:0:
328,288,41275,1,0,0:0:0:0:
256,328,41403,5,0,0:0:0:0:
184,288,41530,2,0,B|184:88,1,200
328,288,41913,2,0,B|328:88,1,200,0|8,0:0|0:0,0:0:0:0:
256,56,42296,1,0,0:0:0:0:
256,160,42424,6,0,B|256:192,7,25
256,160,42679,2,0,B|256:112,3,50,8|0|0|0,0:0|0:0|0:0|0:0,0:0:0:0:
256,240,42935,6,0,B|256:272,14,25
256,344,43445,6,0,B|104:208,1,200,0|8,0:0|0:0,0:0:0:0:
256,344,43956,2,0,B|408:208,1,200,0|8,0:0|0:0,0:0:0:0:
256,144,44467,6,0,B|256:40,1,100
184,44,44722,2,0,B|184:144,1,100,8|0,0:0|0:0,0:0:0:0:
256,144,44977,2,0,B|256:40,1,100
328,44,45233,2,0,B|328:144,1,100,8|0,0:0|0:0,0:0:0:0:
100,112,45488,6,0,B|100:312,1,200,0|8,0:0|0:0,0:0:0:0:
412,112,45999,2,0,B|412:312,1,200,0|8,0:0|0:0,0:0:0:0:
256,144,46509,6,0,B|208:56,1,100
256,144,46764,2,0,B|304:56,1,100,8|0,0:0|0:0,0:0:0:0:
256,144,47020,2,0,B|208:56,1,100
256,144,47275,2,0,B|304:56,1,100,8|0,0:0|0:0,0:0:0:0:
64,304,47530,6,0,B|152:120,1,200,0|8,0:0|0:0,0:0:0:0:
448,304,48041,2,0,B|360:120,1,200,0|8,0:0|0:0,0:0:0:0:
96,56,48552,6,0,B|96:168,1,100
416,56,48807,2,0,B|416:168,1,100,8|0,0:0|0:0,0:0:0:0:
72,192,49062,2,0,B|72:304,1,100
440,192,49318,2,0,B|440:304,1,100,8|0,0:0|0:0,0:0:0:0:
184,72,49573,6,0,B|48:216,1,200,0|8,0:0|0:0,0:0:0:0:
328,72,50084,2,0,B|464:216,1,200,0|8,0:0|0:0,0:0:0:0:
136,224,50594,6,0,B|152:336,1,100
376,224,50850,2,0,B|360:336,1,100,8|0,0:0|0:0,0:0:0:0:
256,328,51105,2,0,B|256:288,14,25
256,328,51616,6,0,B|152:328,1,100
56,216,51871,2,0,B|160:216,1,100,8|0,0:0|0:0,0:0:0:0:
256,328,52126,2,0,B|152:328,1,100
56,216,52381,2,0,B|160:216,1,100,8|0,0:0|0:0,0:0:0:0:
256,56,52637,6,0,B|360:56,1,100
460,168,52892,2,0,B|356:168,1,100,8|0,0:0|0:0,0:0:0:0:
256,56,53147,2,0,B|360:56,1,100
460,168,53402,2,0,B|356:168,1,100,8|0,0:0|0:0,0:0:0:0:
256,192,53658,5,0,0:0:0:0:
156,192,53786,1,0,0:0:0:0:
256,192,53913,1,8,0:0:0:0:
356,192,54041,1,0,0:0:0:0:
256,192,54169,1,0,0:0:0:0:
156,192,54296,1,0,0:0:0:0:
256,192,54424,1,8,0:0:0:0:
356,192,54552,1,0,0:0:0:0:
256,336,54679,6,0,B|256:128,1,200,0|8,0:0|0:0,0:0:0:0:
256,56,55062,1,0,0:0:0:0:
256,56,55190,1,0,0:0:0:0:
112,192,55318,1,0,0:0:0:0:
400,192,55573,1,0,0:0:0:0:
256,192,55701,5,0,0:0:0:0:
224,192,55828,1,0,0:0:0:0:
192,192,55956,1,8,0:0:0:0:
160,192,56084,1,0,0:0:0:0:
128,192,56211,1,0,0:0:0:0:
32,192,56339,1,0,0:0:0:0:
128,192,56467,1,8,0:0:0:0:
32,192,56594,1,0,0:0:0:0:
256,192,56722,5,0,0:0:0:0:
288,192,56849,1,0,0:0:0:0:
320,192,56977,1,8,0:0:0:0:
352,192,57105,1,0,0:0:0:0:
384,192,57232,1,0,0:0:0:0:
480,192,57360,1,0,0:0:0:0:
384,192,57488,1,8,0:0:0:0:
480,192,57615,1,0,0:0:0:0:
128,64,57743,6,0,B|128:264,1,200,0|8,0:0|0:0,0:0:0:0:
256,312,58126,1,0,0:0:0:0:
384,64,58254,2,0,B|384:264,1,200,0|8,0:0|0:0,0:0:0:0:
256,40,58637,1,0,0:0:0:0:
128,64,58764,6,0,B|128:96,5,25
256,192,59020,1,8,0:0:0:0:
128,64,59147,1,0,0:0:0:0:
256,192,59275,1,8,0:0:0:0:
384,64,59403,1,8,0:0:0:0:
256,192,59530,1,8,0:0:0:0:
384,64,59658,2,0,B|384:104,4,25,8|0|0|0|4,0:0|0:0|0:0|0:0|0:0,0:0:0:0:
256,192,59913,5,0,0:0:0:0:
152,192,60041,2,0,B|120:96,1,100,8|0,0:0|0:0,0:0:0:0:
360,192,60296,2,0,B|392:96,1,100
256,48,60552,1,8,0:0:0:0:
256,48,60679,1,0,0:0:0:0:
144,88,60807,6,0,B|40:88,1,100
160,184,61062,2,0,B|56:184,1,100,8|0,0:0|0:0,0:0:0:0:
368,88,61318,2,0,B|472:88,1,100
352,184,61573,2,0,B|456:184,1,100,8|0,0:0|0:0,0:0:0:0:
136,304,61828,5,0,0:0:0:0:
136,304,61956,1,0,0:0:0:0:
256,336,62084,1,8,0:0:0:0:
376,304,62211,1,0,0:0:0:0:
376,304,62339,1,0,0:0:0:0:
256,336,62467,1,0,0:0:0:0:
256,240,62594,1,8,0:0:0:0:
256,136,62722,1,0,0:0:0:0:
112,112,62850,6,0,B|64:112,2,50
400,112,63105,2,0,B|448:112,2,50,8|0|0,0:0|0:0|0:0,0:0:0:0:
256,40,63360,2,0,B|256:96,3,50
256,136,63616,2,0,B|256:176,6,25,8|0|0|0|0|0|0,0:0|0:0|0:0|0:0|0:0|0:0|0:0,0:0:0:0:
256,336,63871,5,0,0:0:0:0:
156,336,63999,1,0,0:0:0:0:
256,336,64126,1,8,0:0:0:0:
56,336,64254,1,0,0:0:0:0:
256,336,64382,1,0,0:0:0:0:
356,336,64510,1,0,0:0:0:0:
256,336,64637,1,8,0:0:0:0:
456,336,64765,1,0,0:0:0:0:
256,136,64892,6,0,B|168:72,1,100
256,136,65147,2,0,B|344:72,1,100,8|0,0:0|0:0,0:0:0:0:
256,136,65403,2,0,B|168:72,1,100
256,136,65658,2,0,B|344:72,1,100,8|0,0:0|0:0,0:0:0:0:
472,192,65913,6,0,B|456:296,1,100
40,192,66296,2,0,B|56:296,1,100
256,256,66552,1,0,0:0:0:0:
256,256,66679,1,8,0:0:0:0:
256,256,66807,1,0,0:0:0:0:
328,168,66935,6,0,B|320:224,2,50
184,168,67190,2,0,B|192:224,2,50,8|0|0,0:0|0:0|0:0,0:0:0:0:
256,56,67445,2,0,B|256:104,3,50
256,56,67701,2,0,B|256:16,6,25,8|0|0|0|0|0|0,0:0|0:0|0:0|0:0|0:0|0:0|0:0,0:0:0:0:
256,192,67956,6,0,B|152:216,1,100,0|0,0:0|0:0,0:0:0:0:
256,192,68211,2,0,B|208:288,1,100,8|0,0:0|0:0,0:0:0:0:
256,192,68467,2,0,B|304:288,1,100
256,192,68722,2,0,B|360:216,1,100,8|0,0:0|0:0,0:0:0:0:
256,192,68977,6,0,B|360:168,1,100
256,192,69232,2,0,B|304:96,1,100,8|0,0:0|0:0,0:0:0:0:
256,192,69488,2,0,B|208:96,1,100
256,192,69743,2,0,B|152:168,1,100,8|0,0:0|0:0,0:0:0:0:
256,192,69999,5,0,0:0:0:0:
168,64,70126,2,0,B|168:280,1,200
344,64,70509,2,0,B|344:280,1,200,0|8,0:0|0:0,0:0:0:0:
256,192,70892,1,0,0:0:0:0:
168,64,71020,6,0,B|168:128,2,50
344,64,71275,2,0,B|344:128,2,50,8|0|0,0:0|0:0|0:0,0:0:0:0:
256,112,71530,2,0,B|256:160,3,50
256,112,71786,2,0,B|256:72,6,25,8|0|0|0|0|0|0,0:0|0:0|0:0|0:0|0:0|0:0|0:0,0:0:0:0:
64,192,72041,6,0,B|72:296,1,100
448,192,72296,2,0,B|440:296,1,100,8|0,0:0|0:0,0:0:0:0:
64,192,72552,2,0,B|72:296,1,100
448,192,72807,2,0,B|440:296,1,100,8|0,0:0|0:0,0:0:0:0:
176,120,73062,6,0,B|184:224,1,100
336,120,73318,2,0,B|328:224,1,100,8|0,0:0|0:0,0:0:0:0:
176,120,73573,2,0,B|184:224,1,100
336,120,73828,2,0,B|328:224,1,100,8|0,0:0|0:0,0:0:0:0:
256,64,74084,5,0,0:0:0:0:
176,120,74211,2,0,P|113:187|181:250,1,200
336,120,74594,2,0,P|399:187|331:250,1,200,0|8,0:0|0:0,0:0:0:0:
256,64,74977,1,0,0:0:0:0:
256,192,75105,6,0,B|256:144,7,50
256,192,75616,2,0,B|256:224,16,25,0|0|0|0|0|0|0|0|0|0|0|0|0|0|0|0|4,0:0|0:0|0:0|0:0|0:0|0:0|0:0|0:0|0:0|0:0|0:0|0:0|0:0|0:0|0:0|0:0|0:0,0:0:0:0:
336,304,84296,5,8,0:0:0:0:
176,304,84552,1,8,0:0:0:0:
368,192,84807,1,8,0:0:0:0:
144,192,85062,1,8,0:0:0:0:
336,80,85318,1,8,0:0:0:0:
176,80,85574,1,8,0:0:0:0:
368,192,85828,1,8,0:0:0:0:
144,192,86084,1,8,0:0:0:0:
256,336,86339,5,8,0:0:0:0:
48,192,86594,1,8,0:0:0:0:
256,48,86850,1,8,0:0:0:0:
464,192,87105,1,8,0:0:0:0:
256,192,87360,1,8,0:0:0:0:
256,192,87616,1,8,0:0:0:0:
256,192,87871,1,8,0:0:0:0:
256,192,88126,1,8,0:0:0:0:
256,192,88254,1,8,0:0:0:0:
256,192,88382,5,8,0:0:0:0:
48,192,88637,1,8,0:0:0:0:
256,192,88892,1,8,0:0:0:0:
48,192,89147,1,8,0:0:0:0:
256,192,89403,1,8,0:0:0:0:
464,192,89658,1,8,0:0:0:0:
256,192,89913,1,8,0:0:0:0:
464,192,90168,1,8,0:0:0:0:
384,192,90424,5,8,0:0:0:0:
128,192,90679,1,8,0:0:0:0:
384,192,90935,1,8,0:0:0:0:
128,192,91190,1,8,0:0:0:0:
256,64,91445,2,0,B|256:128,7,50,8|0|0|0|0|0|0|0,0:0|0:0|0:0|0:0|0:0|0:0|0:0|0:0,0:0:0:0:
256,136,91956,2,0,B|256:168,16,25,8|0|0|0|0|0|0|0|0|0|0|0|0|0|0|0|4,0:0|0:0|0:0|0:0|0:0|0:0|0:0|0:0|0:0|0:0|0:0|0:0|0:0|0:0|0:0|0:0|0:0,0:0:0:0:
64,320,100637,6,0,B|40:224,1,100,4|0,0:0|0:0,0:0:0:0:
256,192,100892,1,8,0:0:0:0:
448,320,101020,2,0,B|472:224,1,100
256,192,101275,1,0,0:0:0:0:
256,192,101403,1,8,0:0:0:0:
256,192,101530,1,0,0:0:0:0:
144,160,101658,6,0,B|144:56,1,100
256,32,101913,1,8,0:0:0:0:
368,160,102041,2,0,B|368:56,1,100
256,32,102296,1,0,0:0:0:0:
184,56,102424,5,8,0:0:0:0:
328,56,102552,1,0,0:0:0:0:
184,56,102679,1,0,0:0:0:0:
328,56,102807,1,0,0:0:0:0:
256,192,102935,1,8,0:0:0:0:
256,288,103062,1,0,0:0:0:0:
256,192,103190,1,0,0:0:0:0:
96,336,103318,6,0,B|72:240,1,100,0|8,0:0|0:0,0:0:0:0:
416,336,103573,2,0,B|440:240,1,100
152,248,103828,2,0,B|128:152,1,100,0|8,0:0|0:0,0:0:0:0:
360,248,104084,2,0,B|384:152,1,100
256,192,104339,1,0,0:0:0:0:
256,88,104467,2,0,B|256:56,6,25,8|0|0|0|0|0|0,0:0|0:0|0:0|0:0|0:0|0:0|0:0,0:0:0:0:
120,88,104722,6,0,B|64:184|120:280,1,200,0|8,0:0|0:0,0:0:0:0:
392,88,105233,2,0,B|480:176|392:264,1,200,0|8,0:0|0:0,0:0:0:0:
32,80,105743,6,0,B|32:280,1,200,0|8,0:0|0:0,0:0:0:0:
480,80,106254,2,0,B|480:280,1,200,0|8,0:0|0:0,0:0:0:0:
128,144,106764,6,0,B|128:248,1,100
384,144,107020,2,0,B|384:248,1,100,8|0,0:0|0:0,0:0:0:0:
184,144,107275,2,0,B|184:256,1,100
328,144,107530,2,0,B|328:256,1,100,8|0,0:0|0:0,0:0:0:0:
256,192,107786,6,0,B|256:144,7,50
256,192,108297,2,0,B|256:224,14,25
80,192,108807,2,0,B|80:296,1,100,4|0,0:0|0:0,0:0:0:0:
160,352,109062,1,8,0:0:0:0:
432,192,109190,2,0,B|432:296,1,100
352,352,109445,1,0,0:0:0:0:
256,304,109573,1,8,0:0:0:0:
256,304,109701,1,0,0:0:0:0:
160,352,109828,6,0,B|160:240,1,100
256,304,110084,1,8,0:0:0:0:
352,352,110211,2,0,B|352:240,1,100
256,304,110467,1,0,0:0:0:0:
328,192,110594,6,0,B|400:120,1,100,8|0,0:0|0:0,0:0:0:0:
184,192,110850,2,0,B|112:120,1,100
256,56,111105,1,8,0:0:0:0:
288,56,111233,1,0,0:0:0:0:
256,56,111360,1,0,0:0:0:0:
224,56,111488,1,0,0:0:0:0:
256,56,111616,1,8,0:0:0:0:
256,192,111743,1,0,0:0:0:0:
392,128,111871,6,0,B|448:128,2,50
120,128,112126,2,0,B|64:128,2,50,8|0|0,0:0|0:0|0:0,0:0:0:0:
256,152,112381,2,0,B|272:112,7,25
256,152,112637,2,0,B|240:112,6,25
256,64,112892,6,0,B|360:64,1,100
256,64,113148,2,0,B|152:64,1,100,8|0,0:0|0:0,0:0:0:0:
56,192,113403,1,0,0:0:0:0:
80,288,113531,1,0,0:0:0:0:
456,192,113658,1,8,0:0:0:0:
432,288,113786,1,0,0:0:0:0:
184,288,113914,6,0,B|96:216,1,100
328,288,114169,2,0,B|416:216,1,100,8|0,0:0|0:0,0:0:0:0:
328,288,114424,1,0,0:0:0:0:
328,288,114552,1,0,0:0:0:0:
184,288,114679,1,8,0:0:0:0:
184,288,114807,1,0,0:0:0:0:
256,328,114935,5,0,0:0:0:0:
328,288,115062,2,0,B|448:128,1,200
184,288,115445,2,0,B|64:128,1,200,0|8,0:0|0:0,0:0:0:0:
256,112,115828,1,0,0:0:0:0:
344,64,115956,6,0,B|392:40,2,50
168,64,116211,2,0,B|120:40,2,50,8|0|0,0:0|0:0|0:0,0:0:0:0:
256,112,116467,2,0,B|256:160,3,50
256,216,116722,2,0,B|256:256,6,25,8|0|0|0|0|0|0,0:0|0:0|0:0|0:0|0:0|0:0|0:0,0:0:0:0:
48,312,116977,6,0,B|64:192,1,100
464,312,117233,2,0,B|448:192,1,100,8|0,0:0|0:0,0:0:0:0:
48,312,117488,2,0,B|64:192,1,100
464,312,117743,2,0,B|448:192,1,100,8|0,0:0|0:0,0:0:0:0:
256,216,117999,5,0,0:0:0:0:
320,136,118126,2,0,B|320:336,1,200
192,136,118509,2,0,B|192:336,1,200,0|8,0:0|0:0,0:0:0:0:
256,216,118892,1,0,0:0:0:0:
480,248,119020,6,0,B|456:144,1,100
32,248,119403,2,0,B|56:144,1,100
256,216,119658,1,0,0:0:0:0:
256,216,119786,1,8,0:0:0:0:
256,216,119913,1,0,0:0:0:0:
408,192,120041,6,0,B|416:144,2,50
104,192,120296,2,0,B|96:144,2,50,8|0|0,0:0|0:0|0:0,0:0:0:0:
256,112,120552,2,0,B|256:160,3,50
256,216,120807,2,0,B|256:256,6,25,8|0|0|0|0|0|0,0:0|0:0|0:0|0:0|0:0|0:0|0:0,0:0:0:0:
256,216,121062,6,0,B|160:192,1,100
256,216,121318,2,0,B|160:192,1,100,8|0,0:0|0:0,0:0:0:0:
256,216,121573,2,0,B|352:192,1,100
256,216,121828,2,0,B|352:192,1,100,8|0,0:0|0:0,0:0:0:0:
192,96,122084,2,0,B|96:72,1,100
192,96,122339,2,0,B|96:72,1,100,8|0,0:0|0:0,0:0:0:0:
320,96,122594,2,0,B|416:72,1,100
320,96,122850,2,0,B|416:72,1,100,8|0,0:0|0:0,0:0:0:0:
112,288,123105,6,0,B|0:288,1,100
112,288,123360,2,0,B|0:288,1,100,8|0,0:0|0:0,0:0:0:0:
400,288,123616,2,0,B|512:288,1,100
400,288,123871,2,0,B|512:288,1,100,8|0,0:0|0:0,0:0:0:0:
256,192,124126,6,0,B|256:144,7,50
256,192,124637,2,0,B|256:224,14,25
256,192,125147,5,8,0:0:0:0:
56,192,125403,1,8,0:0:0:0:
256,192,125659,1,8,0:0:0:0:
456,192,125914,1,8,0:0:0:0:
352,128,126169,5,8,0:0:0:0:
160,128,126424,1,8,0:0:0:0:
384,48,126679,1,8,0:0:0:0:
128,48,126935,1,8,0:0:0:0:
416,280,127190,5,8,0:0:0:0:
360,352,127445,1,8,0:0:0:0:
96,280,127701,1,8,0:0:0:0:
152,352,127956,1,8,0:0:0:0:
256,192,128211,5,8,0:0:0:0:
256,192,128467,1,8,0:0:0:0:
256,192,128722,1,8,0:0:0:0:
256,192,128977,1,8,0:0:0:0:
256,192,129105,1,8,0:0:0:0:
256,192,129233,5,8,0:0:0:0:
192,128,129488,1,8,0:0:0:0:
320,128,129743,1,8,0:0:0:0:
152,296,129999,1,8,0:0:0:0:
360,296,130254,5,8,0:0:0:0:
112,56,130509,1,8,0:0:0:0:
400,56,130764,1,8,0:0:0:0:
56,336,131020,1,8,0:0:0:0:
456,336,131275,5,8,0:0:0:0:
32,192,131530,1,8,0:0:0:0:
480,192,131786,1,8,0:0:0:0:
256,192,132041,1,8,0:0:0:0:
256,192,132296,6,0,B|256:144,7,50,8|0|0|0|0|0|0|0,0:0|0:0|0:0|0:0|0:0|0:0|0:0|0:0,0:0:0:0:
256,192,132807,2,0,B|256:224,14,25,8|0|0|0|0|0|0|0|0|0|0|0|0|0|0,0:0|0:0|0:0|0:0|0:0|0:0|0:0|0:0|0:0|0:0|0:0|0:0|0:0|0:0|0:0,0:0:0:0:
256,192,133318,5,8,0:0:0:0:
256,192,133573,1,8,0:0:0:0:
176,192,133828,1,8,0:0:0:0:
176,192,134084,1,8,0:0:0:0:
96,192,134339,1,8,0:0:0:0:
96,192,134594,1,8,0:0:0:0:
16,192,134850,1,8,0:0:0:0:
16,192,135105,1,8,0:0:0:0:
256,192,135360,5,8,0:0:0:0:
256,192,135615,1,8,0:0:0:0:
336,192,135870,1,8,0:0:0:0:
336,192,136126,1,8,0:0:0:0:
416,192,136381,1,8,0:0:0:0:
416,192,136636,1,8,0:0:0:0:
496,192,136892,1,8,0:0:0:0:
496,192,137147,1,8,0:0:0:0:
416,192,137275,1,8,0:0:0:0:
496,192,137403,1,8,0:0:0:0:
256,192,137530,12,0,140403,0:0:0:0:
256,192,140467,12,4,141488,0:0:0:0:
